  0
SECTION
  2
HEADER
  9
$ACADVER
  1
AC1009
  9
$INSBASE
 10
0.0
 20
0.0
 30
0.0
  9
$EXTMIN
 10
55.06192456281277
 20
28.141301097492342
 30
0.0
  9
$EXTMAX
 10
96.88389118194921
 20
78.064079320958371
 30
3.4274511015
  9
$LIMMIN
 10
0.0
 20
0.0
  9
$LIMMAX
 10
420.0
 20
297.0
  9
$ORTHOMODE
 70
     0
  9
$REGENMODE
 70
     1
  9
$FILLMODE
 70
     1
  9
$QTEXTMODE
 70
     0
  9
$MIRRTEXT
 70
     1
  9
$DRAGMODE
 70
     2
  9
$LTSCALE
 40
0.3
  9
$OSMODE
 70
    37
  9
$ATTMODE
 70
     1
  9
$TEXTSIZE
 40
2.5
  9
$TRACEWID
 40
1.0
  9
$TEXTSTYLE
  7
STANDARD
  9
$CLAYER
  8
2
  9
$CELTYPE
  6
BYLAYER
  9
$CECOLOR
 62
   256
  9
$DIMSCALE
 40
1.0
  9
$DIMASZ
 40
2.5
  9
$DIMEXO
 40
0.625
  9
$DIMDLI
 40
3.75
  9
$DIMRND
 40
0.0
  9
$DIMDLE
 40
0.0
  9
$DIMEXE
 40
1.25
  9
$DIMTP
 40
0.0
  9
$DIMTM
 40
0.0
  9
$DIMTXT
 40
2.5
  9
$DIMCEN
 40
2.5
  9
$DIMTSZ
 40
0.0
  9
$DIMTOL
 70
     0
  9
$DIMLIM
 70
     0
  9
$DIMTIH
 70
     0
  9
$DIMTOH
 70
     0
  9
$DIMSE1
 70
     0
  9
$DIMSE2
 70
     0
  9
$DIMTAD
 70
     1
  9
$DIMZIN
 70
     8
  9
$DIMBLK
  1

  9
$DIMASO
 70
     1
  9
$DIMSHO
 70
     1
  9
$DIMPOST
  1

  9
$DIMAPOST
  1

  9
$DIMALT
 70
     0
  9
$DIMALTD
 70
     3
  9
$DIMALTF
 40
0.03937007874016
  9
$DIMLFAC
 40
1.0
  9
$DIMTOFL
 70
     1
  9
$DIMTVP
 40
0.0
  9
$DIMTIX
 70
     0
  9
$DIMSOXD
 70
     0
  9
$DIMSAH
 70
     0
  9
$DIMBLK1
  1

  9
$DIMBLK2
  1

  9
$DIMSTYLE
  2
ISO-25
  9
$DIMCLRD
 70
     0
  9
$DIMCLRE
 70
     0
  9
$DIMCLRT
 70
     0
  9
$DIMTFAC
 40
1.0
  9
$DIMGAP
 40
0.625
  9
$LUNITS
 70
     2
  9
$LUPREC
 70
     4
  9
$SKETCHINC
 40
1.0
  9
$FILLETRAD
 40
10.0
  9
$AUNITS
 70
     0
  9
$AUPREC
 70
     0
  9
$MENU
  1
.
  9
$ELEVATION
 40
0.0
  9
$PELEVATION
 40
0.0
  9
$THICKNESS
 40
0.0
  9
$LIMCHECK
 70
     0
  9
$BLIPMODE
 70
     0
  9
$CHAMFERA
 40
10.0
  9
$CHAMFERB
 40
10.0
  9
$SKPOLY
 70
     0
  9
$TDCREATE
 40
2453439.4444173728
  9
$TDUPDATE
 40
2453551.9099409259
  9
$TDINDWG
 40
0.0369041204
  9
$TDUSRTIMER
 40
0.0369041204
  9
$USRTIMER
 70
     1
  9
$ANGBASE
 50
0.0
  9
$ANGDIR
 70
     0
  9
$PDMODE
 70
     0
  9
$PDSIZE
 40
0.0
  9
$PLINEWID
 40
0.0
  9
$COORDS
 70
     1
  9
$SPLFRAME
 70
     0
  9
$SPLINETYPE
 70
     6
  9
$SPLINESEGS
 70
     8
  9
$ATTDIA
 70
     0
  9
$ATTREQ
 70
     1
  9
$HANDLING
 70
-16383
  9
$HANDSEED
  5
679
  9
$SURFTAB1
 70
     6
  9
$SURFTAB2
 70
     6
  9
$SURFTYPE
 70
     6
  9
$SURFU
 70
     6
  9
$SURFV
 70
     6
  9
$UCSNAME
  2

  9
$UCSORG
 10
0.0
 20
0.0
 30
0.0
  9
$UCSXDIR
 10
1.0
 20
0.0
 30
0.0
  9
$UCSYDIR
 10
0.0
 20
1.0
 30
0.0
  9
$PUCSNAME
  2

  9
$PUCSORG
 10
0.0
 20
0.0
 30
0.0
  9
$PUCSXDIR
 10
1.0
 20
0.0
 30
0.0
  9
$PUCSYDIR
 10
0.0
 20
1.0
 30
0.0
  9
$USERI1
 70
     0
  9
$USERI2
 70
     0
  9
$USERI3
 70
     0
  9
$USERI4
 70
     0
  9
$USERI5
 70
     0
  9
$USERR1
 40
0.0
  9
$USERR2
 40
0.0
  9
$USERR3
 40
0.0
  9
$USERR4
 40
0.0
  9
$USERR5
 40
0.0
  9
$WORLDVIEW
 70
     1
  9
$SHADEDGE
 70
     3
  9
$SHADEDIF
 70
    70
  9
$TILEMODE
 70
     1
  9
$MAXACTVP
 70
    64
  9
$PLIMCHECK
 70
     0
  9
$PEXTMIN
 10
1.0000000000000000E+020
 20
1.0000000000000000E+020
 30
1.0000000000000000E+020
  9
$PEXTMAX
 10
-1.0000000000000000E+020
 20
-1.0000000000000000E+020
 30
-1.0000000000000000E+020
  9
$PLIMMIN
 10
0.0
 20
0.0
  9
$PLIMMAX
 10
420.0
 20
297.0
  9
$UNITMODE
 70
     0
  9
$VISRETAIN
 70
     1
  9
$PLINEGEN
 70
     0
  9
$PSLTSCALE
 70
     1
  0
ENDSEC
  0
SECTION
  2
TABLES
  0
TABLE
  2
VPORT
 70
     2
  0
VPORT
  2
*ACTIVE
 70
     0
 10
0.0
 20
0.0
 11
1.0
 21
1.0
 12
84.919618726290011
 22
58.431062744074879
 13
0.0
 23
0.0
 14
10.0
 24
10.0
 15
10.0
 25
10.0
 16
0.0
 26
0.0
 36
1.0
 17
0.0
 27
0.0
 37
0.0
 40
73.446820791932254
 41
2.5392405063291141
 42
50.0
 43
0.0
 44
0.0
 50
0.0
 51
0.0
 71
     0
 72
   100
 73
     1
 74
     3
 75
     0
 76
     0
 77
     0
 78
     0
  0
ENDTAB
  0
TABLE
  2
LTYPE
 70
     2
  0
LTYPE
  2
CONTINUOUS
 70
     0
  3
Solid line
 72
    65
 73
     0
 40
0.0
  0
LTYPE
  2
CENTER
 70
     0
  3
Center ____ _ ____ _ ____ _ ____ _ ____ _ ____
 72
    65
 73
     4
 40
50.799999999999997
 49
31.75
 49
-6.3499999999999988
 49
6.3499999999999988
 49
-6.3499999999999988
  0
ENDTAB
  0
TABLE
  2
LAYER
 70
     4
  0
LAYER
  2
0
 70
     0
 62
     7
  6
CONTINUOUS
  0
LAYER
  2
1
 70
     0
 62
     7
  6
CENTER
  0
LAYER
  2
2
 70
     0
 62
     7
  6
CONTINUOUS
  0
LAYER
  2
DEFPOINTS
 70
     0
 62
     7
  6
CONTINUOUS
  0
ENDTAB
  0
TABLE
  2
STYLE
 70
     3
  0
STYLE
  2
STANDARD
 70
     0
 40
0.0
 41
1.0
 50
0.0
 71
     0
 42
2.5
  3
txt
  4

  0
STYLE
  2
\U+00C9L\U+00C9R_\U+00C2S\U+00C2V\U+00C2B\U+00C2N
 70
     0
 40
1.0
 41
1.0
 50
0.0
 71
     0
 42
1.0
  3
\U+00E9l\U+00E9r \U+00E2S\U+00E2V\U+00E2b\U+00E2N
  4

  0
STYLE
  2

 70
     1
 40
0.0
 41
1.0
 50
0.0
 71
     0
 42
2.5
  3
ltypeshp.shx
  4

  0
ENDTAB
  0
TABLE
  2
VIEW
 70
     0
  0
ENDTAB
  0
TABLE
  2
UCS
 70
     0
  0
ENDTAB
  0
TABLE
  2
APPID
 70
     1
  0
APPID
  2
ACAD
 70
     0
  0
ENDTAB
  0
TABLE
  2
DIMSTYLE
 70
     2
  0
DIMSTYLE
  2
ISO-25
 70
     0
  3

  4

  5

  6

  7

 40
1.0
 41
2.5
 42
0.625
 43
3.75
 44
1.25
 45
0.0
 46
0.0
 47
0.0
 48
0.0
140
2.5
141
2.5
142
0.0
143
0.03937007874016
144
1.0
145
0.0
146
1.0
147
0.625
 71
     0
 72
     0
 73
     0
 74
     0
 75
     0
 76
     0
 77
     1
 78
     8
170
     0
171
     3
172
     1
173
     0
174
     0
175
     0
176
     0
177
     0
178
     0
  0
DIMSTYLE
  2
STANDARD
 70
     0
  3

  4

  5

  6

  7

 40
1.0
 41
0.18
 42
0.0625
 43
0.38
 44
0.18
 45
0.0
 46
0.0
 47
0.0
 48
0.0
140
0.18
141
0.09
142
0.0
143
25.399999999999999
144
1.0
145
0.0
146
1.0
147
0.09
 71
     0
 72
     0
 73
     1
 74
     1
 75
     0
 76
     0
 77
     0
 78
     0
170
     0
171
     2
172
     0
173
     0
174
     0
175
     0
176
     0
177
     0
178
     0
  0
ENDTAB
  0
ENDSEC
  0
SECTION
  2
BLOCKS
  0
BLOCK
  8
0
  2
$MODEL_SPACE
 70
     0
 10
0.0
 20
0.0
 30
0.0
  3
$MODEL_SPACE
  1

  0
ENDBLK
  5
21
  8
0
  0
BLOCK
 67
     1
  8
0
  2
$PAPER_SPACE
 70
     0
 10
0.0
 20
0.0
 30
0.0
  3
$PAPER_SPACE
  1

  0
ENDBLK
  5
1D
 67
     1
  8
0
  0
BLOCK
  8
0
  2
*D1
 70
     1
 10
0.0
 20
0.0
 30
0.0
  3
*D1
  1

  0
LINE
  5
5D2
  8
2
 62
     0
 10
67.310107009339461
 20
64.742049589689714
 30
0.0
 11
67.310107009339461
 21
71.40943831838004
 31
0.0
  0
LINE
  5
5D3
  8
2
 62
     0
 10
71.810107009339461
 20
64.742049589689714
 30
0.0
 11
71.810107009339461
 21
71.40943831838004
 31
0.0
  0
LINE
  5
5D4
  8
2
 62
     0
 10
64.810107009339461
 20
70.15943831838004
 30
0.0
 11
62.310107009339461
 21
70.15943831838004
 31
0.0
  0
LINE
  5
5D5
  8
2
 62
     0
 10
74.310107009339461
 20
70.15943831838004
 30
0.0
 11
85.560107009339461
 21
70.15943831838004
 31
0.0
  0
LINE
  5
5D6
  8
2
 62
     0
 10
67.310107009339461
 20
70.15943831838004
 30
0.0
 11
71.810107009339461
 21
70.15943831838004
 31
0.0
  0
SOLID
  5
5D7
  8
2
 62
     0
 10
64.810107009339461
 20
70.576104985046712
 30
0.0
 11
64.810107009339461
 21
69.742771651713355
 31
0.0
 12
67.310107009339461
 22
70.15943831838004
 32
0.0
 13
67.310107009339461
 23
70.15943831838004
 33
0.0
  0
SOLID
  5
5D8
  8
2
 62
     0
 10
74.310107009339461
 20
70.576104985046712
 30
0.0
 11
74.310107009339461
 21
69.742771651713355
 31
0.0
 12
71.810107009339461
 22
70.15943831838004
 32
0.0
 13
71.810107009339461
 23
70.15943831838004
 33
0.0
  0
INSERT
  5
5D9
  8
2
  2
*U9
 10
0.0
 20
0.0
 30
0.0
  0
POINT
  5
5DA
  8
DEFPOINTS
 62
     0
 10
67.310107009339461
 20
64.117049589689714
 30
0.0
  0
POINT
  5
5DB
  8
DEFPOINTS
 62
     0
 10
71.810107009339461
 20
64.117049589689714
 30
0.0
  0
POINT
  5
5DC
  8
DEFPOINTS
 62
     0
 10
71.810107009339461
 20
70.15943831838004
 30
0.0
  0
ENDBLK
  5
534
  8
0
  0
BLOCK
  8
0
  2
*D2
 70
     1
 10
0.0
 20
0.0
 30
0.0
  3
*D2
  1

  0
LINE
  5
5C9
  8
2
 62
     0
 10
64.060107009339461
 20
63.823393348654399
 30
0.0
 11
64.060107009339461
 21
76.189079320958371
 31
0.0
  0
LINE
  5
5CA
  8
2
 62
     0
 10
75.060107009339461
 20
63.823393348654399
 30
0.0
 11
75.060107009339461
 21
76.189079320958371
 31
0.0
  0
LINE
  5
5CB
  8
2
 62
     0
 10
66.560107009339461
 20
74.939079320958371
 30
0.0
 11
72.560107009339461
 21
74.939079320958371
 31
0.0
  0
SOLID
  5
5CC
  8
2
 62
     0
 10
66.560107009339461
 20
75.355745987625042
 30
0.0
 11
66.560107009339461
 21
74.522412654291699
 31
0.0
 12
64.060107009339461
 22
74.939079320958371
 32
0.0
 13
64.060107009339461
 23
74.939079320958371
 33
0.0
  0
SOLID
  5
5CD
  8
2
 62
     0
 10
72.560107009339461
 20
75.355745987625042
 30
0.0
 11
72.560107009339461
 21
74.522412654291699
 31
0.0
 12
75.060107009339461
 22
74.939079320958371
 32
0.0
 13
75.060107009339461
 23
74.939079320958371
 33
0.0
  0
INSERT
  5
5CE
  8
2
  2
*U8
 10
0.0
 20
0.0
 30
0.0
  0
POINT
  5
5CF
  8
DEFPOINTS
 62
     0
 10
64.060107009339461
 20
63.198393348654399
 30
0.0
  0
POINT
  5
5D0
  8
DEFPOINTS
 62
     0
 10
75.060107009339461
 20
63.198393348654399
 30
0.0
  0
POINT
  5
5D1
  8
DEFPOINTS
 62
     0
 10
75.060107009339461
 20
74.939079320958371
 30
0.0
  0
ENDBLK
  5
552
  8
0
  0
BLOCK
  8
0
  2
*D3
 70
     1
 10
0.0
 20
0.0
 30
0.0
  3
*D3
  1

  0
LINE
  5
616
  8
2
 62
     0
 10
74.732443483743566
 20
64.117049589689714
 30
0.0
 11
91.591289366967217
 21
64.117049589689714
 31
0.0
  0
LINE
  5
617
  8
2
 62
     0
 10
75.685107009339461
 20
58.617049589689707
 30
0.0
 11
91.591289366967217
 21
58.617049589689707
 31
0.0
  0
LINE
  5
618
  8
2
 62
     0
 10
90.341289366967217
 20
66.617049589689714
 30
0.0
 11
90.341289366967217
 21
69.117049589689714
 31
0.0
  0
LINE
  5
619
  8
2
 62
     0
 10
90.341289366967217
 20
56.117049589689707
 30
0.0
 11
90.341289366967217
 21
47.323149692793422
 31
0.0
  0
LINE
  5
61A
  8
2
 62
     0
 10
90.341289366967217
 20
64.117049589689714
 30
0.0
 11
90.341289366967217
 21
58.617049589689707
 31
0.0
  0
SOLID
  5
61B
  8
2
 62
     0
 10
89.924622700300546
 20
66.617049589689714
 30
0.0
 11
90.757956033633874
 21
66.617049589689714
 31
0.0
 12
90.341289366967217
 22
64.117049589689714
 32
0.0
 13
90.341289366967217
 23
64.117049589689714
 33
0.0
  0
SOLID
  5
61C
  8
2
 62
     0
 10
89.924622700300546
 20
56.117049589689707
 30
0.0
 11
90.757956033633874
 21
56.117049589689707
 31
0.0
 12
90.341289366967217
 22
58.617049589689707
 32
0.0
 13
90.341289366967217
 23
58.617049589689707
 33
0.0
  0
TEXT
  5
61D
  8
2
 62
     0
 10
89.716289366967203
 20
47.948149692793429
 30
0.0
 40
2.5
  1
5.5
 50
90.0
  0
POINT
  5
61E
  8
DEFPOINTS
 62
     0
 10
74.107443483743566
 20
64.117049589689714
 30
0.0
  0
POINT
  5
61F
  8
DEFPOINTS
 62
     0
 10
75.060107009339461
 20
58.617049589689707
 30
0.0
  0
POINT
  5
620
  8
DEFPOINTS
 62
     0
 10
90.341289366967217
 20
58.617049589689707
 30
0.0
  0
ENDBLK
  5
563
  8
0
  0
BLOCK
  8
0
  2
*D4
 70
     1
 10
0.0
 20
0.0
 30
0.0
  3
*D4
  1

  0
LINE
  5
60B
  8
2
 62
     0
 10
74.732443483743566
 20
64.117049589689714
 30
0.0
 11
96.88389118194921
 21
64.117049589689699
 31
0.0
  0
LINE
  5
60C
  8
2
 62
     0
 10
74.872173154057307
 20
54.617049589689721
 30
0.0
 11
96.88389118194921
 21
54.617049589689721
 31
0.0
  0
LINE
  5
60D
  8
2
 62
     0
 10
95.63389118194921
 20
66.617049589689714
 30
0.0
 11
95.63389118194921
 21
69.117049589689714
 31
0.0
  0
LINE
  5
60E
  8
2
 62
     0
 10
95.63389118194921
 20
52.117049589689721
 30
0.0
 11
95.63389118194921
 21
49.617049589689721
 31
0.0
  0
LINE
  5
60F
  8
2
 62
     0
 10
95.63389118194921
 20
64.117049589689714
 30
0.0
 11
95.63389118194921
 21
54.617049589689721
 31
0.0
  0
SOLID
  5
610
  8
2
 62
     0
 10
95.217224515282524
 20
66.617049589689714
 30
0.0
 11
96.050557848615895
 21
66.617049589689699
 31
0.0
 12
95.63389118194921
 22
64.117049589689714
 32
0.0
 13
95.63389118194921
 23
64.117049589689714
 33
0.0
  0
SOLID
  5
611
  8
2
 62
     0
 10
95.217224515282524
 20
52.117049589689721
 30
0.0
 11
96.050557848615895
 21
52.117049589689721
 31
0.0
 12
95.63389118194921
 22
54.617049589689721
 32
0.0
 13
95.63389118194921
 23
54.617049589689721
 33
0.0
  0
TEXT
  5
612
  8
2
 62
     0
 10
95.008891181949195
 20
56.664444837214518
 30
0.0
 40
2.5
  1
9.5
 50
90.0
  0
POINT
  5
613
  8
DEFPOINTS
 62
     0
 10
74.107443483743566
 20
64.117049589689714
 30
0.0
  0
POINT
  5
614
  8
DEFPOINTS
 62
     0
 10
74.247173154057307
 20
54.617049589689721
 30
0.0
  0
POINT
  5
615
  8
DEFPOINTS
 62
     0
 10
95.63389118194921
 20
54.617049589689721
 30
0.0
  0
ENDBLK
  5
57B
  8
0
  0
BLOCK
  8
0
  2
*D5
 70
     1
 10
0.0
 20
0.0
 30
0.0
  3
*D5
  1

  0
LINE
  5
5DD
  8
2
 62
     0
 10
66.310107009339461
 20
55.139968196532479
 30
0.0
 11
66.310107009339461
 21
46.175832074291797
 31
0.0
  0
LINE
  5
5DE
  8
2
 62
     0
 10
72.810107009339461
 20
55.139968196532479
 30
0.0
 11
72.810107009339461
 21
46.175832074291797
 31
0.0
  0
LINE
  5
5DF
  8
2
 62
     0
 10
68.810107009339461
 20
47.425832074291797
 30
0.0
 11
70.310107009339461
 21
47.425832074291797
 31
0.0
  0
LINE
  5
5E0
  8
2
 62
     0
 10
72.810107009339461
 20
47.425832074291797
 30
0.0
 11
84.060107009339447
 21
47.425832074291797
 31
0.0
  0
SOLID
  5
5E1
  8
2
 62
     0
 10
68.810107009339461
 20
47.842498740958469
 30
0.0
 11
68.810107009339461
 21
47.00916540762514
 31
0.0
 12
66.310107009339461
 22
47.425832074291797
 32
0.0
 13
66.310107009339461
 23
47.425832074291797
 33
0.0
  0
SOLID
  5
5E2
  8
2
 62
     0
 10
70.310107009339461
 20
47.842498740958469
 30
0.0
 11
70.310107009339461
 21
47.00916540762514
 31
0.0
 12
72.810107009339461
 22
47.425832074291797
 32
0.0
 13
72.810107009339461
 23
47.425832074291797
 33
0.0
  0
INSERT
  5
5E3
  8
2
  2
*U10
 10
0.0
 20
0.0
 30
0.0
  0
POINT
  5
5E4
  8
DEFPOINTS
 62
     0
 10
66.310107009339461
 20
55.764968196532479
 30
0.0
  0
POINT
  5
5E5
  8
DEFPOINTS
 62
     0
 10
72.810107009339461
 20
55.764968196532479
 30
0.0
  0
POINT
  5
5E6
  8
DEFPOINTS
 62
     0
 10
72.810107009339461
 20
47.425832074291797
 30
0.0
  0
ENDBLK
  5
592
  8
0
  0
BLOCK
  8
0
  2
*D6
 70
     1
 10
0.0
 20
0.0
 30
0.0
  3
*D6
  1

  0
LINE
  5
5E7
  8
2
 62
     0
 10
64.560107009339461
 20
54.174744878571389
 30
0.0
 11
64.560107009339461
 21
41.519524526910082
 31
0.0
  0
LINE
  5
5E8
  8
2
 62
     0
 10
74.560107009339461
 20
54.174744878571389
 30
0.0
 11
74.560107009339461
 21
41.519524526910082
 31
0.0
  0
LINE
  5
5E9
  8
2
 62
     0
 10
67.060107009339461
 20
42.769524526910082
 30
0.0
 11
72.060107009339461
 21
42.769524526910082
 31
0.0
  0
SOLID
  5
5EA
  8
2
 62
     0
 10
67.060107009339461
 20
43.186191193576747
 30
0.0
 11
67.060107009339461
 21
42.352857860243418
 31
0.0
 12
64.560107009339461
 22
42.769524526910082
 32
0.0
 13
64.560107009339461
 23
42.769524526910082
 33
0.0
  0
SOLID
  5
5EB
  8
2
 62
     0
 10
72.060107009339461
 20
43.186191193576747
 30
0.0
 11
72.060107009339461
 21
42.352857860243418
 31
0.0
 12
74.560107009339461
 22
42.769524526910082
 32
0.0
 13
74.560107009339461
 23
42.769524526910082
 33
0.0
  0
INSERT
  5
5EC
  8
2
  2
*U11
 10
0.0
 20
0.0
 30
0.0
  0
POINT
  5
5ED
  8
DEFPOINTS
 62
     0
 10
64.560107009339461
 20
54.799744878571389
 30
0.0
  0
POINT
  5
5EE
  8
DEFPOINTS
 62
     0
 10
74.560107009339461
 20
54.799744878571389
 30
0.0
  0
POINT
  5
5EF
  8
DEFPOINTS
 62
     0
 10
74.560107009339461
 20
42.769524526910082
 30
0.0
  0
ENDBLK
  5
59F
  8
0
  0
BLOCK
  8
0
  2
*D7
 70
     1
 10
0.0
 20
0.0
 30
0.0
  3
*D7
  1

  0
LINE
  5
638
  8
2
 62
     0
 10
63.810107009339447
 20
56.065363723270941
 30
0.0
 11
63.810107009339447
 21
36.875898651068191
 31
0.0
  0
LINE
  5
639
  8
2
 62
     0
 10
75.310107009339475
 20
56.065363723270941
 30
0.0
 11
75.310107009339475
 21
36.875898651068191
 31
0.0
  0
LINE
  5
63A
  8
2
 62
     0
 10
66.310107009339447
 20
38.125898651068191
 30
0.0
 11
72.810107009339475
 21
38.125898651068191
 31
0.0
  0
SOLID
  5
63B
  8
2
 62
     0
 10
66.310107009339447
 20
38.542565317734862
 30
0.0
 11
66.310107009339447
 21
37.709231984401526
 31
0.0
 12
63.810107009339447
 22
38.125898651068191
 32
0.0
 13
63.810107009339447
 23
38.125898651068191
 33
0.0
  0
SOLID
  5
63C
  8
2
 62
     0
 10
72.810107009339475
 20
38.542565317734862
 30
0.0
 11
72.810107009339475
 21
37.709231984401526
 31
0.0
 12
75.310107009339475
 22
38.125898651068191
 32
0.0
 13
75.310107009339475
 23
38.125898651068191
 33
0.0
  0
INSERT
  5
63D
  8
2
  2
*U12
 10
0.0
 20
0.0
 30
0.0
  0
POINT
  5
63E
  8
DEFPOINTS
 62
     0
 10
63.810107009339447
 20
56.690363723270941
 30
0.0
  0
POINT
  5
63F
  8
DEFPOINTS
 62
     0
 10
75.310107009339475
 20
56.690363723270941
 30
0.0
  0
POINT
  5
640
  8
DEFPOINTS
 62
     0
 10
75.310107009339475
 20
38.125898651068191
 30
0.0
  0
ENDBLK
  5
5BE
  8
0
  0
BLOCK
  8
0
  2
*U8
 70
     1
 10
0.0
 20
0.0
 30
0.0
  3
*U8
  1

  0
TEXT
  5
661
  8
2
 62
     0
 10
67.060107009339461
 20
75.564079320958371
 30
0.0
 40
2.5
  1
\U+2205
  0
TEXT
  5
662
  8
2
 62
     0
 10
69.560107009339461
 20
75.564079320958371
 30
0.0
 40
2.5
  1
11
  0
ENDBLK
  5
664
  8
0
  0
BLOCK
  8
0
  2
*U9
 70
     1
 10
0.0
 20
0.0
 30
0.0
  3
*U9
  1

  0
TEXT
  5
666
  8
2
 62
     0
 10
77.435107009339461
 20
70.78443831838004
 30
0.0
 40
2.5
  1
\U+2205
  0
TEXT
  5
667
  8
2
 62
     0
 10
79.935107009339461
 20
70.78443831838004
 30
0.0
 40
2.5
  1
4.5
  0
ENDBLK
  5
669
  8
0
  0
BLOCK
  8
0
  2
*U10
 70
     1
 10
0.0
 20
0.0
 30
0.0
  3
*U10
  1

  0
TEXT
  5
66B
  8
2
 62
     0
 10
75.935107009339461
 20
48.050832074291812
 30
0.0
 40
2.5
  1
\U+2205
  0
TEXT
  5
66C
  8
2
 62
     0
 10
78.435107009339461
 20
48.050832074291812
 30
0.0
 40
2.5
  1
6.5
  0
ENDBLK
  5
66E
  8
0
  0
BLOCK
  8
0
  2
*U11
 70
     1
 10
0.0
 20
0.0
 30
0.0
  3
*U11
  1

  0
TEXT
  5
670
  8
2
 62
     0
 10
66.851773676006133
 20
43.394524526910082
 30
0.0
 40
2.5
  1
\U+2205
  0
TEXT
  5
671
  8
2
 62
     0
 10
69.351773676006133
 20
43.394524526910082
 30
0.0
 40
2.5
  1
10
  0
ENDBLK
  5
673
  8
0
  0
BLOCK
  8
0
  2
*U12
 70
     1
 10
0.0
 20
0.0
 30
0.0
  3
*U12
  1

  0
TEXT
  5
675
  8
2
 62
     0
 10
65.39344034267279
 20
38.750898651068191
 30
0.0
 40
2.5
  1
\U+2205
  0
TEXT
  5
676
  8
2
 62
     0
 10
67.89344034267279
 20
38.750898651068191
 30
0.0
 40
2.5
  1
11.5
  0
ENDBLK
  5
678
  8
0
  0
ENDSEC
  0
SECTION
  2
ENTITIES
  0
TEXT
  5
C1
  8
2
 10
55.061924630870308
 20
28.141301097492342
 30
0.0
 40
2.5399440000000002
  1
No. 23.010.163.2
 51
-0.0000015352344868
  7
\U+00C9L\U+00C9R_\U+00C2S\U+00C2V\U+00C2B\U+00C2N
  0
POLYLINE
  5
DC
  8
0
 66
     1
 10
0.0
 20
0.0
 30
0.0
 39
3.4274511015
  0
VERTEX
  5
654
  8
0
 10
65.900891664356024
 20
58.077606552758589
 30
0.0
  0
VERTEX
  5
655
  8
0
 10
69.560107009339475
 20
58.077606552758589
 30
0.0
  0
SEQEND
  5
656
  8
0
  0
POLYLINE
  5
DD
  8
0
 66
     1
 10
0.0
 20
0.0
 30
0.0
 39
3.4274511015
  0
VERTEX
  5
657
  8
0
 10
64.870668412267179
 20
56.798687448744879
 30
0.0
  0
VERTEX
  5
658
  8
0
 10
69.563465911418945
 20
56.798687448744879
 30
0.0
  0
SEQEND
  5
659
  8
0
  0
LINE
  5
140
  8
0
 39
3.4274511015
 10
69.560107009339461
 20
60.70653009663112
 30
0.0
 11
66.327060934316549
 21
60.70653009663112
 31
0.0
  0
LINE
  5
141
  8
0
 39
3.4274511015
 10
66.327060934316549
 20
60.70653009663112
 30
0.0
 11
66.327060934316549
 21
60.70653009663112
 31
0.0
  0
LINE
  5
142
  8
0
 39
3.4274511015
 10
66.327060934316549
 20
60.70653009663112
 30
0.0
 11
66.258374814242487
 21
60.69782437083331
 31
0.0
  0
LINE
  5
143
  8
0
 39
3.4274511015
 10
66.258374814242487
 20
60.69782437083331
 30
0.0
 11
66.194007282556313
 21
60.685348448823852
 31
0.0
  0
LINE
  5
144
  8
0
 39
3.4274511015
 10
66.194007282556313
 20
60.685348448823852
 30
0.0
 11
66.134026888280076
 21
60.668896683536637
 31
0.0
  0
LINE
  5
145
  8
0
 39
3.4274511015
 10
66.134026888280076
 20
60.668896683536637
 30
0.0
 11
66.078502180435763
 21
60.648674722037789
 31
0.0
  0
LINE
  5
146
  8
0
 39
3.4274511015
 10
66.078502180435763
 20
60.648674722037789
 30
0.0
 11
66.027501708045449
 21
60.624476917261212
 31
0.0
  0
LINE
  5
147
  8
0
 39
3.4274511015
 10
66.027501708045449
 20
60.624476917261212
 30
0.0
 11
65.980956922087074
 21
60.596440367250942
 31
0.0
  0
LINE
  5
148
  8
0
 39
3.4274511015
 10
65.980956922087074
 20
60.596440367250942
 30
0.0
 11
65.938799273538621
 21
60.56449652298496
 31
0.0
  0
LINE
  5
149
  8
0
 39
3.4274511015
 10
65.938799273538621
 20
60.56449652298496
 30
0.0
 11
65.90096021337807
 21
60.528782482507332
 31
0.0
  0
LINE
  5
14A
  8
0
 39
3.4274511015
 10
65.90096021337807
 20
60.528782482507332
 30
0.0
 11
65.867713937693509
 21
60.48902404972992
 31
0.0
  0
LINE
  5
14B
  8
0
 39
3.4274511015
 10
65.867713937693509
 20
60.48902404972992
 30
0.0
 11
65.838854799418897
 21
60.445495420740883
 31
0.0
  0
LINE
  5
14C
  8
0
 39
3.4274511015
 10
65.838854799418897
 20
60.445495420740883
 30
0.0
 11
65.81445134757621
 21
60.397990948474089
 31
0.0
  0
LINE
  5
14D
  8
0
 39
3.4274511015
 10
65.81445134757621
 20
60.397990948474089
 30
0.0
 11
65.794435033143444
 21
60.34671627999564
 31
0.0
  0
LINE
  5
14E
  8
0
 39
3.4274511015
 10
65.794435033143444
 20
60.34671627999564
 30
0.0
 11
65.778942954164663
 21
60.291465768239469
 31
0.0
  0
LINE
  5
14F
  8
0
 39
3.4274511015
 10
65.778942954164663
 20
60.291465768239469
 30
0.0
 11
65.767838012595817
 21
60.232376511249612
 31
0.0
  0
LINE
  5
150
  8
0
 39
3.4274511015
 10
65.767838012595817
 20
60.232376511249612
 30
0.0
 11
65.761120208436864
 21
60.169379960004044
 31
0.0
  0
LINE
  5
151
  8
0
 39
3.4274511015
 10
65.761120208436864
 20
60.169379960004044
 30
0.0
 11
65.758789541687847
 21
60.102613212546821
 31
0.0
  0
LINE
  5
152
  8
0
 39
3.4274511015
 10
65.758789541687847
 20
60.102613212546821
 30
0.0
 11
65.758789541687847
 21
58.076372670362048
 31
0.0
  0
LINE
  5
153
  8
0
 39
3.4274511015
 10
65.758789541687847
 20
58.076372670362048
 30
0.0
 11
64.941685199090244
 21
57.118400087492802
 31
0.0
  0
LINE
  5
154
  8
0
 39
3.4274511015
 10
64.941685199090244
 20
57.118400087492802
 30
0.0
 11
64.941685199090244
 21
57.118400087492802
 31
0.0
  0
LINE
  5
155
  8
0
 39
3.4274511015
 10
64.941685199090244
 20
57.118400087492802
 30
0.0
 11
64.891918609096464
 21
57.07411741926142
 31
0.0
  0
LINE
  5
156
  8
0
 39
3.4274511015
 10
64.891918609096464
 20
57.07411741926142
 30
0.0
 11
64.848595627173509
 21
57.030520241250343
 31
0.0
  0
LINE
  5
157
  8
0
 39
3.4274511015
 10
64.848595627173509
 20
57.030520241250343
 30
0.0
 11
64.811990449409492
 21
56.98740290639347
 31
0.0
  0
LINE
  5
158
  8
0
 39
3.4274511015
 10
64.811990449409492
 20
56.98740290639347
 30
0.0
 11
64.78196597776035
 21
56.94490251273487
 31
0.0
  0
LINE
  5
159
  8
0
 39
3.4274511015
 10
64.78196597776035
 20
56.94490251273487
 30
0.0
 11
64.758727859292179
 21
56.902881962230481
 31
0.0
  0
LINE
  5
15A
  8
0
 39
3.4274511015
 10
64.758727859292179
 20
56.902881962230481
 30
0.0
 11
64.742070446938882
 21
56.86154690194639
 31
0.0
  0
LINE
  5
15B
  8
0
 39
3.4274511015
 10
64.742070446938882
 20
56.86154690194639
 30
0.0
 11
64.732130838744538
 21
56.820691684816509
 31
0.0
  0
LINE
  5
15C
  8
0
 39
3.4274511015
 10
64.732130838744538
 20
56.820691684816509
 30
0.0
 11
64.728703387643037
 21
56.780453408884888
 31
0.0
  0
LINE
  5
15D
  8
0
 39
3.4274511015
 10
64.728703387643037
 20
56.780453408884888
 30
0.0
 11
64.732130838744538
 21
56.740626427085473
 31
0.0
  0
LINE
  5
15E
  8
0
 39
3.4274511015
 10
64.732130838744538
 20
56.740626427085473
 30
0.0
 11
64.742070446938882
 21
56.701416386484311
 31
0.0
  0
LINE
  5
15F
  8
0
 39
3.4274511015
 10
64.742070446938882
 20
56.701416386484311
 30
0.0
 11
64.758727859292179
 21
56.662754738059391
 31
0.0
  0
LINE
  5
160
  8
0
 39
3.4274511015
 10
64.758727859292179
 20
56.662754738059391
 30
0.0
 11
64.78196597776035
 21
56.624710030832738
 31
0.0
  0
LINE
  5
161
  8
0
 39
3.4274511015
 10
64.78196597776035
 20
56.624710030832738
 30
0.0
 11
64.811990449409492
 21
56.587145166760301
 31
0.0
  0
LINE
  5
162
  8
0
 39
3.4274511015
 10
64.811990449409492
 20
56.587145166760301
 30
0.0
 11
64.848595627173509
 21
56.550197243886132
 31
0.0
  0
LINE
  5
163
  8
0
 39
3.4274511015
 10
64.848595627173509
 20
56.550197243886132
 30
0.0
 11
64.891918609096464
 21
56.513729164166158
 31
0.0
  0
LINE
  5
164
  8
0
 39
3.4274511015
 10
64.891918609096464
 20
56.513729164166158
 30
0.0
 11
64.941685199090244
 21
56.477946574666511
 31
0.0
  0
LINE
  5
165
  8
0
 39
3.4274511015
 10
64.941685199090244
 20
56.477946574666511
 30
0.0
 11
66.187952652082004
 21
55.981583106147284
 31
0.0
  0
LINE
  5
166
  8
0
 39
3.4274511015
 10
66.187952652082004
 20
55.981583106147284
 30
0.0
 11
66.187952652082004
 21
55.981583106147284
 31
0.0
  0
LINE
  5
167
  8
0
 39
3.4274511015
 10
66.187952652082004
 20
55.981583106147284
 30
0.0
 11
66.220239241458145
 21
55.967324909565043
 31
0.0
  0
LINE
  5
168
  8
0
 39
3.4274511015
 10
66.220239241458145
 20
55.967324909565043
 30
0.0
 11
66.247933046358256
 21
55.951490085476109
 31
0.0
  0
LINE
  5
169
  8
0
 39
3.4274511015
 10
66.247933046358256
 20
55.951490085476109
 30
0.0
 11
66.271308262870491
 21
55.93401008485845
 31
0.0
  0
LINE
  5
16A
  8
0
 39
3.4274511015
 10
66.271308262870491
 20
55.93401008485845
 30
0.0
 11
66.290090694906695
 21
55.914884907712093
 31
0.0
  0
LINE
  5
16B
  8
0
 39
3.4274511015
 10
66.290090694906695
 20
55.914884907712093
 30
0.0
 11
66.30462308757707
 21
55.893908906970907
 31
0.0
  0
LINE
  5
16C
  8
0
 39
3.4274511015
 10
66.30462308757707
 20
55.893908906970907
 30
0.0
 11
66.310107009339461
 21
55.881541717892951
 31
0.0
  0
LINE
  5
171
  8
0
 39
3.4274511015
 10
66.310107009339461
 20
55.764968196532479
 30
0.0
 11
66.297973832440164
 21
55.734121136618981
 31
0.0
  0
LINE
  5
172
  8
0
 39
3.4274511015
 10
66.297973832440164
 20
55.734121136618981
 30
0.0
 11
66.281247871064835
 21
55.701765998220822
 31
0.0
  0
LINE
  5
173
  8
0
 39
3.4274511015
 10
66.281247871064835
 20
55.701765998220822
 30
0.0
 11
66.260271870323649
 21
55.667560036227847
 31
0.0
  0
LINE
  5
174
  8
0
 39
3.4274511015
 10
66.260271870323649
 20
55.667560036227847
 30
0.0
 11
66.234634536084442
 21
55.631777446728186
 31
0.0
  0
LINE
  5
175
  8
0
 39
3.4274511015
 10
66.234634536084442
 20
55.631777446728186
 30
0.0
 11
66.204747162479364
 21
55.594349680699807
 31
0.0
  0
LINE
  5
176
  8
0
 39
3.4274511015
 10
66.204747162479364
 20
55.594349680699807
 30
0.0
 11
66.170198455376223
 21
55.555276738142709
 31
0.0
  0
LINE
  5
177
  8
0
 39
3.4274511015
 10
66.170198455376223
 20
55.555276738142709
 30
0.0
 11
64.873040864621615
 21
54.617049589689721
 31
0.0
  0
LINE
  5
17B
  8
0
 39
3.4274511015
 10
64.060107009339461
 20
63.198393348654399
 30
0.0
 11
65.012770534935356
 21
64.117049589689714
 31
0.0
  0
LINE
  5
17C
  8
0
 39
3.4274511015
 10
65.012770534935356
 20
64.117049589689714
 30
0.0
 11
69.560107009339461
 21
64.117049589689714
 31
0.0
  0
LINE
  5
17F
  8
0
 39
3.4274511015
 10
64.977262141523823
 20
54.615279200753882
 30
0.0
 11
64.977262141523823
 21
54.615279200753882
 31
0.0
  0
LINE
  5
180
  8
0
 39
3.4274511015
 10
64.977262141523823
 20
54.615279200753882
 30
0.0
 11
64.909604256780199
 21
54.614867906621697
 31
0.0
  0
LINE
  5
181
  8
0
 39
3.4274511015
 10
64.909604256780199
 20
54.614867906621697
 30
0.0
 11
64.847567391843043
 21
54.618569553811312
 31
0.0
  0
LINE
  5
182
  8
0
 39
3.4274511015
 10
64.847567391843043
 20
54.618569553811312
 30
0.0
 11
64.791425742800484
 21
54.626247044278671
 31
0.0
  0
LINE
  5
183
  8
0
 39
3.4274511015
 10
64.791425742800484
 20
54.626247044278671
 30
0.0
 11
64.740905113564381
 21
54.637831829001748
 31
0.0
  0
LINE
  5
184
  8
0
 39
3.4274511015
 10
64.740905113564381
 20
54.637831829001748
 30
0.0
 11
64.69641679826691
 21
54.6530497118924
 31
0.0
  0
LINE
  5
185
  8
0
 39
3.4274511015
 10
64.69641679826691
 20
54.6530497118924
 30
0.0
 11
64.657823698864007
 21
54.67196924197269
 31
0.0
  0
LINE
  5
186
  8
0
 39
3.4274511015
 10
64.657823698864007
 20
54.67196924197269
 30
0.0
 11
64.625262913399766
 21
54.69445332119853
 31
0.0
  0
LINE
  5
187
  8
0
 39
3.4274511015
 10
64.625262913399766
 20
54.69445332119853
 30
0.0
 11
64.598665892852125
 21
54.720364851525858
 31
0.0
  0
LINE
  5
188
  8
0
 39
3.4274511015
 10
64.598665892852125
 20
54.720364851525858
 30
0.0
 11
64.578306833309213
 21
54.749498185888619
 31
0.0
  0
LINE
  5
189
  8
0
 39
3.4274511015
 10
64.578306833309213
 20
54.749498185888619
 30
0.0
 11
64.564117185749012
 21
54.781990422330828
 31
0.0
  0
LINE
  5
18A
  8
0
 39
3.4274511015
 10
64.564117185749012
 20
54.781990422330828
 30
0.0
 11
64.560107009339461
 21
54.799744878571389
 31
0.0
  0
LINE
  5
18D
  8
0
 39
3.4274511015
 10
64.560107009339461
 20
54.903037559604982
 30
0.0
 11
64.569601107511403
 21
54.941915290726833
 31
0.0
  0
LINE
  5
18E
  8
0
 39
3.4274511015
 10
64.569601107511403
 20
54.941915290726833
 30
0.0
 11
64.586944010084991
 21
54.988871370817371
 31
0.0
  0
LINE
  5
18F
  8
0
 39
3.4274511015
 10
64.586944010084991
 20
54.988871370817371
 30
0.0
 11
64.610593422685341
 21
55.038569411789133
 31
0.0
  0
LINE
  5
190
  8
0
 39
3.4274511015
 10
64.610593422685341
 20
55.038569411789133
 30
0.0
 11
65.335636428696645
 21
55.589086607712048
 31
0.0
  0
LINE
  5
191
  8
0
 39
3.4274511015
 10
65.335636428696645
 20
55.589086607712048
 30
0.0
 11
65.335636428696645
 21
55.589086607712048
 31
0.0
  0
LINE
  5
192
  8
0
 39
3.4274511015
 10
65.335636428696645
 20
55.589086607712048
 30
0.0
 11
65.368951253403239
 21
55.662761604685748
 31
0.0
  0
LINE
  5
193
  8
0
 39
3.4274511015
 10
65.368951253403239
 20
55.662761604685748
 30
0.0
 11
65.397741842655833
 21
55.68360050738287
 31
0.0
  0
LINE
  5
194
  8
0
 39
3.4274511015
 10
65.397741842655833
 20
55.68360050738287
 30
0.0
 11
65.422076745476488
 21
55.703342625727508
 31
0.0
  0
LINE
  5
195
  8
0
 39
3.4274511015
 10
65.422076745476488
 20
55.703342625727508
 30
0.0
 11
65.44195596186519
 21
55.722262155807783
 31
0.0
  0
LINE
  5
196
  8
0
 39
3.4274511015
 10
65.44195596186519
 20
55.722262155807783
 30
0.0
 11
65.457653687910053
 21
55.740153450557607
 31
0.0
  0
LINE
  5
197
  8
0
 39
3.4274511015
 10
65.457653687910053
 20
55.740153450557607
 30
0.0
 11
65.469101374589073
 21
55.75729070606512
 31
0.0
  0
LINE
  5
198
  8
0
 39
3.4274511015
 10
65.469101374589073
 20
55.75729070606512
 30
0.0
 11
65.476504668968303
 21
55.77360537330825
 31
0.0
  0
LINE
  5
199
  8
0
 39
3.4274511015
 10
65.476504668968303
 20
55.77360537330825
 30
0.0
 11
65.479657923981691
 21
55.789234550331102
 31
0.0
  0
LINE
  5
19A
  8
0
 39
3.4274511015
 10
65.479657923981691
 20
55.789234550331102
 30
0.0
 11
65.479040982783417
 21
55.803972590067552
 31
0.0
  0
LINE
  5
19B
  8
0
 39
3.4274511015
 10
65.479040982783417
 20
55.803972590067552
 30
0.0
 11
65.4744481983074
 21
55.818230786649778
 31
0.0
  0
LINE
  5
19C
  8
0
 39
3.4274511015
 10
65.4744481983074
 20
55.818230786649778
 30
0.0
 11
65.466085217619735
 21
55.831734943989701
 31
0.0
  0
LINE
  5
19D
  8
0
 39
3.4274511015
 10
65.466085217619735
 20
55.831734943989701
 30
0.0
 11
65.453952040720424
 21
55.844896356219451
 31
0.0
  0
LINE
  5
19E
  8
0
 39
3.4274511015
 10
65.453952040720424
 20
55.844896356219451
 30
0.0
 11
65.438322863697607
 21
55.857440827250947
 31
0.0
  0
LINE
  5
19F
  8
0
 39
3.4274511015
 10
65.438322863697607
 20
55.857440827250947
 30
0.0
 11
65.418923490463115
 21
55.869642553172291
 31
0.0
  0
LINE
  5
1A0
  8
0
 39
3.4274511015
 10
65.418923490463115
 20
55.869642553172291
 30
0.0
 11
65.396096666127107
 21
55.881364435939417
 31
0.0
  0
LINE
  5
1A1
  8
0
 39
3.4274511015
 10
65.396096666127107
 20
55.881364435939417
 30
0.0
 11
65.369773841667595
 21
55.89281212261843
 31
0.0
  0
LINE
  5
1A2
  8
0
 39
3.4274511015
 10
65.369773841667595
 20
55.89281212261843
 30
0.0
 11
64.020866186161257
 21
56.514483203408503
 31
0.0
  0
LINE
  5
1A3
  8
0
 39
3.4274511015
 10
64.020866186161257
 20
56.514483203408503
 30
0.0
 11
64.020866186161257
 21
56.514483203408503
 31
0.0
  0
LINE
  5
1A4
  8
0
 39
3.4274511015
 10
64.020866186161257
 20
56.514483203408503
 30
0.0
 11
63.962462419391699
 21
56.54546736136605
 31
0.0
  0
LINE
  5
1A5
  8
0
 39
3.4274511015
 10
63.962462419391699
 20
56.54546736136605
 30
0.0
 11
63.911461947001371
 21
56.580016068469178
 31
0.0
  0
LINE
  5
1A6
  8
0
 39
3.4274511015
 10
63.911461947001371
 20
56.580016068469178
 30
0.0
 11
63.86779621996827
 21
56.617718030585671
 31
0.0
  0
LINE
  5
1A7
  8
0
 39
3.4274511015
 10
63.86779621996827
 20
56.617718030585671
 30
0.0
 11
63.831396689270342
 21
56.658504698693527
 31
0.0
  0
LINE
  5
1A8
  8
0
 39
3.4274511015
 10
63.831396689270342
 20
56.658504698693527
 30
0.0
 11
63.810107009339447
 21
56.690363723270941
 31
0.0
  0
LINE
  5
1B0
  8
0
 39
3.4274511015
 10
63.810107009339461
 20
57.068800200772351
 30
0.0
 11
63.835303983526039
 21
57.115726675633631
 31
0.0
  0
LINE
  5
1B1
  8
0
 39
3.4274511015
 10
63.835303983526039
 20
57.115726675633631
 30
0.0
 11
63.872526102488322
 21
57.171868324676197
 31
0.0
  0
LINE
  5
1B2
  8
0
 39
3.4274511015
 10
63.872526102488322
 20
57.171868324676197
 30
0.0
 11
63.91708296680784
 21
57.228078522740802
 31
0.0
  0
LINE
  5
1B3
  8
0
 39
3.4274511015
 10
63.91708296680784
 20
57.228078522740802
 30
0.0
 11
63.968906027462509
 21
57.284220171783367
 31
0.0
  0
LINE
  5
1B4
  8
0
 39
3.4274511015
 10
63.968906027462509
 20
57.284220171783367
 30
0.0
 11
64.641646129664935
 21
58.002888118745886
 31
0.0
  0
LINE
  5
1B5
  8
0
 39
3.4274511015
 10
64.641646129664935
 20
58.002888118745886
 30
0.0
 11
64.641646129664935
 21
58.002888118745886
 31
0.0
  0
LINE
  5
1B6
  8
0
 39
3.4274511015
 10
64.641646129664935
 20
58.002888118745886
 30
0.0
 11
64.716433112699676
 21
58.070751650555579
 31
0.0
  0
LINE
  5
1B7
  8
0
 39
3.4274511015
 10
64.716433112699676
 20
58.070751650555579
 30
0.0
 11
64.783405507222966
 21
58.136078868550179
 31
0.0
  0
LINE
  5
1B8
  8
0
 39
3.4274511015
 10
64.783405507222966
 20
58.136078868550179
 30
0.0
 11
64.842563313234862
 21
58.198732674685601
 31
0.0
  0
LINE
  5
1B9
  8
0
 39
3.4274511015
 10
64.842563313234862
 20
58.198732674685601
 30
0.0
 11
64.89356378562519
 21
58.258644519939821
 31
0.0
  0
LINE
  5
1BA
  8
0
 39
3.4274511015
 10
64.89356378562519
 20
58.258644519939821
 30
0.0
 11
64.936269826349871
 21
58.315471659202693
 31
0.0
  0
LINE
  5
1BB
  8
0
 39
3.4274511015
 10
64.936269826349871
 20
58.315471659202693
 30
0.0
 11
64.970133043232693
 21
58.369419739540291
 31
0.0
  0
LINE
  5
1BC
  8
0
 39
3.4274511015
 10
64.970133043232693
 20
58.369419739540291
 30
0.0
 11
64.995153436273654
 21
58.420146015842491
 31
0.0
  0
LINE
  5
1BD
  8
0
 39
3.4274511015
 10
64.995153436273654
 20
58.420146015842491
 30
0.0
 11
65.010919711340549
 21
58.467787586153349
 31
0.0
  0
LINE
  5
1BE
  8
0
 39
3.4274511015
 10
65.010919711340549
 20
58.467787586153349
 30
0.0
 11
65.017431868433391
 21
58.511864607318643
 31
0.0
  0
LINE
  5
1BF
  8
0
 39
3.4274511015
 10
65.017431868433391
 20
58.511864607318643
 30
0.0
 11
65.014072966353922
 21
58.552651275426491
 31
0.0
  0
LINE
  5
1C0
  8
0
 39
3.4274511015
 10
65.014072966353922
 20
58.552651275426491
 30
0.0
 11
65.000774456080109
 21
58.589873394388782
 31
0.0
  0
LINE
  5
1C1
  8
0
 39
3.4274511015
 10
65.000774456080109
 20
58.589873394388782
 30
0.0
 11
64.9816956577464
 21
58.617049589689707
 31
0.0
  0
LINE
  5
3E4
  8
0
 10
67.310107009339461
 20
64.117049589689714
 30
0.0
 11
67.310107009339461
 21
60.70653009663112
 31
0.0
  0
LINE
  5
3E8
  8
0
 10
64.060107009339461
 20
58.617049589689707
 30
0.0
 11
64.9816956577464
 21
58.617049589689707
 31
0.0
  0
LINE
  5
3E9
  8
0
 10
69.560107009339461
 20
54.617049589689707
 30
0.0
 11
64.873040864621601
 21
54.617049589689707
 31
0.0
  0
LINE
  5
41A
  8
0
 10
64.560107009339461
 20
54.903037559604982
 30
0.0
 11
64.560107009339461
 21
54.799744878571389
 31
0.0
  0
LINE
  5
446
  8
0
 10
63.810107009339461
 20
57.068800200772372
 30
0.0
 11
63.810107009339461
 21
56.690363723270941
 31
0.0
  0
LINE
  5
44B
  8
0
 10
66.310107009339461
 20
55.881541717892951
 30
0.0
 11
66.310107009339461
 21
55.764968196532479
 31
0.0
  0
LINE
  5
44E
  8
0
 10
69.560107009339461
 20
55.764968196532479
 30
0.0
 11
66.310107009339461
 21
55.764968196532479
 31
0.0
  0
LINE
  5
4A3
  8
0
 39
3.4274511015
 10
74.119439562598814
 20
58.589873394388782
 30
0.0
 11
74.138518360932522
 21
58.617049589689707
 31
0.0
  0
LINE
  5
4A4
  8
0
 39
3.4274511015
 10
74.106141052325
 20
58.552651275426491
 30
0.0
 11
74.119439562598814
 21
58.589873394388782
 31
0.0
  0
LINE
  5
4A5
  8
0
 39
3.4274511015
 10
74.102782150245531
 20
58.511864607318643
 30
0.0
 11
74.106141052325
 21
58.552651275426491
 31
0.0
  0
LINE
  5
4A6
  8
0
 39
3.4274511015
 10
74.109294307338374
 20
58.467787586153349
 30
0.0
 11
74.102782150245531
 21
58.511864607318643
 31
0.0
  0
LINE
  5
4A7
  8
0
 39
3.4274511015
 10
74.125060582405268
 20
58.420146015842491
 30
0.0
 11
74.109294307338374
 21
58.467787586153349
 31
0.0
  0
LINE
  5
4A8
  8
0
 39
3.4274511015
 10
74.15008097544623
 20
58.369419739540291
 30
0.0
 11
74.125060582405268
 21
58.420146015842491
 31
0.0
  0
LINE
  5
4A9
  8
0
 39
3.4274511015
 10
74.183944192329051
 20
58.315471659202693
 30
0.0
 11
74.15008097544623
 21
58.369419739540291
 31
0.0
  0
LINE
  5
4AA
  8
0
 39
3.4274511015
 10
74.226650233053732
 20
58.258644519939821
 30
0.0
 11
74.183944192329051
 21
58.315471659202693
 31
0.0
  0
LINE
  5
4AB
  8
0
 39
3.4274511015
 10
74.27765070544406
 20
58.198732674685601
 30
0.0
 11
74.226650233053732
 21
58.258644519939821
 31
0.0
  0
LINE
  5
4AC
  8
0
 39
3.4274511015
 10
74.336808511455956
 20
58.136078868550179
 30
0.0
 11
74.27765070544406
 21
58.198732674685601
 31
0.0
  0
LINE
  5
4AD
  8
0
 39
3.4274511015
 10
74.403780905979247
 20
58.070751650555579
 30
0.0
 11
74.336808511455956
 21
58.136078868550179
 31
0.0
  0
LINE
  5
4AE
  8
0
 39
3.4274511015
 10
74.478567889013988
 20
58.002888118745886
 30
0.0
 11
74.403780905979247
 21
58.070751650555579
 31
0.0
  0
LINE
  5
4AF
  8
0
 39
3.4274511015
 10
74.478567889013988
 20
58.002888118745886
 30
0.0
 11
74.478567889013988
 21
58.002888118745886
 31
0.0
  0
LINE
  5
4B0
  8
0
 39
3.4274511015
 10
75.151307991216413
 20
57.284220171783367
 30
0.0
 11
74.478567889013988
 21
58.002888118745886
 31
0.0
  0
LINE
  5
4B1
  8
0
 39
3.4274511015
 10
75.203131051871082
 20
57.228078522740802
 30
0.0
 11
75.151307991216413
 21
57.284220171783367
 31
0.0
  0
LINE
  5
4B2
  8
0
 39
3.4274511015
 10
75.247687916190586
 20
57.171868324676197
 30
0.0
 11
75.203131051871082
 21
57.228078522740802
 31
0.0
  0
LINE
  5
4B3
  8
0
 39
3.4274511015
 10
75.284910035152876
 20
57.115726675633631
 30
0.0
 11
75.247687916190586
 21
57.171868324676197
 31
0.0
  0
LINE
  5
4B4
  8
0
 39
3.4274511015
 10
75.310107009339461
 20
57.068800200772351
 30
0.0
 11
75.284910035152876
 21
57.115726675633631
 31
0.0
  0
LINE
  5
4B5
  8
0
 39
3.4274511015
 10
75.288817329408573
 20
56.658504698693527
 30
0.0
 11
75.310107009339475
 21
56.690363723270941
 31
0.0
  0
LINE
  5
4B6
  8
0
 39
3.4274511015
 10
75.252417798710653
 20
56.617718030585671
 30
0.0
 11
75.288817329408573
 21
56.658504698693527
 31
0.0
  0
LINE
  5
4B7
  8
0
 39
3.4274511015
 10
75.208752071677537
 20
56.580016068469178
 30
0.0
 11
75.252417798710653
 21
56.617718030585671
 31
0.0
  0
LINE
  5
4B8
  8
0
 39
3.4274511015
 10
75.157751599287224
 20
56.54546736136605
 30
0.0
 11
75.208752071677537
 21
56.580016068469178
 31
0.0
  0
LINE
  5
4B9
  8
0
 39
3.4274511015
 10
75.099347832517665
 20
56.514483203408503
 30
0.0
 11
75.157751599287224
 21
56.54546736136605
 31
0.0
  0
LINE
  5
4BA
  8
0
 39
3.4274511015
 10
75.099347832517665
 20
56.514483203408503
 30
0.0
 11
75.099347832517665
 21
56.514483203408503
 31
0.0
  0
LINE
  5
4BB
  8
0
 39
3.4274511015
 10
73.750440177011313
 20
55.89281212261843
 30
0.0
 11
75.099347832517665
 21
56.514483203408503
 31
0.0
  0
LINE
  5
4BC
  8
0
 39
3.4274511015
 10
73.724117352551815
 20
55.881364435939417
 30
0.0
 11
73.750440177011313
 21
55.89281212261843
 31
0.0
  0
LINE
  5
4BD
  8
0
 39
3.4274511015
 10
73.701290528215807
 20
55.869642553172291
 30
0.0
 11
73.724117352551815
 21
55.881364435939417
 31
0.0
  0
LINE
  5
4BE
  8
0
 39
3.4274511015
 10
73.681891154981315
 20
55.857440827250947
 30
0.0
 11
73.701290528215807
 21
55.869642553172291
 31
0.0
  0
LINE
  5
4BF
  8
0
 39
3.4274511015
 10
73.666261977958484
 20
55.844896356219451
 30
0.0
 11
73.681891154981315
 21
55.857440827250947
 31
0.0
  0
LINE
  5
4C0
  8
0
 39
3.4274511015
 10
73.654128801059173
 20
55.831734943989701
 30
0.0
 11
73.666261977958484
 21
55.844896356219451
 31
0.0
  0
LINE
  5
4C1
  8
0
 39
3.4274511015
 10
73.645765820371523
 20
55.818230786649778
 30
0.0
 11
73.654128801059173
 21
55.831734943989701
 31
0.0
  0
LINE
  5
4C2
  8
0
 39
3.4274511015
 10
73.641173035895505
 20
55.803972590067552
 30
0.0
 11
73.645765820371523
 21
55.818230786649778
 31
0.0
  0
LINE
  5
4C3
  8
0
 39
3.4274511015
 10
73.640556094697232
 20
55.789234550331102
 30
0.0
 11
73.641173035895505
 21
55.803972590067552
 31
0.0
  0
LINE
  5
4C4
  8
0
 39
3.4274511015
 10
73.643709349710619
 20
55.77360537330825
 30
0.0
 11
73.640556094697232
 21
55.789234550331102
 31
0.0
  0
LINE
  5
4C5
  8
0
 39
3.4274511015
 10
73.651112644089849
 20
55.75729070606512
 30
0.0
 11
73.643709349710619
 21
55.77360537330825
 31
0.0
  0
LINE
  5
4C6
  8
0
 39
3.4274511015
 10
73.662560330768855
 20
55.740153450557607
 30
0.0
 11
73.651112644089849
 21
55.75729070606512
 31
0.0
  0
LINE
  5
4C7
  8
0
 39
3.4274511015
 10
73.678258056813732
 20
55.722262155807783
 30
0.0
 11
73.662560330768855
 21
55.740153450557607
 31
0.0
  0
LINE
  5
4C8
  8
0
 39
3.4274511015
 10
73.698137273202434
 20
55.703342625727508
 30
0.0
 11
73.678258056813732
 21
55.722262155807783
 31
0.0
  0
LINE
  5
4C9
  8
0
 39
3.4274511015
 10
73.722472176023089
 20
55.68360050738287
 30
0.0
 11
73.698137273202434
 21
55.703342625727508
 31
0.0
  0
LINE
  5
4CA
  8
0
 39
3.4274511015
 10
73.751262765275683
 20
55.662761604685748
 30
0.0
 11
73.722472176023089
 21
55.68360050738287
 31
0.0
  0
LINE
  5
4CB
  8
0
 39
3.4274511015
 10
73.784577589982263
 20
55.589086607712048
 30
0.0
 11
73.751262765275683
 21
55.662761604685748
 31
0.0
  0
LINE
  5
4CC
  8
0
 39
3.4274511015
 10
73.784577589982263
 20
55.589086607712048
 30
0.0
 11
73.784577589982263
 21
55.589086607712048
 31
0.0
  0
LINE
  5
4CD
  8
0
 39
3.4274511015
 10
74.509620595993582
 20
55.038569411789133
 30
0.0
 11
73.784577589982263
 21
55.589086607712048
 31
0.0
  0
LINE
  5
4CE
  8
0
 39
3.4274511015
 10
74.533270008593931
 20
54.988871370817371
 30
0.0
 11
74.509620595993582
 21
55.038569411789133
 31
0.0
  0
LINE
  5
4CF
  8
0
 39
3.4274511015
 10
74.550612911167519
 20
54.941915290726833
 30
0.0
 11
74.533270008593931
 21
54.988871370817371
 31
0.0
  0
LINE
  5
4D0
  8
0
 39
3.4274511015
 10
74.560107009339461
 20
54.903037559604982
 30
0.0
 11
74.550612911167519
 21
54.941915290726833
 31
0.0
  0
LINE
  5
4D1
  8
0
 39
3.4274511015
 10
74.55609683292991
 20
54.781990422330828
 30
0.0
 11
74.560107009339461
 21
54.799744878571389
 31
0.0
  0
LINE
  5
4D2
  8
0
 39
3.4274511015
 10
74.541907185369695
 20
54.749498185888619
 30
0.0
 11
74.55609683292991
 21
54.781990422330828
 31
0.0
  0
LINE
  5
4D3
  8
0
 39
3.4274511015
 10
74.521548125826797
 20
54.720364851525858
 30
0.0
 11
74.541907185369695
 21
54.749498185888619
 31
0.0
  0
LINE
  5
4D4
  8
0
 39
3.4274511015
 10
74.494951105279156
 20
54.69445332119853
 30
0.0
 11
74.521548125826797
 21
54.720364851525858
 31
0.0
  0
LINE
  5
4D5
  8
0
 39
3.4274511015
 10
74.462390319814915
 20
54.67196924197269
 30
0.0
 11
74.494951105279156
 21
54.69445332119853
 31
0.0
  0
LINE
  5
4D6
  8
0
 39
3.4274511015
 10
74.423797220412013
 20
54.6530497118924
 30
0.0
 11
74.462390319814915
 21
54.67196924197269
 31
0.0
  0
LINE
  5
4D7
  8
0
 39
3.4274511015
 10
74.379308905114542
 20
54.637831829001748
 30
0.0
 11
74.423797220412013
 21
54.6530497118924
 31
0.0
  0
LINE
  5
4D8
  8
0
 39
3.4274511015
 10
74.328788275878438
 20
54.626247044278671
 30
0.0
 11
74.379308905114542
 21
54.637831829001748
 31
0.0
  0
LINE
  5
4D9
  8
0
 39
3.4274511015
 10
74.272646626835865
 20
54.618569553811312
 30
0.0
 11
74.328788275878438
 21
54.626247044278671
 31
0.0
  0
LINE
  5
4DA
  8
0
 39
3.4274511015
 10
74.210609761898723
 20
54.614867906621697
 30
0.0
 11
74.272646626835865
 21
54.618569553811312
 31
0.0
  0
LINE
  5
4DB
  8
0
 39
3.4274511015
 10
74.142951877155085
 20
54.615279200753882
 30
0.0
 11
74.210609761898723
 21
54.614867906621697
 31
0.0
  0
LINE
  5
4DC
  8
0
 39
3.4274511015
 10
74.142951877155085
 20
54.615279200753882
 30
0.0
 11
74.142951877155085
 21
54.615279200753882
 31
0.0
  0
LINE
  5
4DD
  8
0
 39
3.4274511015
 10
74.107443483743566
 20
64.117049589689714
 30
0.0
 11
69.560107009339461
 21
64.117049589689714
 31
0.0
  0
LINE
  5
4DE
  8
0
 39
3.4274511015
 10
75.060107009339461
 20
63.198393348654399
 30
0.0
 11
74.107443483743566
 21
64.117049589689714
 31
0.0
  0
LINE
  5
4DF
  8
0
 39
3.4274511015
 10
72.950015563302685
 20
55.555276738142709
 30
0.0
 11
74.247173154057307
 21
54.617049589689721
 31
0.0
  0
LINE
  5
4E0
  8
0
 39
3.4274511015
 10
72.915466856199544
 20
55.594349680699807
 30
0.0
 11
72.950015563302685
 21
55.555276738142709
 31
0.0
  0
LINE
  5
4E1
  8
0
 39
3.4274511015
 10
72.88557948259448
 20
55.631777446728186
 30
0.0
 11
72.915466856199544
 21
55.594349680699807
 31
0.0
  0
LINE
  5
4E2
  8
0
 39
3.4274511015
 10
72.859942148355273
 20
55.667560036227847
 30
0.0
 11
72.88557948259448
 21
55.631777446728186
 31
0.0
  0
LINE
  5
4E3
  8
0
 39
3.4274511015
 10
72.838966147614087
 20
55.701765998220822
 30
0.0
 11
72.859942148355273
 21
55.667560036227847
 31
0.0
  0
LINE
  5
4E4
  8
0
 39
3.4274511015
 10
72.822240186238758
 20
55.734121136618981
 30
0.0
 11
72.838966147614087
 21
55.701765998220822
 31
0.0
  0
LINE
  5
4E5
  8
0
 39
3.4274511015
 10
72.810107009339461
 20
55.764968196532479
 30
0.0
 11
72.822240186238758
 21
55.734121136618981
 31
0.0
  0
LINE
  5
4E6
  8
0
 39
3.4274511015
 10
72.815590931101852
 20
55.893908906970907
 30
0.0
 11
72.810107009339461
 21
55.881541717892951
 31
0.0
  0
LINE
  5
4E7
  8
0
 39
3.4274511015
 10
72.830123323772213
 20
55.914884907712093
 30
0.0
 11
72.815590931101852
 21
55.893908906970907
 31
0.0
  0
LINE
  5
4E8
  8
0
 39
3.4274511015
 10
72.848905755808431
 20
55.93401008485845
 30
0.0
 11
72.830123323772213
 21
55.914884907712093
 31
0.0
  0
LINE
  5
4E9
  8
0
 39
3.4274511015
 10
72.872280972320667
 20
55.951490085476109
 30
0.0
 11
72.848905755808431
 21
55.93401008485845
 31
0.0
  0
LINE
  5
4EA
  8
0
 39
3.4274511015
 10
72.899974777220777
 20
55.967324909565043
 30
0.0
 11
72.872280972320667
 21
55.951490085476109
 31
0.0
  0
LINE
  5
4EB
  8
0
 39
3.4274511015
 10
72.932261366596919
 20
55.981583106147284
 30
0.0
 11
72.899974777220777
 21
55.967324909565043
 31
0.0
  0
LINE
  5
4EC
  8
0
 39
3.4274511015
 10
72.932261366596919
 20
55.981583106147284
 30
0.0
 11
72.932261366596919
 21
55.981583106147284
 31
0.0
  0
LINE
  5
4ED
  8
0
 39
3.4274511015
 10
74.178528819588678
 20
56.477946574666511
 30
0.0
 11
72.932261366596919
 21
55.981583106147284
 31
0.0
  0
LINE
  5
4EE
  8
0
 39
3.4274511015
 10
74.228295409582458
 20
56.513729164166158
 30
0.0
 11
74.178528819588678
 21
56.477946574666511
 31
0.0
  0
LINE
  5
4EF
  8
0
 39
3.4274511015
 10
74.271618391505413
 20
56.550197243886132
 30
0.0
 11
74.228295409582458
 21
56.513729164166158
 31
0.0
  0
LINE
  5
4F0
  8
0
 39
3.4274511015
 10
74.30822356926943
 20
56.587145166760301
 30
0.0
 11
74.271618391505413
 21
56.550197243886132
 31
0.0
  0
LINE
  5
4F1
  8
0
 39
3.4274511015
 10
74.338248040918572
 20
56.624710030832738
 30
0.0
 11
74.30822356926943
 21
56.587145166760301
 31
0.0
  0
LINE
  5
4F2
  8
0
 39
3.4274511015
 10
74.361486159386743
 20
56.662754738059391
 30
0.0
 11
74.338248040918572
 21
56.624710030832738
 31
0.0
  0
LINE
  5
4F3
  8
0
 39
3.4274511015
 10
74.37814357174004
 20
56.701416386484311
 30
0.0
 11
74.361486159386743
 21
56.662754738059391
 31
0.0
  0
LINE
  5
4F4
  8
0
 39
3.4274511015
 10
74.388083179934384
 20
56.740626427085473
 30
0.0
 11
74.37814357174004
 21
56.701416386484311
 31
0.0
  0
LINE
  5
4F5
  8
0
 39
3.4274511015
 10
74.391510631035885
 20
56.780453408884888
 30
0.0
 11
74.388083179934384
 21
56.740626427085473
 31
0.0
  0
LINE
  5
4F6
  8
0
 39
3.4274511015
 10
74.388083179934384
 20
56.820691684816509
 30
0.0
 11
74.391510631035885
 21
56.780453408884888
 31
0.0
  0
LINE
  5
4F7
  8
0
 39
3.4274511015
 10
74.37814357174004
 20
56.86154690194639
 30
0.0
 11
74.388083179934384
 21
56.820691684816509
 31
0.0
  0
LINE
  5
4F8
  8
0
 39
3.4274511015
 10
74.361486159386743
 20
56.902881962230481
 30
0.0
 11
74.37814357174004
 21
56.86154690194639
 31
0.0
  0
LINE
  5
4F9
  8
0
 39
3.4274511015
 10
74.338248040918572
 20
56.94490251273487
 30
0.0
 11
74.361486159386743
 21
56.902881962230481
 31
0.0
  0
LINE
  5
4FA
  8
0
 39
3.4274511015
 10
74.30822356926943
 20
56.98740290639347
 30
0.0
 11
74.338248040918572
 21
56.94490251273487
 31
0.0
  0
LINE
  5
4FB
  8
0
 39
3.4274511015
 10
74.271618391505413
 20
57.030520241250343
 30
0.0
 11
74.30822356926943
 21
56.98740290639347
 31
0.0
  0
LINE
  5
4FC
  8
0
 39
3.4274511015
 10
74.228295409582458
 20
57.07411741926142
 30
0.0
 11
74.271618391505413
 21
57.030520241250343
 31
0.0
  0
LINE
  5
4FD
  8
0
 39
3.4274511015
 10
74.178528819588678
 20
57.118400087492802
 30
0.0
 11
74.228295409582458
 21
57.07411741926142
 31
0.0
  0
LINE
  5
4FE
  8
0
 39
3.4274511015
 10
74.178528819588678
 20
57.118400087492802
 30
0.0
 11
74.178528819588678
 21
57.118400087492802
 31
0.0
  0
LINE
  5
4FF
  8
0
 39
3.4274511015
 10
73.361424476991075
 20
58.076372670362048
 30
0.0
 11
74.178528819588678
 21
57.118400087492802
 31
0.0
  0
LINE
  5
500
  8
0
 39
3.4274511015
 10
73.361424476991075
 20
60.102613212546821
 30
0.0
 11
73.361424476991075
 21
58.076372670362048
 31
0.0
  0
LINE
  5
501
  8
0
 39
3.4274511015
 10
73.359093810242044
 20
60.169379960004044
 30
0.0
 11
73.361424476991075
 21
60.102613212546821
 31
0.0
  0
LINE
  5
502
  8
0
 39
3.4274511015
 10
73.352376006083105
 20
60.232376511249612
 30
0.0
 11
73.359093810242044
 21
60.169379960004044
 31
0.0
  0
LINE
  5
503
  8
0
 39
3.4274511015
 10
73.341271064514245
 20
60.291465768239469
 30
0.0
 11
73.352376006083105
 21
60.232376511249612
 31
0.0
  0
LINE
  5
504
  8
0
 39
3.4274511015
 10
73.325778985535479
 20
60.34671627999564
 30
0.0
 11
73.341271064514245
 21
60.291465768239469
 31
0.0
  0
LINE
  5
505
  8
0
 39
3.4274511015
 10
73.305762671102713
 20
60.397990948474089
 30
0.0
 11
73.325778985535479
 21
60.34671627999564
 31
0.0
  0
LINE
  5
506
  8
0
 39
3.4274511015
 10
73.281359219260025
 20
60.445495420740883
 30
0.0
 11
73.305762671102713
 21
60.397990948474089
 31
0.0
  0
LINE
  5
507
  8
0
 39
3.4274511015
 10
73.252500080985413
 20
60.48902404972992
 30
0.0
 11
73.281359219260025
 21
60.445495420740883
 31
0.0
  0
LINE
  5
508
  8
0
 39
3.4274511015
 10
73.219253805300852
 20
60.528782482507332
 30
0.0
 11
73.252500080985413
 21
60.48902404972992
 31
0.0
  0
LINE
  5
509
  8
0
 39
3.4274511015
 10
73.181414745140302
 20
60.56449652298496
 30
0.0
 11
73.219253805300852
 21
60.528782482507332
 31
0.0
  0
LINE
  5
50A
  8
0
 39
3.4274511015
 10
73.139257096591834
 20
60.596440367250942
 30
0.0
 11
73.181414745140302
 21
60.56449652298496
 31
0.0
  0
LINE
  5
50B
  8
0
 39
3.4274511015
 10
73.092712310633473
 20
60.624476917261212
 30
0.0
 11
73.139257096591834
 21
60.596440367250942
 31
0.0
  0
LINE
  5
50C
  8
0
 39
3.4274511015
 10
73.041711838243145
 20
60.648674722037789
 30
0.0
 11
73.092712310633473
 21
60.624476917261212
 31
0.0
  0
LINE
  5
50D
  8
0
 39
3.4274511015
 10
72.986187130398847
 20
60.668896683536637
 30
0.0
 11
73.041711838243145
 21
60.648674722037789
 31
0.0
  0
LINE
  5
50E
  8
0
 39
3.4274511015
 10
72.926206736122609
 20
60.685348448823852
 30
0.0
 11
72.986187130398847
 21
60.668896683536637
 31
0.0
  0
LINE
  5
50F
  8
0
 39
3.4274511015
 10
72.861839204436436
 20
60.69782437083331
 30
0.0
 11
72.926206736122609
 21
60.685348448823852
 31
0.0
  0
LINE
  5
510
  8
0
 39
3.4274511015
 10
72.793153084362373
 20
60.70653009663112
 30
0.0
 11
72.861839204436436
 21
60.69782437083331
 31
0.0
  0
LINE
  5
511
  8
0
 39
3.4274511015
 10
72.793153084362373
 20
60.70653009663112
 30
0.0
 11
72.793153084362373
 21
60.70653009663112
 31
0.0
  0
LINE
  5
512
  8
0
 39
3.4274511015
 10
69.560107009339461
 20
60.70653009663112
 30
0.0
 11
72.793153084362373
 21
60.70653009663112
 31
0.0
  0
POLYLINE
  5
514
  8
0
 66
     1
 10
0.0
 20
0.0
 30
0.0
 39
3.4274511015
  0
VERTEX
  5
65A
  8
0
 10
74.249545606411743
 20
56.798687448744879
 30
0.0
  0
VERTEX
  5
65B
  8
0
 10
69.556748107259978
 20
56.798687448744879
 30
0.0
  0
SEQEND
  5
65C
  8
0
  0
POLYLINE
  5
515
  8
0
 66
     1
 10
0.0
 20
0.0
 30
0.0
 39
3.4274511015
  0
VERTEX
  5
65D
  8
0
 10
73.219322354322884
 20
58.077606552758589
 30
0.0
  0
VERTEX
  5
65E
  8
0
 10
69.560107009339447
 20
58.077606552758589
 30
0.0
  0
SEQEND
  5
65F
  8
0
  0
LINE
  5
517
  8
0
 10
69.560107009339461
 20
54.617049589689707
 30
0.0
 11
74.247173154057322
 21
54.617049589689707
 31
0.0
  0
LINE
  5
518
  8
0
 10
74.560107009339461
 20
54.903037559604982
 30
0.0
 11
74.560107009339461
 21
54.799744878571389
 31
0.0
  0
LINE
  5
519
  8
0
 10
71.810107009339461
 20
64.117049589689714
 30
0.0
 11
71.810107009339461
 21
60.70653009663112
 31
0.0
  0
LINE
  5
51A
  8
0
 10
69.560107009339461
 20
55.764968196532479
 30
0.0
 11
72.810107009339461
 21
55.764968196532479
 31
0.0
  0
LINE
  5
51B
  8
0
 10
72.810107009339461
 20
55.881541717892951
 30
0.0
 11
72.810107009339461
 21
55.764968196532479
 31
0.0
  0
LINE
  5
51C
  8
0
 10
75.310107009339461
 20
57.068800200772372
 30
0.0
 11
75.310107009339461
 21
56.690363723270941
 31
0.0
  0
LINE
  5
51D
  8
0
 10
75.060107009339461
 20
58.617049589689707
 30
0.0
 11
74.138518360932522
 21
58.617049589689707
 31
0.0
  0
LINE
  5
521
  8
1
 10
69.560107009339461
 20
64.617049589689714
 30
0.0
 11
69.560107009339461
 21
54.117049589689721
 31
0.0
  0
DIMENSION
  5
526
  8
2
  2
*D1
 10
71.810107009339461
 20
70.15943831838004
 30
0.0
 11
81.185107009339461
 21
72.03443831838004
 31
0.0
 70
     0
  1
%%c<>
 13
67.310107009339461
 23
64.117049589689714
 33
0.0
 14
71.810107009339461
 24
64.117049589689714
 34
0.0
  0
LINE
  5
542
  8
0
 10
64.060107009339461
 20
63.198393348654399
 30
0.0
 11
64.060107009339461
 21
58.617049589689707
 31
0.0
  0
LINE
  5
543
  8
0
 10
75.060107009339461
 20
63.198393348654399
 30
0.0
 11
75.060107009339461
 21
58.617049589689707
 31
0.0
  0
DIMENSION
  5
546
  8
2
  2
*D2
 10
75.060107009339461
 20
74.939079320958371
 30
0.0
 11
69.560107009339461
 21
76.814079320958371
 31
0.0
 70
     0
  1
%%c<>
 13
64.060107009339461
 23
63.198393348654399
 33
0.0
 14
75.060107009339461
 24
63.198393348654399
 34
0.0
  0
DIMENSION
  5
555
  8
2
  2
*D3
 10
90.341289366967217
 20
58.617049589689707
 30
0.0
 11
90.341289366967203
 21
50.448149692793429
 31
0.0
 70
   128
 13
74.107443483743566
 23
64.117049589689714
 33
0.0
 14
75.060107009339461
 24
58.617049589689707
 34
0.0
 50
90.0
1001
ACAD
1000
DSTYLE
1002
{
1070
   271
1070
     6
1002
}
  0
DIMENSION
  5
56F
  8
2
  2
*D4
 10
95.63389118194921
 20
54.617049589689721
 30
0.0
 11
95.633891181949195
 21
59.164444837214518
 31
0.0
 70
   128
  1
<>
 13
74.107443483743566
 23
64.117049589689714
 33
0.0
 14
74.247173154057307
 24
54.617049589689721
 34
0.0
 50
90.0
1001
ACAD
1000
DSTYLE
1002
{
1070
   271
1070
     6
1002
}
  0
DIMENSION
  5
586
  8
2
  2
*D5
 10
72.810107009339461
 20
47.425832074291797
 30
0.0
 11
79.685107009339461
 21
49.300832074291812
 31
0.0
 70
     0
  1
%%c<>
 13
66.310107009339461
 23
55.764968196532479
 33
0.0
 14
72.810107009339461
 24
55.764968196532479
 34
0.0
1001
ACAD
1000
DSTYLE
1002
{
1070
   271
1070
     6
1002
}
  0
DIMENSION
  5
593
  8
2
  2
*D6
 10
74.560107009339461
 20
42.769524526910082
 30
0.0
 11
69.560107009339461
 21
44.644524526910082
 31
0.0
 70
     0
  1
%%c<>
 13
64.560107009339461
 23
54.799744878571389
 33
0.0
 14
74.560107009339461
 24
54.799744878571389
 34
0.0
1001
ACAD
1000
DSTYLE
1002
{
1070
   271
1070
     6
1002
}
  0
DIMENSION
  5
5B2
  8
2
  2
*D7
 10
75.310107009339475
 20
38.125898651068191
 30
0.0
 11
69.560107009339461
 21
40.000898651068191
 31
0.0
 70
     0
  1
%%c<>
 13
63.810107009339447
 23
56.690363723270941
 33
0.0
 14
75.310107009339475
 24
56.690363723270941
 34
0.0
1001
ACAD
1000
DSTYLE
1002
{
1070
   271
1070
     6
1002
}
  0
ENDSEC
  0
EOF
