  0
SECTION
  2
HEADER
  9
$ACADVER
  1
AC1009
  9
$INSBASE
 10
0.0
 20
0.0
 30
0.0
  9
$EXTMIN
 10
71.878581106987056
 20
31.3721381329376
 30
0.0
  9
$EXTMAX
 10
107.8875594534848
 20
85.087205509289134
 30
3.3333333329999988
  9
$LIMMIN
 10
0.0
 20
0.0
  9
$LIMMAX
 10
420.0
 20
297.0
  9
$ORTHOMODE
 70
     0
  9
$REGENMODE
 70
     1
  9
$FILLMODE
 70
     1
  9
$QTEXTMODE
 70
     0
  9
$MIRRTEXT
 70
     1
  9
$DRAGMODE
 70
     2
  9
$LTSCALE
 40
0.3
  9
$OSMODE
 70
    37
  9
$ATTMODE
 70
     1
  9
$TEXTSIZE
 40
2.5
  9
$TRACEWID
 40
1.0
  9
$TEXTSTYLE
  7
STANDARD
  9
$CLAYER
  8
2
  9
$CELTYPE
  6
BYLAYER
  9
$CECOLOR
 62
   256
  9
$DIMSCALE
 40
1.0
  9
$DIMASZ
 40
2.5
  9
$DIMEXO
 40
0.625
  9
$DIMDLI
 40
3.75
  9
$DIMRND
 40
0.0
  9
$DIMDLE
 40
0.0
  9
$DIMEXE
 40
1.25
  9
$DIMTP
 40
0.0
  9
$DIMTM
 40
0.0
  9
$DIMTXT
 40
2.5
  9
$DIMCEN
 40
2.5
  9
$DIMTSZ
 40
0.0
  9
$DIMTOL
 70
     0
  9
$DIMLIM
 70
     0
  9
$DIMTIH
 70
     0
  9
$DIMTOH
 70
     0
  9
$DIMSE1
 70
     0
  9
$DIMSE2
 70
     0
  9
$DIMTAD
 70
     1
  9
$DIMZIN
 70
     8
  9
$DIMBLK
  1

  9
$DIMASO
 70
     1
  9
$DIMSHO
 70
     1
  9
$DIMPOST
  1

  9
$DIMAPOST
  1

  9
$DIMALT
 70
     0
  9
$DIMALTD
 70
     3
  9
$DIMALTF
 40
0.03937007874016
  9
$DIMLFAC
 40
1.0
  9
$DIMTOFL
 70
     1
  9
$DIMTVP
 40
0.0
  9
$DIMTIX
 70
     0
  9
$DIMSOXD
 70
     0
  9
$DIMSAH
 70
     0
  9
$DIMBLK1
  1

  9
$DIMBLK2
  1

  9
$DIMSTYLE
  2
ISO-25
  9
$DIMCLRD
 70
     0
  9
$DIMCLRE
 70
     0
  9
$DIMCLRT
 70
     0
  9
$DIMTFAC
 40
1.0
  9
$DIMGAP
 40
0.625
  9
$LUNITS
 70
     2
  9
$LUPREC
 70
     4
  9
$SKETCHINC
 40
1.0
  9
$FILLETRAD
 40
10.0
  9
$AUNITS
 70
     0
  9
$AUPREC
 70
     0
  9
$MENU
  1
.
  9
$ELEVATION
 40
0.0
  9
$PELEVATION
 40
0.0
  9
$THICKNESS
 40
0.0
  9
$LIMCHECK
 70
     0
  9
$BLIPMODE
 70
     0
  9
$CHAMFERA
 40
10.0
  9
$CHAMFERB
 40
10.0
  9
$SKPOLY
 70
     0
  9
$TDCREATE
 40
2453439.4589000111
  9
$TDUPDATE
 40
2453551.9104404971
  9
$TDINDWG
 40
0.0216968287
  9
$TDUSRTIMER
 40
0.0216967014
  9
$USRTIMER
 70
     1
  9
$ANGBASE
 50
0.0
  9
$ANGDIR
 70
     0
  9
$PDMODE
 70
     0
  9
$PDSIZE
 40
0.0
  9
$PLINEWID
 40
0.0
  9
$COORDS
 70
     1
  9
$SPLFRAME
 70
     0
  9
$SPLINETYPE
 70
     6
  9
$SPLINESEGS
 70
     8
  9
$ATTDIA
 70
     0
  9
$ATTREQ
 70
     1
  9
$HANDLING
 70
-16383
  9
$HANDSEED
  5
559
  9
$SURFTAB1
 70
     6
  9
$SURFTAB2
 70
     6
  9
$SURFTYPE
 70
     6
  9
$SURFU
 70
     6
  9
$SURFV
 70
     6
  9
$UCSNAME
  2

  9
$UCSORG
 10
0.0
 20
0.0
 30
0.0
  9
$UCSXDIR
 10
1.0
 20
0.0
 30
0.0
  9
$UCSYDIR
 10
0.0
 20
1.0
 30
0.0
  9
$PUCSNAME
  2

  9
$PUCSORG
 10
0.0
 20
0.0
 30
0.0
  9
$PUCSXDIR
 10
1.0
 20
0.0
 30
0.0
  9
$PUCSYDIR
 10
0.0
 20
1.0
 30
0.0
  9
$USERI1
 70
     0
  9
$USERI2
 70
     0
  9
$USERI3
 70
     0
  9
$USERI4
 70
     0
  9
$USERI5
 70
     0
  9
$USERR1
 40
0.0
  9
$USERR2
 40
0.0
  9
$USERR3
 40
0.0
  9
$USERR4
 40
0.0
  9
$USERR5
 40
0.0
  9
$WORLDVIEW
 70
     1
  9
$SHADEDGE
 70
     3
  9
$SHADEDIF
 70
    70
  9
$TILEMODE
 70
     1
  9
$MAXACTVP
 70
    64
  9
$PLIMCHECK
 70
     0
  9
$PEXTMIN
 10
1.0000000000000000E+020
 20
1.0000000000000000E+020
 30
1.0000000000000000E+020
  9
$PEXTMAX
 10
-1.0000000000000000E+020
 20
-1.0000000000000000E+020
 30
-1.0000000000000000E+020
  9
$PLIMMIN
 10
0.0
 20
0.0
  9
$PLIMMAX
 10
420.0
 20
297.0
  9
$UNITMODE
 70
     0
  9
$VISRETAIN
 70
     1
  9
$PLINEGEN
 70
     0
  9
$PSLTSCALE
 70
     1
  0
ENDSEC
  0
SECTION
  2
TABLES
  0
TABLE
  2
VPORT
 70
     2
  0
VPORT
  2
*ACTIVE
 70
     0
 10
0.0
 20
0.0
 11
1.0
 21
1.0
 12
116.19426934067209
 22
54.73291433411751
 13
0.0
 23
0.0
 14
10.0
 24
10.0
 15
10.0
 25
10.0
 16
0.0
 26
0.0
 36
1.0
 17
0.0
 27
0.0
 37
0.0
 40
64.125363628088962
 41
2.5392405063291141
 42
50.0
 43
0.0
 44
0.0
 50
0.0
 51
0.0
 71
     0
 72
   100
 73
     1
 74
     3
 75
     0
 76
     0
 77
     0
 78
     0
  0
ENDTAB
  0
TABLE
  2
LTYPE
 70
     2
  0
LTYPE
  2
CONTINUOUS
 70
     0
  3
Solid line
 72
    65
 73
     0
 40
0.0
  0
LTYPE
  2
CENTER
 70
     0
  3
Center ____ _ ____ _ ____ _ ____ _ ____ _ ____
 72
    65
 73
     4
 40
50.799999999999997
 49
31.75
 49
-6.3499999999999988
 49
6.3499999999999988
 49
-6.3499999999999988
  0
ENDTAB
  0
TABLE
  2
LAYER
 70
     4
  0
LAYER
  2
0
 70
     0
 62
     7
  6
CONTINUOUS
  0
LAYER
  2
1
 70
     0
 62
     7
  6
CENTER
  0
LAYER
  2
2
 70
     0
 62
     7
  6
CONTINUOUS
  0
LAYER
  2
DEFPOINTS
 70
     0
 62
     7
  6
CONTINUOUS
  0
ENDTAB
  0
TABLE
  2
STYLE
 70
     3
  0
STYLE
  2
STANDARD
 70
     0
 40
0.0
 41
1.0
 50
0.0
 71
     0
 42
2.5
  3
txt
  4

  0
STYLE
  2
\U+00C9L\U+00C9R_\U+00C2S\U+00C2V\U+00C2B\U+00C2N
 70
     0
 40
1.0
 41
1.0
 50
0.0
 71
     0
 42
1.0
  3
\U+00E9l\U+00E9r \U+00E2S\U+00E2V\U+00E2b\U+00E2N
  4

  0
STYLE
  2

 70
     1
 40
0.0
 41
1.0
 50
0.0
 71
     0
 42
2.5
  3
ltypeshp.shx
  4

  0
ENDTAB
  0
TABLE
  2
VIEW
 70
     0
  0
ENDTAB
  0
TABLE
  2
UCS
 70
     0
  0
ENDTAB
  0
TABLE
  2
APPID
 70
     1
  0
APPID
  2
ACAD
 70
     0
  0
ENDTAB
  0
TABLE
  2
DIMSTYLE
 70
     2
  0
DIMSTYLE
  2
ISO-25
 70
     0
  3

  4

  5

  6

  7

 40
1.0
 41
2.5
 42
0.625
 43
3.75
 44
1.25
 45
0.0
 46
0.0
 47
0.0
 48
0.0
140
2.5
141
2.5
142
0.0
143
0.03937007874016
144
1.0
145
0.0
146
1.0
147
0.625
 71
     0
 72
     0
 73
     0
 74
     0
 75
     0
 76
     0
 77
     1
 78
     8
170
     0
171
     3
172
     1
173
     0
174
     0
175
     0
176
     0
177
     0
178
     0
  0
DIMSTYLE
  2
STANDARD
 70
     0
  3

  4

  5

  6

  7

 40
1.0
 41
0.18
 42
0.0625
 43
0.38
 44
0.18
 45
0.0
 46
0.0
 47
0.0
 48
0.0
140
0.18
141
0.09
142
0.0
143
25.399999999999999
144
1.0
145
0.0
146
1.0
147
0.09
 71
     0
 72
     0
 73
     1
 74
     1
 75
     0
 76
     0
 77
     0
 78
     0
170
     0
171
     2
172
     0
173
     0
174
     0
175
     0
176
     0
177
     0
178
     0
  0
ENDTAB
  0
ENDSEC
  0
SECTION
  2
BLOCKS
  0
BLOCK
  8
0
  2
$MODEL_SPACE
 70
     0
 10
0.0
 20
0.0
 30
0.0
  3
$MODEL_SPACE
  1

  0
ENDBLK
  5
21
  8
0
  0
BLOCK
 67
     1
  8
0
  2
$PAPER_SPACE
 70
     0
 10
0.0
 20
0.0
 30
0.0
  3
$PAPER_SPACE
  1

  0
ENDBLK
  5
1D
 67
     1
  8
0
  0
BLOCK
  8
0
  2
*D1
 70
     1
 10
0.0
 20
0.0
 30
0.0
  3
*D1
  1

  0
LINE
  5
4F0
  8
2
 62
     0
 10
80.842358607893217
 20
67.203101082046615
 30
0.0
 11
80.842358607893217
 21
73.273210598372145
 31
0.0
  0
LINE
  5
4F1
  8
2
 62
     0
 10
85.442358607893212
 20
67.203101082046615
 30
0.0
 11
85.442358607893212
 21
73.273210598372145
 31
0.0
  0
LINE
  5
4F2
  8
2
 62
     0
 10
78.342358607893217
 20
72.023210598372145
 30
0.0
 11
75.842358607893217
 21
72.023210598372145
 31
0.0
  0
LINE
  5
4F3
  8
2
 62
     0
 10
87.942358607893212
 20
72.023210598372145
 30
0.0
 11
99.192358607893212
 21
72.023210598372145
 31
0.0
  0
LINE
  5
4F4
  8
2
 62
     0
 10
80.842358607893217
 20
72.023210598372145
 30
0.0
 11
85.442358607893212
 21
72.023210598372145
 31
0.0
  0
SOLID
  5
4F5
  8
2
 62
     0
 10
78.342358607893217
 20
72.439877265038817
 30
0.0
 11
78.342358607893217
 21
71.606543931705474
 31
0.0
 12
80.842358607893217
 22
72.023210598372145
 32
0.0
 13
80.842358607893217
 23
72.023210598372145
 33
0.0
  0
SOLID
  5
4F6
  8
2
 62
     0
 10
87.942358607893212
 20
72.439877265038817
 30
0.0
 11
87.942358607893212
 21
71.606543931705474
 31
0.0
 12
85.442358607893212
 22
72.023210598372145
 32
0.0
 13
85.442358607893212
 23
72.023210598372145
 33
0.0
  0
INSERT
  5
4F7
  8
2
  2
*U10
 10
0.0
 20
0.0
 30
0.0
  0
POINT
  5
4F8
  8
DEFPOINTS
 62
     0
 10
80.842358607893217
 20
66.578101082046615
 30
0.0
  0
POINT
  5
4F9
  8
DEFPOINTS
 62
     0
 10
85.442358607893212
 20
66.578101082046615
 30
0.0
  0
POINT
  5
4FA
  8
DEFPOINTS
 62
     0
 10
85.442358607893212
 20
72.023210598372145
 30
0.0
  0
ENDBLK
  5
41F
  8
0
  0
BLOCK
  8
0
  2
*D2
 70
     1
 10
0.0
 20
0.0
 30
0.0
  3
*D2
  1

  0
LINE
  5
4D0
  8
2
 62
     0
 10
77.392358607893215
 20
66.756101264571313
 30
0.0
 11
77.392358607893215
 21
83.212205509289134
 31
0.0
  0
LINE
  5
4D1
  8
2
 62
     0
 10
88.892358607893215
 20
66.756101264571313
 30
0.0
 11
88.892358607893215
 21
83.212205509289134
 31
0.0
  0
LINE
  5
4D2
  8
2
 62
     0
 10
74.892358607893215
 20
81.962205509289134
 30
0.0
 11
72.392358607893215
 21
81.962205509289134
 31
0.0
  0
LINE
  5
4D3
  8
2
 62
     0
 10
91.392358607893215
 20
81.962205509289134
 30
0.0
 11
93.892358607893215
 21
81.962205509289134
 31
0.0
  0
LINE
  5
4D4
  8
2
 62
     0
 10
77.392358607893215
 20
81.962205509289134
 30
0.0
 11
88.892358607893215
 21
81.962205509289134
 31
0.0
  0
SOLID
  5
4D5
  8
2
 62
     0
 10
74.892358607893215
 20
82.378872175955806
 30
0.0
 11
74.892358607893215
 21
81.545538842622463
 31
0.0
 12
77.392358607893215
 22
81.962205509289134
 32
0.0
 13
77.392358607893215
 23
81.962205509289134
 33
0.0
  0
SOLID
  5
4D6
  8
2
 62
     0
 10
91.392358607893215
 20
82.378872175955806
 30
0.0
 11
91.392358607893215
 21
81.545538842622463
 31
0.0
 12
88.892358607893215
 22
81.962205509289134
 32
0.0
 13
88.892358607893215
 23
81.962205509289134
 33
0.0
  0
INSERT
  5
4D7
  8
2
  2
*U8
 10
0.0
 20
0.0
 30
0.0
  0
POINT
  5
4D8
  8
DEFPOINTS
 62
     0
 10
77.392358607893215
 20
66.131101264571313
 30
0.0
  0
POINT
  5
4D9
  8
DEFPOINTS
 62
     0
 10
88.892358607893215
 20
66.131101264571313
 30
0.0
  0
POINT
  5
4DA
  8
DEFPOINTS
 62
     0
 10
88.892358607893215
 20
81.962205509289134
 30
0.0
  0
ENDBLK
  5
42C
  8
0
  0
BLOCK
  8
0
  2
*D3
 70
     1
 10
0.0
 20
0.0
 30
0.0
  3
*D3
  1

  0
LINE
  5
4DB
  8
2
 62
     0
 10
79.242358607893209
 20
63.69743441573052
 30
0.0
 11
79.242358607893209
 21
77.46967513123829
 31
0.0
  0
LINE
  5
4DC
  8
2
 62
     0
 10
87.042358607893235
 20
63.69743441573052
 30
0.0
 11
87.042358607893235
 21
77.46967513123829
 31
0.0
  0
LINE
  5
4DD
  8
2
 62
     0
 10
81.742358607893209
 20
76.21967513123829
 30
0.0
 11
84.542358607893235
 21
76.21967513123829
 31
0.0
  0
LINE
  5
4DE
  8
2
 62
     0
 10
87.042358607893235
 20
76.21967513123829
 30
0.0
 11
98.292358607893235
 21
76.21967513123829
 31
0.0
  0
SOLID
  5
4DF
  8
2
 62
     0
 10
81.742358607893209
 20
76.636341797904961
 30
0.0
 11
81.742358607893209
 21
75.803008464571619
 31
0.0
 12
79.242358607893209
 22
76.21967513123829
 32
0.0
 13
79.242358607893209
 23
76.21967513123829
 33
0.0
  0
SOLID
  5
4E0
  8
2
 62
     0
 10
84.542358607893235
 20
76.636341797904961
 30
0.0
 11
84.542358607893235
 21
75.803008464571619
 31
0.0
 12
87.042358607893235
 22
76.21967513123829
 32
0.0
 13
87.042358607893235
 23
76.21967513123829
 33
0.0
  0
INSERT
  5
4E1
  8
2
  2
*U9
 10
0.0
 20
0.0
 30
0.0
  0
POINT
  5
4E2
  8
DEFPOINTS
 62
     0
 10
79.242358607893209
 20
63.07243441573052
 30
0.0
  0
POINT
  5
4E3
  8
DEFPOINTS
 62
     0
 10
87.042358607893235
 20
63.07243441573052
 30
0.0
  0
POINT
  5
4E4
  8
DEFPOINTS
 62
     0
 10
87.042358607893235
 20
76.21967513123829
 30
0.0
  0
ENDBLK
  5
444
  8
0
  0
BLOCK
  8
0
  2
*D4
 70
     1
 10
0.0
 20
0.0
 30
0.0
  3
*D4
  1

  0
LINE
  5
454
  8
2
 62
     0
 10
89.098958607360046
 20
66.578101082046615
 30
0.0
 11
102.0266350355397
 21
66.578101082046601
 31
0.0
  0
LINE
  5
455
  8
2
 62
     0
 10
89.517358607893215
 20
61.578101082046608
 30
0.0
 11
102.0266350355397
 21
61.578101082046608
 31
0.0
  0
LINE
  5
456
  8
2
 62
     0
 10
100.7766350355397
 20
69.078101082046601
 30
0.0
 11
100.7766350355397
 21
71.578101082046601
 31
0.0
  0
LINE
  5
457
  8
2
 62
     0
 10
100.7766350355397
 20
59.078101082046608
 30
0.0
 11
100.7766350355397
 21
56.578101082046608
 31
0.0
  0
LINE
  5
458
  8
2
 62
     0
 10
100.7766350355397
 20
66.578101082046601
 30
0.0
 11
100.7766350355397
 21
61.578101082046608
 31
0.0
  0
SOLID
  5
459
  8
2
 62
     0
 10
100.359968368873
 20
69.078101082046601
 30
0.0
 11
101.1933017022063
 21
69.078101082046601
 31
0.0
 12
100.7766350355397
 22
66.578101082046601
 32
0.0
 13
100.7766350355397
 23
66.578101082046601
 33
0.0
  0
SOLID
  5
45A
  8
2
 62
     0
 10
100.359968368873
 20
59.078101082046608
 30
0.0
 11
101.1933017022063
 21
59.078101082046608
 31
0.0
 12
100.7766350355397
 22
61.578101082046608
 32
0.0
 13
100.7766350355397
 23
61.578101082046608
 33
0.0
  0
TEXT
  5
45B
  8
2
 62
     0
 10
100.1516350355396
 20
63.244767748713294
 30
0.0
 40
2.5
  1
5
 50
90.0
  0
POINT
  5
45C
  8
DEFPOINTS
 62
     0
 10
88.473958607360046
 20
66.578101082046615
 30
0.0
  0
POINT
  5
45D
  8
DEFPOINTS
 62
     0
 10
88.892358607893215
 20
61.578101082046608
 30
0.0
  0
POINT
  5
45E
  8
DEFPOINTS
 62
     0
 10
100.7766350355397
 20
61.578101082046608
 30
0.0
  0
ENDBLK
  5
453
  8
0
  0
BLOCK
  8
0
  2
*D5
 70
     1
 10
0.0
 20
0.0
 30
0.0
  3
*D5
  1

  0
LINE
  5
461
  8
2
 62
     0
 10
87.667358607893235
 20
66.578101082046615
 30
0.0
 11
107.8875594534848
 21
66.578101082046601
 31
0.0
  0
LINE
  5
462
  8
2
 62
     0
 10
91.267358607143223
 20
55.57810108314662
 30
0.0
 11
107.8875594534848
 21
55.57810108314662
 31
0.0
  0
LINE
  5
463
  8
2
 62
     0
 10
106.6375594534848
 20
64.078101082046601
 30
0.0
 11
106.6375594534848
 21
58.07810108314662
 31
0.0
  0
SOLID
  5
464
  8
2
 62
     0
 10
106.2208927868181
 20
64.078101082046601
 30
0.0
 11
107.0542261201514
 21
64.078101082046601
 31
0.0
 12
106.6375594534848
 22
66.578101082046601
 32
0.0
 13
106.6375594534848
 23
66.578101082046601
 33
0.0
  0
SOLID
  5
465
  8
2
 62
     0
 10
106.2208927868181
 20
58.07810108314662
 30
0.0
 11
107.0542261201514
 21
58.07810108314662
 31
0.0
 12
106.6375594534848
 22
55.57810108314662
 32
0.0
 13
106.6375594534848
 23
55.57810108314662
 33
0.0
  0
TEXT
  5
466
  8
2
 62
     0
 10
106.0125594534848
 20
59.828101082596632
 30
0.0
 40
2.5
  1
11
 50
90.0
  0
POINT
  5
467
  8
DEFPOINTS
 62
     0
 10
87.042358607893235
 20
66.578101082046615
 30
0.0
  0
POINT
  5
468
  8
DEFPOINTS
 62
     0
 10
90.642358607143223
 20
55.57810108314662
 30
0.0
  0
POINT
  5
469
  8
DEFPOINTS
 62
     0
 10
106.6375594534848
 20
55.57810108314662
 30
0.0
  0
ENDBLK
  5
46B
  8
0
  0
BLOCK
  8
0
  2
*D6
 70
     1
 10
0.0
 20
0.0
 30
0.0
  3
*D6
  1

  0
LINE
  5
51E
  8
2
 62
     0
 10
75.642358608643207
 20
54.95310108314662
 30
0.0
 11
75.642358608643207
 21
41.249578544805047
 31
0.0
  0
LINE
  5
51F
  8
2
 62
     0
 10
90.642358607143223
 20
54.95310108314662
 30
0.0
 11
90.642358607143223
 21
41.249578544805047
 31
0.0
  0
LINE
  5
520
  8
2
 62
     0
 10
78.142358608643207
 20
42.499578544805047
 30
0.0
 11
88.142358607143223
 21
42.499578544805047
 31
0.0
  0
SOLID
  5
521
  8
2
 62
     0
 10
78.142358608643207
 20
42.916245211471711
 30
0.0
 11
78.142358608643207
 21
42.082911878138383
 31
0.0
 12
75.642358608643207
 22
42.499578544805047
 32
0.0
 13
75.642358608643207
 23
42.499578544805047
 33
0.0
  0
SOLID
  5
522
  8
2
 62
     0
 10
88.142358607143223
 20
42.916245211471711
 30
0.0
 11
88.142358607143223
 21
42.082911878138383
 31
0.0
 12
90.642358607143223
 22
42.499578544805047
 32
0.0
 13
90.642358607143223
 23
42.499578544805047
 33
0.0
  0
INSERT
  5
523
  8
2
  2
*U12
 10
0.0
 20
0.0
 30
0.0
  0
POINT
  5
524
  8
DEFPOINTS
 62
     0
 10
75.642358608643207
 20
55.57810108314662
 30
0.0
  0
POINT
  5
525
  8
DEFPOINTS
 62
     0
 10
90.642358607143223
 20
55.57810108314662
 30
0.0
  0
POINT
  5
526
  8
DEFPOINTS
 62
     0
 10
90.642358607143223
 20
42.499578544805047
 30
0.0
  0
ENDBLK
  5
486
  8
0
  0
BLOCK
  8
0
  2
*D7
 70
     1
 10
0.0
 20
0.0
 30
0.0
  3
*D7
  1

  0
LINE
  5
4FB
  8
2
 62
     0
 10
78.392358607893215
 20
55.95341940340154
 30
0.0
 11
78.392358607893215
 21
45.693114952763722
 31
0.0
  0
LINE
  5
4FC
  8
2
 62
     0
 10
87.892958607418166
 20
55.950967749713499
 30
0.0
 11
87.892958607418166
 21
45.693114952763722
 31
0.0
  0
LINE
  5
4FD
  8
2
 62
     0
 10
80.892358607893215
 20
46.943114952763722
 30
0.0
 11
85.392958607418166
 21
46.943114952763722
 31
0.0
  0
SOLID
  5
4FE
  8
2
 62
     0
 10
80.892358607893215
 20
47.359781619430379
 30
0.0
 11
80.892358607893215
 21
46.52644828609705
 31
0.0
 12
78.392358607893215
 22
46.943114952763722
 32
0.0
 13
78.392358607893215
 23
46.943114952763722
 33
0.0
  0
SOLID
  5
4FF
  8
2
 62
     0
 10
85.392958607418166
 20
47.359781619430379
 30
0.0
 11
85.392958607418166
 21
46.52644828609705
 31
0.0
 12
87.892958607418166
 22
46.943114952763722
 32
0.0
 13
87.892958607418166
 23
46.943114952763722
 33
0.0
  0
INSERT
  5
500
  8
2
  2
*U11
 10
0.0
 20
0.0
 30
0.0
  0
POINT
  5
501
  8
DEFPOINTS
 62
     0
 10
78.392358607893215
 20
56.57841940340154
 30
0.0
  0
POINT
  5
502
  8
DEFPOINTS
 62
     0
 10
87.892958607418166
 20
56.575967749713499
 30
0.0
  0
POINT
  5
503
  8
DEFPOINTS
 62
     0
 10
87.892958607418166
 20
46.943114952763722
 30
0.0
  0
ENDBLK
  5
4A6
  8
0
  0
BLOCK
  8
0
  2
*U8
 70
     1
 10
0.0
 20
0.0
 30
0.0
  3
*U8
  1

  0
TEXT
  5
541
  8
2
 62
     0
 10
79.248361886870057
 20
82.587205509289134
 30
0.0
 40
2.5
  1
\U+2205
  0
TEXT
  5
542
  8
2
 62
     0
 10
81.748361886870057
 20
82.587205509289134
 30
0.0
 40
2.5
  1
11.5
  0
ENDBLK
  5
544
  8
0
  0
BLOCK
  8
0
  2
*U9
 70
     1
 10
0.0
 20
0.0
 30
0.0
  3
*U9
  1

  0
TEXT
  5
546
  8
2
 62
     0
 10
90.167358607893235
 20
76.84467513123829
 30
0.0
 40
2.5
  1
\U+2205
  0
TEXT
  5
547
  8
2
 62
     0
 10
92.667358607893235
 20
76.84467513123829
 30
0.0
 40
2.5
  1
7.8
  0
ENDBLK
  5
549
  8
0
  0
BLOCK
  8
0
  2
*U10
 70
     1
 10
0.0
 20
0.0
 30
0.0
  3
*U10
  1

  0
TEXT
  5
54B
  8
2
 62
     0
 10
91.067358607893212
 20
72.648210598372145
 30
0.0
 40
2.5
  1
\U+2205
  0
TEXT
  5
54C
  8
2
 62
     0
 10
93.567358607893212
 20
72.648210598372145
 30
0.0
 40
2.5
  1
4.6
  0
ENDBLK
  5
54E
  8
0
  0
BLOCK
  8
0
  2
*U11
 70
     1
 10
0.0
 20
0.0
 30
0.0
  3
*U11
  1

  0
TEXT
  5
550
  8
2
 62
     0
 10
79.39265860765569
 20
47.568114952763722
 30
0.0
 40
2.5
  1
\U+2205
  0
TEXT
  5
551
  8
2
 62
     0
 10
81.89265860765569
 20
47.568114952763722
 30
0.0
 40
2.5
  1
9.5
  0
ENDBLK
  5
553
  8
0
  0
BLOCK
  8
0
  2
*U12
 70
     1
 10
0.0
 20
0.0
 30
0.0
  3
*U12
  1

  0
TEXT
  5
555
  8
2
 62
     0
 10
80.225691941226543
 20
43.124578544805047
 30
0.0
 40
2.5
  1
\U+2205
  0
TEXT
  5
556
  8
2
 62
     0
 10
82.725691941226543
 20
43.124578544805047
 30
0.0
 40
2.5
  1
15
  0
ENDBLK
  5
558
  8
0
  0
ENDSEC
  0
SECTION
  2
ENTITIES
  0
POLYLINE
  5
C0
  8
0
 66
     1
 10
0.0
 20
0.0
 30
0.0
 39
3.3333333329999988
  0
VERTEX
  5
53A
  8
0
 10
78.507558608356675
 20
56.631234416374639
 30
0.0
  0
VERTEX
  5
53B
  8
0
 10
83.142358607893215
 20
56.631234416374639
 30
0.0
  0
SEQEND
  5
53C
  8
0
  0
TEXT
  5
138
  8
2
 10
71.878581175044573
 20
31.614037561509029
 30
0.0
 40
2.5399440000000002
  1
No. 23.015.164._
 41
0.999999951891823
 51
-0.0000015352344868
  7
\U+00C9L\U+00C9R_\U+00C2S\U+00C2V\U+00C2B\U+00C2N
  0
LINE
  5
148
  8
0
 39
3.3333333329999988
 10
83.142358607893215
 20
63.07243441573052
 30
0.0
 11
79.242358607893209
 21
63.07243441573052
 31
0.0
  0
LINE
  5
14D
  8
0
 39
3.3333333329999988
 10
78.684025275005695
 20
59.318701082772549
 30
0.0
 11
78.684025275005695
 21
58.750101082829431
 31
0.0
  0
LINE
  5
14E
  8
0
 39
3.3333333329999988
 10
78.684025275005695
 20
58.750101082829431
 30
0.0
 11
76.518625275222249
 21
58.756834416162079
 31
0.0
  0
LINE
  5
14F
  8
0
 39
3.3333333329999988
 10
76.518625275222249
 20
58.756834416162079
 30
0.0
 11
76.518625275222249
 21
58.756834416162079
 31
0.0
  0
LINE
  5
150
  8
0
 39
3.3333333329999988
 10
76.518625275222249
 20
58.756834416162079
 30
0.0
 11
76.473091941893472
 21
58.73223441616453
 31
0.0
  0
LINE
  5
151
  8
0
 39
3.3333333329999988
 10
76.473091941893472
 20
58.73223441616453
 30
0.0
 11
76.434158608564019
 21
58.707701082833658
 31
0.0
  0
LINE
  5
152
  8
0
 39
3.3333333329999988
 10
76.434158608564019
 20
58.707701082833658
 30
0.0
 11
76.401691941900609
 21
58.682901082836139
 31
0.0
  0
LINE
  5
153
  8
0
 39
3.3333333329999988
 10
76.401691941900609
 20
58.682901082836139
 30
0.0
 11
76.375625275236544
 21
58.657901082838642
 31
0.0
  0
LINE
  5
154
  8
0
 39
3.3333333329999988
 10
76.375625275236544
 20
58.657901082838642
 30
0.0
 11
76.355691941905206
 21
58.632301082841202
 31
0.0
  0
LINE
  5
155
  8
0
 39
3.3333333329999988
 10
76.355691941905206
 20
58.632301082841202
 30
0.0
 11
76.342025275239905
 21
58.6063010828438
 31
0.0
  0
LINE
  5
156
  8
0
 39
3.3333333329999988
 10
76.342025275239905
 20
58.6063010828438
 30
0.0
 11
76.334291941907352
 21
58.5796344161798
 31
0.0
  0
LINE
  5
157
  8
0
 39
3.3333333329999988
 10
76.334291941907352
 20
58.5796344161798
 30
0.0
 11
76.332625275240844
 21
58.552234416182543
 31
0.0
  0
LINE
  5
158
  8
0
 39
3.3333333329999988
 10
76.332625275240844
 20
58.552234416182543
 30
0.0
 11
76.336558608573782
 21
58.52383441618538
 31
0.0
  0
LINE
  5
159
  8
0
 39
3.3333333329999988
 10
76.336558608573782
 20
58.52383441618538
 30
0.0
 11
76.346291941906145
 21
58.494634416188298
 31
0.0
  0
LINE
  5
15A
  8
0
 39
3.3333333329999988
 10
76.346291941906145
 20
58.494634416188298
 30
0.0
 11
76.361625275237941
 21
58.464234416191331
 31
0.0
  0
LINE
  5
15B
  8
0
 39
3.3333333329999988
 10
76.361625275237941
 20
58.464234416191331
 30
0.0
 11
76.382558608569184
 21
58.432767749527827
 31
0.0
  0
LINE
  5
15C
  8
0
 39
3.3333333329999988
 10
76.382558608569184
 20
58.432767749527827
 30
0.0
 11
76.408691941899917
 21
58.399834416197777
 31
0.0
  0
LINE
  5
15D
  8
0
 39
3.3333333329999988
 10
76.408691941899917
 20
58.399834416197777
 30
0.0
 11
76.440225275230091
 21
58.365634416201203
 31
0.0
  0
LINE
  5
15E
  8
0
 39
3.3333333329999988
 10
76.440225275230091
 20
58.365634416201203
 30
0.0
 11
76.476825275226432
 21
58.329901082871437
 31
0.0
  0
LINE
  5
15F
  8
0
 39
3.3333333329999988
 10
76.476825275226432
 20
58.329901082871437
 30
0.0
 11
76.518625275222249
 21
58.292701082875162
 31
0.0
  0
LINE
  5
160
  8
0
 39
3.3333333329999988
 10
76.518625275222249
 20
58.292701082875162
 30
0.0
 11
78.266491941714136
 21
56.948767749676222
 31
0.0
  0
LINE
  5
161
  8
0
 39
3.3333333329999988
 10
78.266491941714136
 20
56.948767749676222
 30
0.0
 11
78.266491941714136
 21
56.948767749676222
 31
0.0
  0
LINE
  5
162
  8
0
 39
3.3333333329999988
 10
78.266491941714136
 20
56.948767749676222
 30
0.0
 11
78.300758608377365
 21
56.920901083012339
 31
0.0
  0
LINE
  5
163
  8
0
 39
3.3333333329999988
 10
78.300758608377365
 20
56.920901083012339
 30
0.0
 11
78.330425275041065
 21
56.889767749682107
 31
0.0
  0
LINE
  5
164
  8
0
 39
3.3333333329999988
 10
78.330425275041065
 20
56.889767749682107
 30
0.0
 11
78.355291941705246
 21
56.855701083018857
 31
0.0
  0
LINE
  5
165
  8
0
 39
3.3333333329999988
 10
78.355291941705246
 20
56.855701083018857
 30
0.0
 11
78.375491941703231
 21
56.819367749689157
 31
0.0
  0
LINE
  5
166
  8
0
 39
3.3333333329999988
 10
78.375491941703231
 20
56.819367749689157
 30
0.0
 11
78.390691941701704
 21
56.780967749693012
 31
0.0
  0
LINE
  5
167
  8
0
 39
3.3333333329999988
 10
78.390691941701704
 20
56.780967749693012
 30
0.0
 11
78.392358607893215
 21
56.774578862625553
 31
0.0
  0
LINE
  5
16B
  8
0
 39
3.3333333329999988
 10
78.392358607893215
 20
56.57841940340154
 30
0.0
 11
78.391758608368264
 21
56.575967749713499
 31
0.0
  0
LINE
  5
16C
  8
0
 39
3.3333333329999988
 10
78.391758608368264
 20
56.575967749713499
 30
0.0
 11
78.376358608369813
 21
56.535567749717544
 31
0.0
  0
LINE
  5
16D
  8
0
 39
3.3333333329999988
 10
78.376358608369813
 20
56.535567749717544
 30
0.0
 11
78.355691941705203
 21
56.496567749721429
 31
0.0
  0
LINE
  5
16E
  8
0
 39
3.3333333329999988
 10
78.355691941705203
 20
56.496567749721429
 30
0.0
 11
78.329425275041174
 21
56.459167749725182
 31
0.0
  0
LINE
  5
16F
  8
0
 39
3.3333333329999988
 10
78.329425275041174
 20
56.459167749725182
 30
0.0
 11
78.297758608377663
 21
56.424167749728682
 31
0.0
  0
LINE
  5
170
  8
0
 39
3.3333333329999988
 10
78.297758608377663
 20
56.424167749728682
 30
0.0
 11
78.260491941714733
 21
56.391767749731919
 31
0.0
  0
LINE
  5
171
  8
0
 39
3.3333333329999988
 10
78.260491941714733
 20
56.391767749731919
 30
0.0
 11
78.217691941719011
 21
56.362634416401491
 31
0.0
  0
LINE
  5
172
  8
0
 39
3.3333333329999988
 10
78.217691941719011
 20
56.362634416401491
 30
0.0
 11
76.032776012368174
 21
55.57810108314662
 31
0.0
  0
LINE
  5
177
  8
0
 10
83.142358607893215
 20
58.750101082829431
 30
0.0
 11
78.684025275005695
 21
58.750101082829431
 31
0.0
  0
LINE
  5
187
  8
0
 39
3.3333333329999988
 10
77.392358607893215
 20
66.131101264571313
 30
0.0
 11
77.810758608426369
 21
66.578101082046615
 31
0.0
  0
LINE
  5
188
  8
0
 39
3.3333333329999988
 10
77.810758608426369
 20
66.578101082046615
 30
0.0
 11
83.142358607893215
 21
66.578101082046615
 31
0.0
  0
LINE
  5
18A
  8
0
 39
3.3333333329999988
 10
83.142358607893215
 20
55.57810108314662
 30
0.0
 11
75.642358608643207
 21
55.57810108314662
 31
0.0
  0
LINE
  5
18B
  8
0
 39
3.3333333329999988
 10
75.642358608643207
 20
55.57810108314662
 30
0.0
 11
77.784025275095701
 21
56.505834416387181
 31
0.0
  0
LINE
  5
18C
  8
0
 39
3.3333333329999988
 10
77.784025275095701
 20
56.505834416387181
 30
0.0
 11
77.784025275095701
 21
56.505834416387181
 31
0.0
  0
LINE
  5
18D
  8
0
 39
3.3333333329999988
 10
77.784025275095701
 20
56.505834416387181
 30
0.0
 11
77.825025275091605
 21
56.531234416384642
 31
0.0
  0
LINE
  5
18E
  8
0
 39
3.3333333329999988
 10
77.825025275091605
 20
56.531234416384642
 30
0.0
 11
77.860625275088054
 21
56.556634416382103
 31
0.0
  0
LINE
  5
18F
  8
0
 39
3.3333333329999988
 10
77.860625275088054
 20
56.556634416382103
 30
0.0
 11
77.890758608418366
 21
56.58190108304624
 31
0.0
  0
LINE
  5
190
  8
0
 39
3.3333333329999988
 10
77.890758608418366
 20
56.58190108304624
 30
0.0
 11
77.915691941749202
 21
56.60723441637704
 31
0.0
  0
LINE
  5
191
  8
0
 39
3.3333333329999988
 10
77.915691941749202
 20
56.60723441637704
 30
0.0
 11
77.935291941747224
 21
56.632234416374537
 31
0.0
  0
LINE
  5
192
  8
0
 39
3.3333333329999988
 10
77.935291941747224
 20
56.632234416374537
 30
0.0
 11
77.950025275079113
 21
56.65716774970538
 31
0.0
  0
LINE
  5
193
  8
0
 39
3.3333333329999988
 10
77.950025275079113
 20
56.65716774970538
 30
0.0
 11
77.959825275078131
 21
56.681901083036237
 31
0.0
  0
LINE
  5
194
  8
0
 39
3.3333333329999988
 10
77.959825275078131
 20
56.681901083036237
 30
0.0
 11
77.965025275077608
 21
56.706434416367131
 31
0.0
  0
LINE
  5
195
  8
0
 39
3.3333333329999988
 10
77.965025275077608
 20
56.706434416367131
 30
0.0
 11
77.965491941744219
 21
56.730567749698039
 31
0.0
  0
LINE
  5
196
  8
0
 39
3.3333333329999988
 10
77.965491941744219
 20
56.730567749698039
 30
0.0
 11
77.961625275077949
 21
56.75436774969566
 31
0.0
  0
LINE
  5
197
  8
0
 39
3.3333333329999988
 10
77.961625275077949
 20
56.75436774969566
 30
0.0
 11
77.953358608412103
 21
56.777767749693318
 31
0.0
  0
LINE
  5
198
  8
0
 39
3.3333333329999988
 10
77.953358608412103
 20
56.777767749693318
 30
0.0
 11
77.941158608413332
 21
56.800967749690997
 31
0.0
  0
LINE
  5
199
  8
0
 39
3.3333333329999988
 10
77.941158608413332
 20
56.800967749690997
 30
0.0
 11
77.924758608414976
 21
56.823567749688728
 31
0.0
  0
LINE
  5
19A
  8
0
 39
3.3333333329999988
 10
77.924758608414976
 20
56.823567749688728
 30
0.0
 11
77.904558608416991
 21
56.845834416353178
 31
0.0
  0
LINE
  5
19B
  8
0
 39
3.3333333329999988
 10
77.904558608416991
 20
56.845834416353178
 30
0.0
 11
77.880691941752715
 21
56.867501083017679
 31
0.0
  0
LINE
  5
19C
  8
0
 39
3.3333333329999988
 10
77.880691941752715
 20
56.867501083017679
 30
0.0
 11
77.853291941755444
 21
56.888767749682223
 31
0.0
  0
LINE
  5
19D
  8
0
 39
3.3333333329999988
 10
77.853291941755444
 20
56.888767749682223
 30
0.0
 11
75.800158608627427
 21
58.334567749537641
 31
0.0
  0
LINE
  5
19E
  8
0
 39
3.3333333329999988
 10
75.800158608627427
 20
58.334567749537641
 30
0.0
 11
75.800158608627427
 21
58.334567749537641
 31
0.0
  0
LINE
  5
19F
  8
0
 39
3.3333333329999988
 10
75.800158608627427
 20
58.334567749537641
 30
0.0
 11
75.768825275297232
 21
58.375367749533559
 31
0.0
  0
LINE
  5
1A0
  8
0
 39
3.3333333329999988
 10
75.768825275297232
 20
58.375367749533559
 30
0.0
 11
75.741625275299953
 21
58.41223441619654
 31
0.0
  0
LINE
  5
1A1
  8
0
 39
3.3333333329999988
 10
75.741625275299953
 20
58.41223441619654
 30
0.0
 11
75.71855860863559
 21
58.445501082859877
 31
0.0
  0
LINE
  5
1A2
  8
0
 39
3.3333333329999988
 10
75.71855860863559
 20
58.445501082859877
 30
0.0
 11
75.699825275304136
 21
58.475701082856858
 31
0.0
  0
LINE
  5
1A3
  8
0
 39
3.3333333329999988
 10
75.699825275304136
 20
58.475701082856858
 30
0.0
 11
75.685225275305598
 21
58.503234416187439
 31
0.0
  0
LINE
  5
1A4
  8
0
 39
3.3333333329999988
 10
75.685225275305598
 20
58.503234416187439
 30
0.0
 11
75.675091941973264
 21
58.52890108285154
 31
0.0
  0
LINE
  5
1A5
  8
0
 39
3.3333333329999988
 10
75.675091941973264
 20
58.52890108285154
 30
0.0
 11
75.669358608640508
 21
58.552834416182471
 31
0.0
  0
LINE
  5
1A6
  8
0
 39
3.3333333329999988
 10
75.669358608640508
 20
58.552834416182471
 30
0.0
 11
75.668225275307293
 21
58.575834416180179
 31
0.0
  0
LINE
  5
1A7
  8
0
 39
3.3333333329999988
 10
75.668225275307293
 20
58.575834416180179
 30
0.0
 11
75.671491941973613
 21
58.598101082844607
 31
0.0
  0
LINE
  5
1A8
  8
0
 39
3.3333333329999988
 10
75.671491941973613
 20
58.598101082844607
 30
0.0
 11
75.679491941972813
 21
58.620434416175719
 31
0.0
  0
LINE
  5
1A9
  8
0
 39
3.3333333329999988
 10
75.679491941972813
 20
58.620434416175719
 30
0.0
 11
75.692158608638223
 21
58.643101082840118
 31
0.0
  0
LINE
  5
1AA
  8
0
 39
3.3333333329999988
 10
75.692158608638223
 20
58.643101082840118
 30
0.0
 11
75.709758608636463
 21
58.666767749504423
 31
0.0
  0
LINE
  5
1AB
  8
0
 39
3.3333333329999988
 10
75.709758608636463
 20
58.666767749504423
 30
0.0
 11
75.732091941967553
 21
58.691701082835259
 31
0.0
  0
LINE
  5
1AC
  8
0
 39
3.3333333329999988
 10
75.732091941967553
 20
58.691701082835259
 30
0.0
 11
75.75942527529817
 21
58.718767749499207
 31
0.0
  0
LINE
  5
1AD
  8
0
 39
3.3333333329999988
 10
75.75942527529817
 20
58.718767749499207
 30
0.0
 11
75.791691941961616
 21
58.748167749496282
 31
0.0
  0
LINE
  5
1AE
  8
0
 39
3.3333333329999988
 10
75.791691941961616
 20
58.748167749496282
 30
0.0
 11
75.829158608624525
 21
58.780567749493031
 31
0.0
  0
LINE
  5
1AF
  8
0
 39
3.3333333329999988
 10
75.829158608624525
 20
58.780567749493031
 30
0.0
 11
77.641758608443268
 21
60.97770108260665
 31
0.0
  0
LINE
  5
1B0
  8
0
 39
3.3333333329999988
 10
77.641758608443268
 20
60.97770108260665
 30
0.0
 11
77.641758608443268
 21
60.97770108260665
 31
0.0
  0
LINE
  5
1B1
  8
0
 39
3.3333333329999988
 10
77.641758608443268
 20
60.97770108260665
 30
0.0
 11
77.680758608439362
 21
61.041434415933622
 31
0.0
  0
LINE
  5
1B2
  8
0
 39
3.3333333329999988
 10
77.680758608439362
 20
61.041434415933622
 30
0.0
 11
77.714758608435972
 21
61.103767749260712
 31
0.0
  0
LINE
  5
1B3
  8
0
 39
3.3333333329999988
 10
77.714758608435972
 20
61.103767749260712
 30
0.0
 11
77.743291941766444
 21
61.164234415921342
 31
0.0
  0
LINE
  5
1B4
  8
0
 39
3.3333333329999988
 10
77.743291941766444
 20
61.164234415921342
 30
0.0
 11
77.765891941764195
 21
61.22276774924881
 31
0.0
  0
LINE
  5
1B5
  8
0
 39
3.3333333329999988
 10
77.765891941764195
 20
61.22276774924881
 30
0.0
 11
77.78195860842925
 21
61.278701082576553
 31
0.0
  0
LINE
  5
1B6
  8
0
 39
3.3333333329999988
 10
77.78195860842925
 20
61.278701082576553
 30
0.0
 11
77.791225275094988
 21
61.332034415904559
 31
0.0
  0
LINE
  5
1B7
  8
0
 39
3.3333333329999988
 10
77.791225275094988
 20
61.332034415904559
 30
0.0
 11
77.79309194176146
 21
61.382234415899532
 31
0.0
  0
LINE
  5
1B8
  8
0
 39
3.3333333329999988
 10
77.79309194176146
 20
61.382234415899532
 30
0.0
 11
77.787225275095395
 21
61.429101082561523
 31
0.0
  0
LINE
  5
1B9
  8
0
 39
3.3333333329999988
 10
77.787225275095395
 20
61.429101082561523
 30
0.0
 11
77.77289194176349
 21
61.472101082557217
 31
0.0
  0
LINE
  5
1BA
  8
0
 39
3.3333333329999988
 10
77.77289194176349
 20
61.472101082557217
 30
0.0
 11
77.749825275099127
 21
61.511167749219979
 31
0.0
  0
LINE
  5
1BB
  8
0
 39
3.3333333329999988
 10
77.749825275099127
 20
61.511167749219979
 30
0.0
 11
77.717558608435695
 21
61.545834415883178
 31
0.0
  0
LINE
  5
1BC
  8
0
 39
3.3333333329999988
 10
77.717558608435695
 20
61.545834415883178
 30
0.0
 11
77.675691941773209
 21
61.575901082546842
 31
0.0
  0
LINE
  5
1BD
  8
0
 39
3.3333333329999988
 10
77.675691941773209
 20
61.575901082546842
 30
0.0
 11
77.671073712260267
 21
61.578101082046608
 31
0.0
  0
LINE
  5
34B
  8
1
 10
83.142358607893215
 20
67.078101082046615
 30
0.0
 11
83.142358607893215
 21
55.078101083146613
 31
0.0
  0
LINE
  5
34F
  8
0
 10
80.842358607893217
 20
66.578101082046615
 30
0.0
 11
80.842358607893217
 21
63.07243441573052
 31
0.0
  0
LINE
  5
350
  8
0
 10
79.242358607893209
 20
63.07243441573052
 30
0.0
 11
79.242358607893209
 21
59.645903908778948
 31
0.0
  0
LINE
  5
352
  8
0
 39
3.3333333329999988
 10
79.242358607893209
 20
59.645903908778948
 30
0.0
 11
78.684025275005695
 21
59.318701082772549
 31
0.0
  0
LINE
  5
353
  8
0
 10
79.242358607893209
 20
59.645903908778948
 30
0.0
 11
83.142358607893215
 21
59.645903908778948
 31
0.0
  0
LINE
  5
356
  8
0
 10
77.671073712260267
 20
61.578101082046608
 30
0.0
 11
77.392358607893215
 21
61.578101082046608
 31
0.0
  0
LINE
  5
359
  8
0
 10
77.392358607893215
 20
61.578101082046608
 30
0.0
 11
77.392358607893215
 21
66.131101264571313
 31
0.0
  0
LINE
  5
38A
  8
0
 10
78.392358607893215
 20
56.774578862625553
 30
0.0
 11
78.392358607893215
 21
56.57841940340154
 31
0.0
  0
LINE
  5
38D
  8
0
 10
78.684025275005695
 20
59.318701082772549
 30
0.0
 11
83.142358607893215
 21
59.318701082772549
 31
0.0
  0
LINE
  5
3A8
  8
0
 39
3.3333333329999988
 10
87.042358607893235
 20
59.645903908778948
 30
0.0
 11
87.60069194078072
 21
59.318701082772549
 31
0.0
  0
LINE
  5
3A9
  8
0
 39
3.3333333329999988
 10
88.60902527401322
 20
61.575901082546842
 30
0.0
 11
88.613643503526163
 21
61.578101082046608
 31
0.0
  0
LINE
  5
3AA
  8
0
 39
3.3333333329999988
 10
88.567158607350734
 20
61.545834415883178
 30
0.0
 11
88.60902527401322
 21
61.575901082546842
 31
0.0
  0
LINE
  5
3AB
  8
0
 39
3.3333333329999988
 10
88.534891940687302
 20
61.511167749219979
 30
0.0
 11
88.567158607350734
 21
61.545834415883178
 31
0.0
  0
LINE
  5
3AC
  8
0
 39
3.3333333329999988
 10
88.511825274022925
 20
61.472101082557217
 30
0.0
 11
88.534891940687302
 21
61.511167749219979
 31
0.0
  0
LINE
  5
3AD
  8
0
 39
3.3333333329999988
 10
88.497491940691035
 20
61.429101082561523
 30
0.0
 11
88.511825274022925
 21
61.472101082557217
 31
0.0
  0
LINE
  5
3AE
  8
0
 39
3.3333333329999988
 10
88.491625274024955
 20
61.382234415899532
 30
0.0
 11
88.497491940691035
 21
61.429101082561523
 31
0.0
  0
LINE
  5
3AF
  8
0
 39
3.3333333329999988
 10
88.493491940691442
 20
61.332034415904559
 30
0.0
 11
88.491625274024955
 21
61.382234415899532
 31
0.0
  0
LINE
  5
3B0
  8
0
 39
3.3333333329999988
 10
88.502758607357194
 20
61.278701082576553
 30
0.0
 11
88.493491940691442
 21
61.332034415904559
 31
0.0
  0
LINE
  5
3B1
  8
0
 39
3.3333333329999988
 10
88.518825274022234
 20
61.22276774924881
 30
0.0
 11
88.502758607357194
 21
61.278701082576553
 31
0.0
  0
LINE
  5
3B2
  8
0
 39
3.3333333329999988
 10
88.541425274019986
 20
61.164234415921342
 30
0.0
 11
88.518825274022234
 21
61.22276774924881
 31
0.0
  0
LINE
  5
3B3
  8
0
 39
3.3333333329999988
 10
88.569958607350443
 20
61.103767749260712
 30
0.0
 11
88.541425274019986
 21
61.164234415921342
 31
0.0
  0
LINE
  5
3B4
  8
0
 39
3.3333333329999988
 10
88.603958607347067
 20
61.041434415933622
 30
0.0
 11
88.569958607350443
 21
61.103767749260712
 31
0.0
  0
LINE
  5
3B5
  8
0
 39
3.3333333329999988
 10
88.642958607343161
 20
60.97770108260665
 30
0.0
 11
88.603958607347067
 21
61.041434415933622
 31
0.0
  0
LINE
  5
3B6
  8
0
 39
3.3333333329999988
 10
88.642958607343161
 20
60.97770108260665
 30
0.0
 11
88.642958607343161
 21
60.97770108260665
 31
0.0
  0
LINE
  5
3B7
  8
0
 39
3.3333333329999988
 10
90.455558607161905
 20
58.780567749493031
 30
0.0
 11
88.642958607343161
 21
60.97770108260665
 31
0.0
  0
LINE
  5
3B8
  8
0
 39
3.3333333329999988
 10
90.493025273824813
 20
58.748167749496282
 30
0.0
 11
90.455558607161905
 21
58.780567749493031
 31
0.0
  0
LINE
  5
3B9
  8
0
 39
3.3333333329999988
 10
90.525291940488259
 20
58.718767749499207
 30
0.0
 11
90.493025273824813
 21
58.748167749496282
 31
0.0
  0
LINE
  5
3BA
  8
0
 39
3.3333333329999988
 10
90.552625273818862
 20
58.691701082835259
 30
0.0
 11
90.525291940488259
 21
58.718767749499207
 31
0.0
  0
LINE
  5
3BB
  8
0
 39
3.3333333329999988
 10
90.574958607149952
 20
58.666767749504423
 30
0.0
 11
90.552625273818862
 21
58.691701082835259
 31
0.0
  0
LINE
  5
3BC
  8
0
 39
3.3333333329999988
 10
90.592558607148206
 20
58.643101082840118
 30
0.0
 11
90.574958607149952
 21
58.666767749504423
 31
0.0
  0
LINE
  5
3BD
  8
0
 39
3.3333333329999988
 10
90.605225273813602
 20
58.620434416175719
 30
0.0
 11
90.592558607148206
 21
58.643101082840118
 31
0.0
  0
LINE
  5
3BE
  8
0
 39
3.3333333329999988
 10
90.613225273812802
 20
58.598101082844607
 30
0.0
 11
90.605225273813602
 21
58.620434416175719
 31
0.0
  0
LINE
  5
3BF
  8
0
 39
3.3333333329999988
 10
90.616491940479136
 20
58.575834416180179
 30
0.0
 11
90.613225273812802
 21
58.598101082844607
 31
0.0
  0
LINE
  5
3C0
  8
0
 39
3.3333333329999988
 10
90.615358607145922
 20
58.552834416182471
 30
0.0
 11
90.616491940479136
 21
58.575834416180179
 31
0.0
  0
LINE
  5
3C1
  8
0
 39
3.3333333329999988
 10
90.609625273813165
 20
58.52890108285154
 30
0.0
 11
90.615358607145922
 21
58.552834416182471
 31
0.0
  0
LINE
  5
3C2
  8
0
 39
3.3333333329999988
 10
90.599491940480831
 20
58.503234416187439
 30
0.0
 11
90.609625273813165
 21
58.52890108285154
 31
0.0
  0
LINE
  5
3C3
  8
0
 39
3.3333333329999988
 10
90.584891940482294
 20
58.475701082856858
 30
0.0
 11
90.599491940480831
 21
58.503234416187439
 31
0.0
  0
LINE
  5
3C4
  8
0
 39
3.3333333329999988
 10
90.566158607150825
 20
58.445501082859877
 30
0.0
 11
90.584891940482294
 21
58.475701082856858
 31
0.0
  0
LINE
  5
3C5
  8
0
 39
3.3333333329999988
 10
90.543091940486477
 20
58.41223441619654
 30
0.0
 11
90.566158607150825
 21
58.445501082859877
 31
0.0
  0
LINE
  5
3C6
  8
0
 39
3.3333333329999988
 10
90.515891940489198
 20
58.375367749533559
 30
0.0
 11
90.543091940486477
 21
58.41223441619654
 31
0.0
  0
LINE
  5
3C7
  8
0
 39
3.3333333329999988
 10
90.484558607159002
 20
58.334567749537641
 30
0.0
 11
90.515891940489198
 21
58.375367749533559
 31
0.0
  0
LINE
  5
3C8
  8
0
 39
3.3333333329999988
 10
90.484558607159002
 20
58.334567749537641
 30
0.0
 11
90.484558607159002
 21
58.334567749537641
 31
0.0
  0
LINE
  5
3C9
  8
0
 39
3.3333333329999988
 10
88.431425274030971
 20
56.888767749682223
 30
0.0
 11
90.484558607159002
 21
58.334567749537641
 31
0.0
  0
LINE
  5
3CA
  8
0
 39
3.3333333329999988
 10
88.404025274033714
 20
56.867501083017679
 30
0.0
 11
88.431425274030971
 21
56.888767749682223
 31
0.0
  0
LINE
  5
3CB
  8
0
 39
3.3333333329999988
 10
88.380158607369424
 20
56.845834416353178
 30
0.0
 11
88.404025274033714
 21
56.867501083017679
 31
0.0
  0
LINE
  5
3CC
  8
0
 39
3.3333333329999988
 10
88.359958607371453
 20
56.823567749688728
 30
0.0
 11
88.380158607369424
 21
56.845834416353178
 31
0.0
  0
LINE
  5
3CD
  8
0
 39
3.3333333329999988
 10
88.343558607373083
 20
56.800967749690997
 30
0.0
 11
88.359958607371453
 21
56.823567749688728
 31
0.0
  0
LINE
  5
3CE
  8
0
 39
3.3333333329999988
 10
88.331358607374327
 20
56.777767749693318
 30
0.0
 11
88.343558607373083
 21
56.800967749690997
 31
0.0
  0
LINE
  5
3CF
  8
0
 39
3.3333333329999988
 10
88.32309194070848
 20
56.75436774969566
 30
0.0
 11
88.331358607374327
 21
56.777767749693318
 31
0.0
  0
LINE
  5
3D0
  8
0
 39
3.3333333329999988
 10
88.319225274042225
 20
56.730567749698039
 30
0.0
 11
88.32309194070848
 21
56.75436774969566
 31
0.0
  0
LINE
  5
3D1
  8
0
 39
3.3333333329999988
 10
88.319691940708822
 20
56.706434416367131
 30
0.0
 11
88.319225274042225
 21
56.730567749698039
 31
0.0
  0
LINE
  5
3D2
  8
0
 39
3.3333333329999988
 10
88.324891940708284
 20
56.681901083036237
 30
0.0
 11
88.319691940708822
 21
56.706434416367131
 31
0.0
  0
LINE
  5
3D3
  8
0
 39
3.3333333329999988
 10
88.334691940707316
 20
56.65716774970538
 30
0.0
 11
88.324891940708284
 21
56.681901083036237
 31
0.0
  0
LINE
  5
3D4
  8
0
 39
3.3333333329999988
 10
88.349425274039191
 20
56.632234416374537
 30
0.0
 11
88.334691940707316
 21
56.65716774970538
 31
0.0
  0
LINE
  5
3D5
  8
0
 39
3.3333333329999988
 10
88.369025274037213
 20
56.60723441637704
 30
0.0
 11
88.349425274039191
 21
56.632234416374537
 31
0.0
  0
LINE
  5
3D6
  8
0
 39
3.3333333329999988
 10
88.393958607368049
 20
56.58190108304624
 30
0.0
 11
88.369025274037213
 21
56.60723441637704
 31
0.0
  0
LINE
  5
3D7
  8
0
 39
3.3333333329999988
 10
88.424091940698375
 20
56.556634416382103
 30
0.0
 11
88.393958607368049
 21
56.58190108304624
 31
0.0
  0
LINE
  5
3D8
  8
0
 39
3.3333333329999988
 10
88.459691940694825
 20
56.531234416384642
 30
0.0
 11
88.424091940698375
 21
56.556634416382103
 31
0.0
  0
LINE
  5
3D9
  8
0
 39
3.3333333329999988
 10
88.500691940690729
 20
56.505834416387181
 30
0.0
 11
88.459691940694825
 21
56.531234416384642
 31
0.0
  0
LINE
  5
3DA
  8
0
 39
3.3333333329999988
 10
88.500691940690729
 20
56.505834416387181
 30
0.0
 11
88.500691940690729
 21
56.505834416387181
 31
0.0
  0
LINE
  5
3DB
  8
0
 39
3.3333333329999988
 10
90.642358607143223
 20
55.57810108314662
 30
0.0
 11
88.500691940690729
 21
56.505834416387181
 31
0.0
  0
LINE
  5
3DC
  8
0
 39
3.3333333329999988
 10
83.142358607893215
 20
55.57810108314662
 30
0.0
 11
90.642358607143223
 21
55.57810108314662
 31
0.0
  0
LINE
  5
3DD
  8
0
 39
3.3333333329999988
 10
88.473958607360046
 20
66.578101082046615
 30
0.0
 11
83.142358607893215
 21
66.578101082046615
 31
0.0
  0
LINE
  5
3DE
  8
0
 39
3.3333333329999988
 10
88.892358607893215
 20
66.131101264571313
 30
0.0
 11
88.473958607360046
 21
66.578101082046615
 31
0.0
  0
LINE
  5
3DF
  8
0
 39
3.3333333329999988
 10
88.067025274067404
 20
56.362634416401491
 30
0.0
 11
90.251941203418241
 21
55.57810108314662
 31
0.0
  0
LINE
  5
3E0
  8
0
 39
3.3333333329999988
 10
88.024225274071696
 20
56.391767749731919
 30
0.0
 11
88.067025274067404
 21
56.362634416401491
 31
0.0
  0
LINE
  5
3E1
  8
0
 39
3.3333333329999988
 10
87.986958607408766
 20
56.424167749728682
 30
0.0
 11
88.024225274071696
 21
56.391767749731919
 31
0.0
  0
LINE
  5
3E2
  8
0
 39
3.3333333329999988
 10
87.955291940745255
 20
56.459167749725182
 30
0.0
 11
87.986958607408766
 21
56.424167749728682
 31
0.0
  0
LINE
  5
3E3
  8
0
 39
3.3333333329999988
 10
87.929025274081226
 20
56.496567749721429
 30
0.0
 11
87.955291940745255
 21
56.459167749725182
 31
0.0
  0
LINE
  5
3E4
  8
0
 39
3.3333333329999988
 10
87.908358607416616
 20
56.535567749717544
 30
0.0
 11
87.929025274081226
 21
56.496567749721429
 31
0.0
  0
LINE
  5
3E5
  8
0
 39
3.3333333329999988
 10
87.892958607418166
 20
56.575967749713499
 30
0.0
 11
87.908358607416616
 21
56.535567749717544
 31
0.0
  0
LINE
  5
3E6
  8
0
 39
3.3333333329999988
 10
87.892358607893215
 20
56.57841940340154
 30
0.0
 11
87.892958607418166
 21
56.575967749713499
 31
0.0
  0
LINE
  5
3E7
  8
0
 39
3.3333333329999988
 10
87.894025274084726
 20
56.780967749693012
 30
0.0
 11
87.892358607893215
 21
56.774578862625553
 31
0.0
  0
LINE
  5
3E8
  8
0
 39
3.3333333329999988
 10
87.909225274083184
 20
56.819367749689157
 30
0.0
 11
87.894025274084726
 21
56.780967749693012
 31
0.0
  0
LINE
  5
3E9
  8
0
 39
3.3333333329999988
 10
87.929425274081183
 20
56.855701083018857
 30
0.0
 11
87.909225274083184
 21
56.819367749689157
 31
0.0
  0
LINE
  5
3EA
  8
0
 39
3.3333333329999988
 10
87.954291940745364
 20
56.889767749682107
 30
0.0
 11
87.929425274081183
 21
56.855701083018857
 31
0.0
  0
LINE
  5
3EB
  8
0
 39
3.3333333329999988
 10
87.983958607409065
 20
56.920901083012339
 30
0.0
 11
87.954291940745364
 21
56.889767749682107
 31
0.0
  0
LINE
  5
3EC
  8
0
 39
3.3333333329999988
 10
88.018225274072293
 20
56.948767749676222
 30
0.0
 11
87.983958607409065
 21
56.920901083012339
 31
0.0
  0
LINE
  5
3ED
  8
0
 39
3.3333333329999988
 10
88.018225274072293
 20
56.948767749676222
 30
0.0
 11
88.018225274072293
 21
56.948767749676222
 31
0.0
  0
LINE
  5
3EE
  8
0
 39
3.3333333329999988
 10
89.766091940564181
 20
58.292701082875162
 30
0.0
 11
88.018225274072293
 21
56.948767749676222
 31
0.0
  0
LINE
  5
3EF
  8
0
 39
3.3333333329999988
 10
89.807891940559983
 20
58.329901082871437
 30
0.0
 11
89.766091940564181
 21
58.292701082875162
 31
0.0
  0
LINE
  5
3F0
  8
0
 39
3.3333333329999988
 10
89.844491940556324
 20
58.365634416201203
 30
0.0
 11
89.807891940559983
 21
58.329901082871437
 31
0.0
  0
LINE
  5
3F1
  8
0
 39
3.3333333329999988
 10
89.876025273886498
 20
58.399834416197777
 30
0.0
 11
89.844491940556324
 21
58.365634416201203
 31
0.0
  0
LINE
  5
3F2
  8
0
 39
3.3333333329999988
 10
89.902158607217245
 20
58.432767749527827
 30
0.0
 11
89.876025273886498
 21
58.399834416197777
 31
0.0
  0
LINE
  5
3F3
  8
0
 39
3.3333333329999988
 10
89.923091940548488
 20
58.464234416191331
 30
0.0
 11
89.902158607217245
 21
58.432767749527827
 31
0.0
  0
LINE
  5
3F4
  8
0
 39
3.3333333329999988
 10
89.938425273880284
 20
58.494634416188298
 30
0.0
 11
89.923091940548488
 21
58.464234416191331
 31
0.0
  0
LINE
  5
3F5
  8
0
 39
3.3333333329999988
 10
89.948158607212648
 20
58.52383441618538
 30
0.0
 11
89.938425273880284
 21
58.494634416188298
 31
0.0
  0
LINE
  5
3F6
  8
0
 39
3.3333333329999988
 10
89.952091940545586
 20
58.552234416182543
 30
0.0
 11
89.948158607212648
 21
58.52383441618538
 31
0.0
  0
LINE
  5
3F7
  8
0
 39
3.3333333329999988
 10
89.950425273879077
 20
58.5796344161798
 30
0.0
 11
89.952091940545586
 21
58.552234416182543
 31
0.0
  0
LINE
  5
3F8
  8
0
 39
3.3333333329999988
 10
89.942691940546524
 20
58.6063010828438
 30
0.0
 11
89.950425273879077
 21
58.5796344161798
 31
0.0
  0
LINE
  5
3F9
  8
0
 39
3.3333333329999988
 10
89.929025273881237
 20
58.632301082841202
 30
0.0
 11
89.942691940546524
 21
58.6063010828438
 31
0.0
  0
LINE
  5
3FA
  8
0
 39
3.3333333329999988
 10
89.909091940549871
 20
58.657901082838642
 30
0.0
 11
89.929025273881237
 21
58.632301082841202
 31
0.0
  0
LINE
  5
3FB
  8
0
 39
3.3333333329999988
 10
89.883025273885806
 20
58.682901082836139
 30
0.0
 11
89.909091940549871
 21
58.657901082838642
 31
0.0
  0
LINE
  5
3FC
  8
0
 39
3.3333333329999988
 10
89.850558607222411
 20
58.707701082833658
 30
0.0
 11
89.883025273885806
 21
58.682901082836139
 31
0.0
  0
LINE
  5
3FD
  8
0
 39
3.3333333329999988
 10
89.811625273892957
 20
58.73223441616453
 30
0.0
 11
89.850558607222411
 21
58.707701082833658
 31
0.0
  0
LINE
  5
3FE
  8
0
 39
3.3333333329999988
 10
89.766091940564181
 20
58.756834416162079
 30
0.0
 11
89.811625273892957
 21
58.73223441616453
 31
0.0
  0
LINE
  5
3FF
  8
0
 39
3.3333333329999988
 10
89.766091940564181
 20
58.756834416162079
 30
0.0
 11
89.766091940564181
 21
58.756834416162079
 31
0.0
  0
LINE
  5
400
  8
0
 39
3.3333333329999988
 10
87.60069194078072
 20
58.750101082829431
 30
0.0
 11
89.766091940564181
 21
58.756834416162079
 31
0.0
  0
LINE
  5
401
  8
0
 39
3.3333333329999988
 10
87.60069194078072
 20
59.318701082772549
 30
0.0
 11
87.60069194078072
 21
58.750101082829431
 31
0.0
  0
LINE
  5
402
  8
0
 39
3.3333333329999988
 10
83.142358607893215
 20
63.07243441573052
 30
0.0
 11
87.042358607893235
 21
63.07243441573052
 31
0.0
  0
POLYLINE
  5
403
  8
0
 66
     1
 10
0.0
 20
0.0
 30
0.0
 39
3.3333333329999988
  0
VERTEX
  5
53D
  8
0
 10
87.77715860742974
 20
56.631234416374639
 30
0.0
  0
VERTEX
  5
53E
  8
0
 10
83.142358607893215
 20
56.631234416374639
 30
0.0
  0
SEQEND
  5
53F
  8
0
  0
LINE
  5
404
  8
0
 10
87.60069194078072
 20
59.318701082772549
 30
0.0
 11
83.142358607893215
 21
59.318701082772549
 31
0.0
  0
LINE
  5
405
  8
0
 10
83.142358607893215
 20
58.750101082829431
 30
0.0
 11
87.60069194078072
 21
58.750101082829431
 31
0.0
  0
LINE
  5
406
  8
0
 10
87.892358607893215
 20
56.774578862625553
 30
0.0
 11
87.892358607893215
 21
56.57841940340154
 31
0.0
  0
LINE
  5
407
  8
0
 10
88.892358607893215
 20
61.578101082046608
 30
0.0
 11
88.892358607893215
 21
66.131101264571313
 31
0.0
  0
LINE
  5
408
  8
0
 10
88.613643503526163
 20
61.578101082046608
 30
0.0
 11
88.892358607893215
 21
61.578101082046608
 31
0.0
  0
LINE
  5
409
  8
0
 10
87.042358607893235
 20
63.07243441573052
 30
0.0
 11
87.042358607893235
 21
59.645903908778948
 31
0.0
  0
LINE
  5
40A
  8
0
 10
87.042358607893235
 20
59.645903908778948
 30
0.0
 11
83.142358607893215
 21
59.645903908778948
 31
0.0
  0
LINE
  5
40B
  8
0
 10
85.442358607893212
 20
66.578101082046615
 30
0.0
 11
85.442358607893212
 21
63.07243441573052
 31
0.0
  0
DIMENSION
  5
411
  8
2
  2
*D1
 10
85.442358607893212
 20
72.023210598372145
 30
0.0
 11
94.817358607893212
 21
73.898210598372145
 31
0.0
 70
     0
  1
%%c<>
 13
80.842358607893217
 23
66.578101082046615
 33
0.0
 14
85.442358607893212
 24
66.578101082046615
 34
0.0
  0
DIMENSION
  5
420
  8
2
  2
*D2
 10
88.892358607893215
 20
81.962205509289134
 30
0.0
 11
83.415028553536715
 21
81.962205509289134
 31
0.0
 70
   128
  1
%%c<>
 13
77.392358607893215
 23
66.131101264571313
 33
0.0
 14
88.892358607893215
 24
66.131101264571313
 34
0.0
1001
ACAD
1000
DSTYLE
1002
{
1070
   271
1070
     6
1002
}
  0
DIMENSION
  5
438
  8
2
  2
*D3
 10
87.042358607893235
 20
76.21967513123829
 30
0.0
 11
93.917358607893235
 21
78.09467513123829
 31
0.0
 70
     0
  1
%%c<>
 13
79.242358607893209
 23
63.07243441573052
 33
0.0
 14
87.042358607893235
 24
63.07243441573052
 34
0.0
1001
ACAD
1000
DSTYLE
1002
{
1070
   271
1070
     6
1002
}
  0
DIMENSION
  5
445
  8
2
  2
*D4
 10
100.7766350355397
 20
61.578101082046608
 30
0.0
 11
98.901635035539684
 21
64.078101082046629
 31
0.0
 70
     0
 13
88.473958607360046
 23
66.578101082046615
 33
0.0
 14
88.892358607893215
 24
61.578101082046608
 34
0.0
 50
90.0
1001
ACAD
1000
DSTYLE
1002
{
1070
   271
1070
     6
1002
}
  0
DIMENSION
  5
45F
  8
2
  2
*D5
 10
106.6375594534848
 20
55.57810108314662
 30
0.0
 11
104.7625594534848
 21
61.078101082596632
 31
0.0
 70
     0
 13
87.042358607893235
 23
66.578101082046615
 33
0.0
 14
90.642358607143223
 24
55.57810108314662
 34
0.0
 50
90.0
  0
DIMENSION
  5
47A
  8
2
  2
*D6
 10
90.642358607143223
 20
42.499578544805047
 30
0.0
 11
83.142358607893215
 21
44.374578544805047
 31
0.0
 70
     0
  1
%%c<>
 13
75.642358608643207
 23
55.57810108314662
 33
0.0
 14
90.642358607143223
 24
55.57810108314662
 34
0.0
1001
ACAD
1000
DSTYLE
1002
{
1070
   271
1070
     6
1002
}
  0
DIMENSION
  5
49A
  8
2
  2
*D7
 10
87.892958607418166
 20
46.943114952763722
 30
0.0
 11
83.14265860765569
 21
48.818114952763722
 31
0.0
 70
     0
  1
%%c<>
 13
78.392358607893215
 23
56.57841940340154
 33
0.0
 14
87.892958607418166
 24
56.575967749713499
 34
0.0
1001
ACAD
1000
DSTYLE
1002
{
1070
   271
1070
     1
1002
}
  0
ENDSEC
  0
EOF
