  0
SECTION
  2
HEADER
  9
$ACADVER
  1
AC1009
  9
$INSBASE
 10
0.0
 20
0.0
 30
0.0
  9
$EXTMIN
 10
67.913250625695753
 20
36.281341092879082
 30
0.0
  9
$EXTMAX
 10
109.1386735423411
 20
100.6745258439756
 30
3.4350000000000001
  9
$LIMMIN
 10
0.0
 20
0.0
  9
$LIMMAX
 10
420.0
 20
297.0
  9
$ORTHOMODE
 70
     0
  9
$REGENMODE
 70
     1
  9
$FILLMODE
 70
     1
  9
$QTEXTMODE
 70
     0
  9
$MIRRTEXT
 70
     1
  9
$DRAGMODE
 70
     2
  9
$LTSCALE
 40
0.3
  9
$OSMODE
 70
    37
  9
$ATTMODE
 70
     1
  9
$TEXTSIZE
 40
2.5
  9
$TRACEWID
 40
1.0
  9
$TEXTSTYLE
  7
STANDARD
  9
$CLAYER
  8
1
  9
$CELTYPE
  6
BYLAYER
  9
$CECOLOR
 62
   256
  9
$DIMSCALE
 40
1.0
  9
$DIMASZ
 40
2.5
  9
$DIMEXO
 40
0.625
  9
$DIMDLI
 40
3.75
  9
$DIMRND
 40
0.0
  9
$DIMDLE
 40
0.0
  9
$DIMEXE
 40
1.25
  9
$DIMTP
 40
0.0
  9
$DIMTM
 40
0.0
  9
$DIMTXT
 40
2.5
  9
$DIMCEN
 40
2.5
  9
$DIMTSZ
 40
0.0
  9
$DIMTOL
 70
     0
  9
$DIMLIM
 70
     0
  9
$DIMTIH
 70
     0
  9
$DIMTOH
 70
     0
  9
$DIMSE1
 70
     0
  9
$DIMSE2
 70
     0
  9
$DIMTAD
 70
     1
  9
$DIMZIN
 70
     8
  9
$DIMBLK
  1

  9
$DIMASO
 70
     1
  9
$DIMSHO
 70
     1
  9
$DIMPOST
  1

  9
$DIMAPOST
  1

  9
$DIMALT
 70
     0
  9
$DIMALTD
 70
     3
  9
$DIMALTF
 40
0.03937007874016
  9
$DIMLFAC
 40
1.0
  9
$DIMTOFL
 70
     1
  9
$DIMTVP
 40
0.0
  9
$DIMTIX
 70
     0
  9
$DIMSOXD
 70
     0
  9
$DIMSAH
 70
     0
  9
$DIMBLK1
  1

  9
$DIMBLK2
  1

  9
$DIMSTYLE
  2
ISO-25
  9
$DIMCLRD
 70
     0
  9
$DIMCLRE
 70
     0
  9
$DIMCLRT
 70
     0
  9
$DIMTFAC
 40
1.0
  9
$DIMGAP
 40
0.625
  9
$LUNITS
 70
     2
  9
$LUPREC
 70
     4
  9
$SKETCHINC
 40
1.0
  9
$FILLETRAD
 40
10.0
  9
$AUNITS
 70
     0
  9
$AUPREC
 70
     0
  9
$MENU
  1
.
  9
$ELEVATION
 40
0.0
  9
$PELEVATION
 40
0.0
  9
$THICKNESS
 40
0.0
  9
$LIMCHECK
 70
     0
  9
$BLIPMODE
 70
     0
  9
$CHAMFERA
 40
10.0
  9
$CHAMFERB
 40
10.0
  9
$SKPOLY
 70
     0
  9
$TDCREATE
 40
2453437.8945776378
  9
$TDUPDATE
 40
2453551.9076935989
  9
$TDINDWG
 40
0.0407579282
  9
$TDUSRTIMER
 40
0.0407578125
  9
$USRTIMER
 70
     1
  9
$ANGBASE
 50
0.0
  9
$ANGDIR
 70
     0
  9
$PDMODE
 70
     0
  9
$PDSIZE
 40
0.0
  9
$PLINEWID
 40
0.0
  9
$COORDS
 70
     1
  9
$SPLFRAME
 70
     0
  9
$SPLINETYPE
 70
     6
  9
$SPLINESEGS
 70
     8
  9
$ATTDIA
 70
     0
  9
$ATTREQ
 70
     1
  9
$HANDLING
 70
-16383
  9
$HANDSEED
  5
5CC
  9
$SURFTAB1
 70
     6
  9
$SURFTAB2
 70
     6
  9
$SURFTYPE
 70
     6
  9
$SURFU
 70
     6
  9
$SURFV
 70
     6
  9
$UCSNAME
  2

  9
$UCSORG
 10
0.0
 20
0.0
 30
0.0
  9
$UCSXDIR
 10
1.0
 20
0.0
 30
0.0
  9
$UCSYDIR
 10
0.0
 20
1.0
 30
0.0
  9
$PUCSNAME
  2

  9
$PUCSORG
 10
0.0
 20
0.0
 30
0.0
  9
$PUCSXDIR
 10
1.0
 20
0.0
 30
0.0
  9
$PUCSYDIR
 10
0.0
 20
1.0
 30
0.0
  9
$USERI1
 70
     0
  9
$USERI2
 70
     0
  9
$USERI3
 70
     0
  9
$USERI4
 70
     0
  9
$USERI5
 70
     0
  9
$USERR1
 40
0.0
  9
$USERR2
 40
0.0
  9
$USERR3
 40
0.0
  9
$USERR4
 40
0.0
  9
$USERR5
 40
0.0
  9
$WORLDVIEW
 70
     1
  9
$SHADEDGE
 70
     3
  9
$SHADEDIF
 70
    70
  9
$TILEMODE
 70
     1
  9
$MAXACTVP
 70
    64
  9
$PLIMCHECK
 70
     0
  9
$PEXTMIN
 10
1.0000000000000000E+020
 20
1.0000000000000000E+020
 30
1.0000000000000000E+020
  9
$PEXTMAX
 10
-1.0000000000000000E+020
 20
-1.0000000000000000E+020
 30
-1.0000000000000000E+020
  9
$PLIMMIN
 10
0.0
 20
0.0
  9
$PLIMMAX
 10
420.0
 20
297.0
  9
$UNITMODE
 70
     0
  9
$VISRETAIN
 70
     1
  9
$PLINEGEN
 70
     0
  9
$PSLTSCALE
 70
     1
  0
ENDSEC
  0
SECTION
  2
TABLES
  0
TABLE
  2
VPORT
 70
     2
  0
VPORT
  2
*ACTIVE
 70
     0
 10
0.0
 20
0.0
 11
1.0
 21
1.0
 12
115.22558932214061
 22
70.74019428058358
 13
0.0
 23
0.0
 14
10.0
 24
10.0
 15
10.0
 25
10.0
 16
0.0
 26
0.0
 36
1.0
 17
0.0
 27
0.0
 37
0.0
 40
81.401770805139449
 41
2.5392405063291141
 42
50.0
 43
0.0
 44
0.0
 50
0.0
 51
0.0
 71
     0
 72
   100
 73
     1
 74
     3
 75
     0
 76
     0
 77
     0
 78
     0
  0
ENDTAB
  0
TABLE
  2
LTYPE
 70
     3
  0
LTYPE
  2
CONTINUOUS
 70
     0
  3
Solid line
 72
    65
 73
     0
 40
0.0
  0
LTYPE
  2
CENTER
 70
     0
  3
Center ____ _ ____ _ ____ _ ____ _ ____ _ ____
 72
    65
 73
     4
 40
50.799999999999997
 49
31.75
 49
-6.3499999999999988
 49
6.3499999999999988
 49
-6.3499999999999988
  0
LTYPE
  2
DASHED2
 70
     0
  3
Dashed (.5x) _ _ _ _ _ _ _ _ _ _ _ _ _ _ _ _ _
 72
    65
 73
     2
 40
9.5249999999999986
 49
6.3499999999999988
 49
-3.1749999999999989
  0
ENDTAB
  0
TABLE
  2
LAYER
 70
     5
  0
LAYER
  2
0
 70
     0
 62
     7
  6
CONTINUOUS
  0
LAYER
  2
1
 70
     0
 62
     7
  6
CENTER
  0
LAYER
  2
2
 70
     0
 62
     7
  6
CONTINUOUS
  0
LAYER
  2
3
 70
     0
 62
     7
  6
DASHED2
  0
LAYER
  2
DEFPOINTS
 70
     0
 62
     7
  6
CONTINUOUS
  0
ENDTAB
  0
TABLE
  2
STYLE
 70
     3
  0
STYLE
  2
STANDARD
 70
     0
 40
0.0
 41
1.0
 50
0.0
 71
     0
 42
2.5
  3
txt
  4

  0
STYLE
  2
\U+00C9L\U+00C9R_\U+00C2S\U+00C2V\U+00C2B\U+00C2N
 70
     0
 40
1.0
 41
1.0
 50
0.0
 71
     0
 42
1.0
  3
\U+00E9l\U+00E9r \U+00E2S\U+00E2V\U+00E2b\U+00E2N
  4

  0
STYLE
  2

 70
     1
 40
0.0
 41
1.0
 50
0.0
 71
     0
 42
2.5
  3
ltypeshp.shx
  4

  0
ENDTAB
  0
TABLE
  2
VIEW
 70
     0
  0
ENDTAB
  0
TABLE
  2
UCS
 70
     0
  0
ENDTAB
  0
TABLE
  2
APPID
 70
     1
  0
APPID
  2
ACAD
 70
     0
  0
ENDTAB
  0
TABLE
  2
DIMSTYLE
 70
     2
  0
DIMSTYLE
  2
ISO-25
 70
     0
  3

  4

  5

  6

  7

 40
1.0
 41
2.5
 42
0.625
 43
3.75
 44
1.25
 45
0.0
 46
0.0
 47
0.0
 48
0.0
140
2.5
141
2.5
142
0.0
143
0.03937007874016
144
1.0
145
0.0
146
1.0
147
0.625
 71
     0
 72
     0
 73
     0
 74
     0
 75
     0
 76
     0
 77
     1
 78
     8
170
     0
171
     3
172
     1
173
     0
174
     0
175
     0
176
     0
177
     0
178
     0
  0
DIMSTYLE
  2
STANDARD
 70
     0
  3

  4

  5

  6

  7

 40
1.0
 41
0.18
 42
0.0625
 43
0.38
 44
0.18
 45
0.0
 46
0.0
 47
0.0
 48
0.0
140
0.18
141
0.09
142
0.0
143
25.399999999999999
144
1.0
145
0.0
146
1.0
147
0.09
 71
     0
 72
     0
 73
     1
 74
     1
 75
     0
 76
     0
 77
     0
 78
     0
170
     0
171
     2
172
     0
173
     0
174
     0
175
     0
176
     0
177
     0
178
     0
  0
ENDTAB
  0
ENDSEC
  0
SECTION
  2
BLOCKS
  0
BLOCK
  8
0
  2
$MODEL_SPACE
 70
     0
 10
0.0
 20
0.0
 30
0.0
  3
$MODEL_SPACE
  1

  0
ENDBLK
  5
21
  8
0
  0
BLOCK
 67
     1
  8
0
  2
$PAPER_SPACE
 70
     0
 10
0.0
 20
0.0
 30
0.0
  3
$PAPER_SPACE
  1

  0
ENDBLK
  5
1D
 67
     1
  8
0
  0
BLOCK
  8
0
  2
*D1
 70
     1
 10
0.0
 20
0.0
 30
0.0
  3
*D1
  1

  0
LINE
  5
4B5
  8
2
 62
     0
 10
87.422746627633117
 20
89.711439542784987
 30
0.0
 11
103.09924512188169
 21
89.711439542784973
 31
0.0
  0
LINE
  5
4B6
  8
2
 62
     0
 10
88.922746627633131
 20
84.711439542784987
 30
0.0
 11
103.09924512188169
 21
84.711439542784973
 31
0.0
  0
LINE
  5
4B7
  8
2
 62
     0
 10
101.84924512188169
 20
92.211439542784973
 30
0.0
 11
101.84924512188169
 21
94.711439542784973
 31
0.0
  0
LINE
  5
4B8
  8
2
 62
     0
 10
101.84924512188169
 20
82.211439542784973
 30
0.0
 11
101.84924512188169
 21
79.711439542784973
 31
0.0
  0
LINE
  5
4B9
  8
2
 62
     0
 10
101.84924512188169
 20
89.711439542784973
 30
0.0
 11
101.84924512188169
 21
84.711439542784973
 31
0.0
  0
SOLID
  5
4BA
  8
2
 62
     0
 10
101.43257845521509
 20
92.211439542784973
 30
0.0
 11
102.26591178854839
 21
92.211439542784973
 31
0.0
 12
101.84924512188169
 22
89.711439542784973
 32
0.0
 13
101.84924512188169
 23
89.711439542784973
 33
0.0
  0
SOLID
  5
4BB
  8
2
 62
     0
 10
101.43257845521509
 20
82.211439542784973
 30
0.0
 11
102.26591178854839
 21
82.211439542784973
 31
0.0
 12
101.84924512188169
 22
84.711439542784973
 32
0.0
 13
101.84924512188169
 23
84.711439542784973
 33
0.0
  0
TEXT
  5
4BC
  8
1
 62
     0
 10
101.22424512188169
 20
86.378106209451673
 30
0.0
 40
2.5
  1
5
 50
90.0
  0
POINT
  5
4BD
  8
DEFPOINTS
 62
     0
 10
86.797746627633117
 20
89.711439542784987
 30
0.0
  0
POINT
  5
4BE
  8
DEFPOINTS
 62
     0
 10
88.297746627633131
 20
84.711439542784987
 30
0.0
  0
POINT
  5
4BF
  8
DEFPOINTS
 62
     0
 10
101.84924512188169
 20
84.711439542784973
 30
0.0
  0
ENDBLK
  5
4B4
  8
0
  0
BLOCK
  8
0
  2
*D2
 70
     1
 10
0.0
 20
0.0
 30
0.0
  3
*D2
  1

  0
LINE
  5
4D2
  8
2
 62
     0
 10
93.868870363316674
 20
74.211439542784973
 30
0.0
 11
103.09924512188169
 21
74.211439542784973
 31
0.0
  0
LINE
  5
4D3
  8
2
 62
     0
 10
94.422746627633131
 20
81.211439542784987
 30
0.0
 11
103.09924512188169
 21
81.211439542784973
 31
0.0
  0
LINE
  5
4D4
  8
2
 62
     0
 10
101.84924512188169
 20
76.711439542784973
 30
0.0
 11
101.84924512188169
 21
78.711439542784973
 31
0.0
  0
SOLID
  5
4D5
  8
2
 62
     0
 10
101.43257845521509
 20
76.711439542784973
 30
0.0
 11
102.26591178854839
 21
76.711439542784973
 31
0.0
 12
101.84924512188169
 22
74.211439542784973
 32
0.0
 13
101.84924512188169
 23
74.211439542784973
 33
0.0
  0
SOLID
  5
4D6
  8
2
 62
     0
 10
101.43257845521509
 20
78.711439542784973
 30
0.0
 11
102.26591178854839
 21
78.711439542784973
 31
0.0
 12
101.84924512188169
 22
81.211439542784973
 32
0.0
 13
101.84924512188169
 23
81.211439542784973
 33
0.0
  0
TEXT
  5
4D7
  8
1
 62
     0
 10
101.22424512188169
 20
76.878106209451673
 30
0.0
 40
2.5
  1
7
 50
90.0
  0
POINT
  5
4D8
  8
DEFPOINTS
 62
     0
 10
93.243870363316674
 20
74.211439542784973
 30
0.0
  0
POINT
  5
4D9
  8
DEFPOINTS
 62
     0
 10
93.797746627633131
 20
81.211439542784987
 30
0.0
  0
POINT
  5
4DA
  8
DEFPOINTS
 62
     0
 10
101.84924512188169
 20
81.211439542784973
 30
0.0
  0
ENDBLK
  5
4D1
  8
0
  0
BLOCK
  8
0
  2
*D3
 70
     1
 10
0.0
 20
0.0
 30
0.0
  3
*D3
  1

  0
LINE
  5
4E9
  8
2
 62
     0
 10
102.47424512188169
 20
89.711439542784973
 30
0.0
 11
108.08908283167101
 21
89.711439542784973
 31
0.0
  0
LINE
  5
4EA
  8
2
 62
     0
 10
102.47424512188169
 20
74.211439542784973
 30
0.0
 11
108.08908283167101
 21
74.211439542784973
 31
0.0
  0
LINE
  5
4EB
  8
2
 62
     0
 10
106.83908283167101
 20
87.211439542784973
 30
0.0
 11
106.83908283167101
 21
76.711439542784973
 31
0.0
  0
SOLID
  5
4EC
  8
2
 62
     0
 10
106.42241616500441
 20
87.211439542784973
 30
0.0
 11
107.25574949833771
 21
87.211439542784973
 31
0.0
 12
106.83908283167101
 22
89.711439542784973
 32
0.0
 13
106.83908283167101
 23
89.711439542784973
 33
0.0
  0
SOLID
  5
4ED
  8
2
 62
     0
 10
106.42241616500441
 20
76.711439542784973
 30
0.0
 11
107.25574949833771
 21
76.711439542784973
 31
0.0
 12
106.83908283167101
 22
74.211439542784973
 32
0.0
 13
106.83908283167101
 23
74.211439542784973
 33
0.0
  0
TEXT
  5
4EE
  8
1
 62
     0
 10
106.21408283167101
 20
78.628106209451673
 30
0.0
 40
2.5
  1
15.5
 50
90.0
  0
POINT
  5
4EF
  8
DEFPOINTS
 62
     0
 10
101.84924512188169
 20
89.711439542784973
 30
0.0
  0
POINT
  5
4F0
  8
DEFPOINTS
 62
     0
 10
101.84924512188169
 20
74.211439542784973
 30
0.0
  0
POINT
  5
4F1
  8
DEFPOINTS
 62
     0
 10
106.83908283167101
 20
74.211439542784973
 30
0.0
  0
ENDBLK
  5
4E8
  8
0
  0
BLOCK
  8
0
  2
*D4
 70
     1
 10
0.0
 20
0.0
 30
0.0
  3
*D4
  1

  0
LINE
  5
560
  8
2
 62
     0
 10
79.297746627633131
 20
85.336439542784987
 30
0.0
 11
79.297746627633131
 21
98.799525843975601
 31
0.0
  0
LINE
  5
561
  8
2
 62
     0
 10
88.297746627633131
 20
85.336439542784987
 30
0.0
 11
88.297746627633131
 21
98.799525843975601
 31
0.0
  0
LINE
  5
562
  8
2
 62
     0
 10
81.797746627633117
 20
97.549525843975601
 30
0.0
 11
85.797746627633131
 21
97.549525843975601
 31
0.0
  0
SOLID
  5
563
  8
2
 62
     0
 10
81.797746627633117
 20
97.966192510642287
 30
0.0
 11
81.797746627633117
 21
97.13285917730893
 31
0.0
 12
79.297746627633131
 22
97.549525843975601
 32
0.0
 13
79.297746627633131
 23
97.549525843975601
 33
0.0
  0
SOLID
  5
564
  8
2
 62
     0
 10
85.797746627633131
 20
97.966192510642287
 30
0.0
 11
85.797746627633131
 21
97.13285917730893
 31
0.0
 12
88.297746627633131
 22
97.549525843975601
 32
0.0
 13
88.297746627633131
 23
97.549525843975601
 33
0.0
  0
INSERT
  5
565
  8
1
  2
*U9
 10
0.0
 20
0.0
 30
0.0
  0
POINT
  5
566
  8
DEFPOINTS
 62
     0
 10
79.297746627633131
 20
84.711439542784987
 30
0.0
  0
POINT
  5
567
  8
DEFPOINTS
 62
     0
 10
88.297746627633131
 20
84.711439542784987
 30
0.0
  0
POINT
  5
568
  8
DEFPOINTS
 62
     0
 10
88.297746627633131
 20
97.549525843975601
 30
0.0
  0
ENDBLK
  5
519
  8
0
  0
BLOCK
  8
0
  2
*D5
 70
     1
 10
0.0
 20
0.0
 30
0.0
  3
*D5
  1

  0
LINE
  5
531
  8
2
 62
     0
 10
73.797746627633131
 20
48.672946409876801
 30
0.0
 11
73.797746627633131
 21
61.048670427907638
 31
0.0
  0
LINE
  5
532
  8
2
 62
     0
 10
93.797746627633131
 20
48.672946409876801
 30
0.0
 11
93.797746627633131
 21
61.048670427907638
 31
0.0
  0
LINE
  5
533
  8
2
 62
     0
 10
76.297746627633131
 20
59.798670427907638
 30
0.0
 11
91.297746627633131
 21
59.798670427907638
 31
0.0
  0
SOLID
  5
534
  8
2
 62
     0
 10
76.297746627633131
 20
60.215337094574302
 30
0.0
 11
76.297746627633131
 21
59.382003761240973
 31
0.0
 12
73.797746627633131
 22
59.798670427907638
 32
0.0
 13
73.797746627633131
 23
59.798670427907638
 33
0.0
  0
SOLID
  5
535
  8
2
 62
     0
 10
91.297746627633131
 20
60.215337094574302
 30
0.0
 11
91.297746627633131
 21
59.382003761240973
 31
0.0
 12
93.797746627633131
 22
59.798670427907638
 32
0.0
 13
93.797746627633131
 23
59.798670427907638
 33
0.0
  0
TEXT
  5
536
  8
1
 62
     0
 10
81.922746627633131
 20
60.423670427907638
 30
0.0
 40
2.5
  1
20
  0
POINT
  5
537
  8
DEFPOINTS
 62
     0
 10
73.797746627633131
 20
48.047946409876801
 30
0.0
  0
POINT
  5
538
  8
DEFPOINTS
 62
     0
 10
93.797746627633131
 20
48.047946409876801
 30
0.0
  0
POINT
  5
539
  8
DEFPOINTS
 62
     0
 10
93.797746627633131
 20
59.798670427907638
 30
0.0
  0
ENDBLK
  5
530
  8
0
  0
BLOCK
  8
0
  2
*D7
 70
     1
 10
0.0
 20
0.0
 30
0.0
  3
*D7
  1

  0
LINE
  5
54B
  8
2
 62
     0
 10
90.922746627633146
 20
51.547946409876801
 30
0.0
 11
109.1386735423411
 21
51.547946409876801
 31
0.0
  0
LINE
  5
54C
  8
2
 62
     0
 10
90.922746627633146
 20
44.547946409876801
 30
0.0
 11
109.1386735423411
 21
44.547946409876801
 31
0.0
  0
LINE
  5
54D
  8
2
 62
     0
 10
107.8886735423411
 20
49.047946409876801
 30
0.0
 11
107.8886735423411
 21
47.047946409876801
 31
0.0
  0
SOLID
  5
54E
  8
2
 62
     0
 10
107.4720068756745
 20
49.047946409876801
 30
0.0
 11
108.3053402090078
 21
49.047946409876801
 31
0.0
 12
107.8886735423411
 22
51.547946409876801
 32
0.0
 13
107.8886735423411
 23
51.547946409876801
 33
0.0
  0
SOLID
  5
54F
  8
2
 62
     0
 10
107.4720068756745
 20
47.047946409876801
 30
0.0
 11
108.3053402090078
 21
47.047946409876801
 31
0.0
 12
107.8886735423411
 22
44.547946409876801
 32
0.0
 13
107.8886735423411
 23
44.547946409876801
 33
0.0
  0
TEXT
  5
550
  8
1
 62
     0
 10
107.2636735423411
 20
47.214613076543472
 30
0.0
 40
2.5
  1
7
 50
90.0
  0
POINT
  5
551
  8
DEFPOINTS
 62
     0
 10
90.297746627633146
 20
51.547946409876801
 30
0.0
  0
POINT
  5
552
  8
DEFPOINTS
 62
     0
 10
90.297746627633146
 20
44.547946409876801
 30
0.0
  0
POINT
  5
553
  8
DEFPOINTS
 62
     0
 10
107.8886735423411
 20
44.547946409876801
 30
0.0
  0
ENDBLK
  5
555
  8
0
  0
BLOCK
  8
0
  2
*D8
 70
     1
 10
0.0
 20
0.0
 30
0.0
  3
*D8
  1

  0
LINE
  5
5A8
  8
2
 62
     0
 10
91.422746627633131
 20
51.047946409876801
 30
0.0
 11
104.7461745085954
 21
51.047946409876801
 31
0.0
  0
LINE
  5
5A9
  8
2
 62
     0
 10
91.422746627633131
 20
45.047946409876801
 30
0.0
 11
104.7461745085954
 21
45.047946409876801
 31
0.0
  0
LINE
  5
5AA
  8
2
 62
     0
 10
103.4961745085954
 20
53.547946409876801
 30
0.0
 11
103.4961745085954
 21
56.047946409876801
 31
0.0
  0
LINE
  5
5AB
  8
2
 62
     0
 10
103.4961745085954
 20
42.547946409876801
 30
0.0
 11
103.4961745085954
 21
40.047946409876801
 31
0.0
  0
LINE
  5
5AC
  8
2
 62
     0
 10
103.4961745085954
 20
51.047946409876801
 30
0.0
 11
103.4961745085954
 21
45.047946409876801
 31
0.0
  0
SOLID
  5
5AD
  8
2
 62
     0
 10
103.0795078419287
 20
53.547946409876801
 30
0.0
 11
103.912841175262
 21
53.547946409876801
 31
0.0
 12
103.4961745085954
 22
51.047946409876801
 32
0.0
 13
103.4961745085954
 23
51.047946409876801
 33
0.0
  0
SOLID
  5
5AE
  8
2
 62
     0
 10
103.0795078419287
 20
42.547946409876801
 30
0.0
 11
103.912841175262
 21
42.547946409876801
 31
0.0
 12
103.4961745085954
 22
45.047946409876801
 32
0.0
 13
103.4961745085954
 23
45.047946409876801
 33
0.0
  0
TEXT
  5
5AF
  8
1
 62
     0
 10
102.8711745085953
 20
47.214613076543472
 30
0.0
 40
2.5
  1
6
 50
90.0
  0
POINT
  5
5B0
  8
DEFPOINTS
 62
     0
 10
90.797746627633131
 20
51.047946409876801
 30
0.0
  0
POINT
  5
5B1
  8
DEFPOINTS
 62
     0
 10
90.797746627633131
 20
45.047946409876801
 30
0.0
  0
POINT
  5
5B2
  8
DEFPOINTS
 62
     0
 10
103.4961745085954
 20
45.047946409876801
 30
0.0
  0
ENDBLK
  5
5A7
  8
0
  0
BLOCK
  8
0
  2
*U9
 70
     1
 10
0.0
 20
0.0
 30
0.0
  3
*U9
  1

  0
TEXT
  5
5C3
  8
1
 62
     0
 10
81.714413294299789
 20
98.174525843975601
 30
0.0
 40
2.5
  1
\U+2205
  0
TEXT
  5
5C4
  8
1
 62
     0
 10
84.214413294299789
 20
98.174525843975601
 30
0.0
 40
2.5
  1
9
  0
ENDBLK
  5
5C6
  8
0
  0
ENDSEC
  0
SECTION
  2
ENTITIES
  0
TEXT
  5
391
  8
2
 10
68.027480817551663
 20
36.523240521450532
 30
0.0
 40
2.5399440000000002
  1
No. 130.20x6.074._
 51
-0.0000015352344868
  7
\U+00C9L\U+00C9R_\U+00C2S\U+00C2V\U+00C2B\U+00C2N
  0
LINE
  5
3AB
  8
0
 39
3.4350000000000001
 10
82.576260627633118
 20
82.066091342784986
 30
0.0
 11
83.802555627633154
 21
82.066091342784986
 31
0.0
  0
LINE
  5
3AE
  8
0
 39
3.4350000000000001
 10
82.576260627633118
 20
89.711439542784987
 30
0.0
 11
82.576260627633118
 21
82.066091342784986
 31
0.0
  0
LINE
  5
3AF
  8
0
 39
3.4350000000000001
 10
82.576260627633118
 20
82.066091342784986
 30
0.0
 11
82.576260627633118
 21
82.066091342784986
 31
0.0
  0
LINE
  5
3B3
  8
0
 39
3.4350000000000001
 10
82.803108027633129
 20
82.066091342784986
 30
0.0
 11
82.803108027633129
 21
76.955086142784978
 31
0.0
  0
LINE
  5
3BC
  8
0
 39
3.4350000000000001
 10
80.797746627633146
 20
81.887471342784977
 30
0.0
 11
77.404868127633137
 21
81.887471342784977
 31
0.0
  0
LINE
  5
3BD
  8
0
 39
3.4350000000000001
 10
77.404868127633137
 20
81.887471342784977
 30
0.0
 11
77.404868127633137
 21
81.211439542784987
 31
0.0
  0
LINE
  5
3BF
  8
0
 39
3.4350000000000001
 10
73.797746627633131
 20
81.211439542784987
 30
0.0
 11
73.797746627633131
 21
77.341935842784991
 31
0.0
  0
LINE
  5
3C0
  8
0
 39
3.4350000000000001
 10
73.797746627633131
 20
77.341935842784991
 30
0.0
 11
75.180677627633131
 21
77.341935842784991
 31
0.0
  0
LINE
  5
3C1
  8
0
 39
3.4350000000000001
 10
75.180677627633131
 20
77.341935842784991
 30
0.0
 11
75.180677627633131
 21
75.96127194278499
 31
0.0
  0
LINE
  5
3C2
  8
0
 39
3.4350000000000001
 10
75.180677627633131
 20
75.96127194278499
 30
0.0
 11
73.797746627633131
 21
74.723984942784995
 31
0.0
  0
LINE
  5
3C3
  8
0
 39
3.4350000000000001
 10
73.797746627633131
 20
74.723984942784995
 30
0.0
 11
74.351622891949589
 21
74.211439542784973
 31
0.0
  0
LINE
  5
3CA
  8
0
 39
3.4350000000000001
 10
80.797746627633131
 20
80.839727642784993
 30
0.0
 11
80.288207127633143
 21
80.839727642784993
 31
0.0
  0
LINE
  5
3CB
  8
0
 39
3.4350000000000001
 10
80.288207127633143
 20
80.839727642784993
 30
0.0
 11
80.288207127633143
 21
79.182821042784994
 31
0.0
  0
LINE
  5
3CD
  8
0
 39
3.4350000000000001
 10
79.17925172763313
 20
79.182821042784994
 30
0.0
 11
79.17925172763313
 21
78.334788242784981
 31
0.0
  0
LINE
  5
3D8
  8
1
 10
83.797746627633131
 20
52.847946409876798
 30
0.0
 11
83.797746627633131
 21
43.247946409876803
 31
0.0
  0
LINE
  5
3DB
  8
0
 10
80.797746627633131
 20
89.711439542784987
 30
0.0
 11
83.797746627633131
 21
89.711439542784987
 31
0.0
  0
LINE
  5
3F8
  8
0
 10
76.297746627633131
 20
76.955086142784992
 30
0.0
 11
83.797746627633131
 21
76.955086142784992
 31
0.0
  0
LINE
  5
3FC
  8
0
 10
74.351622891949589
 20
74.211439542784973
 30
0.0
 11
83.797746627633131
 21
74.211439542784973
 31
0.0
  0
LINE
  5
400
  8
0
 10
81.097746627633143
 20
84.711439542784987
 30
0.0
 11
79.297746627633131
 21
84.711439542784987
 31
0.0
  0
LINE
  5
402
  8
0
 10
80.797746627633131
 20
89.711439542784987
 30
0.0
 11
80.797746627633146
 21
80.839727642785007
 31
0.0
  0
LINE
  5
40F
  8
0
 10
83.797746627633131
 20
78.334788242784981
 30
0.0
 11
79.17925172763313
 21
78.334788242784981
 31
0.0
  0
LINE
  5
413
  8
0
 10
79.17925172763313
 20
79.182821042784994
 30
0.0
 11
80.288207127633143
 21
79.182821042784994
 31
0.0
  0
LINE
  5
418
  8
0
 10
83.797746627633131
 20
75.723501242784991
 30
0.0
 11
76.297746627633131
 21
75.723501242784977
 31
0.0
  0
LINE
  5
420
  8
0
 39
3.4350000000000001
 10
93.797746627633131
 20
74.723984942784995
 30
0.0
 11
93.243870363316674
 21
74.211439542784973
 31
0.0
  0
LINE
  5
421
  8
0
 39
3.4350000000000001
 10
92.414815627633132
 20
75.96127194278499
 30
0.0
 11
93.797746627633131
 21
74.723984942784995
 31
0.0
  0
LINE
  5
422
  8
0
 39
3.4350000000000001
 10
92.414815627633132
 20
77.341935842784991
 30
0.0
 11
92.414815627633132
 21
75.96127194278499
 31
0.0
  0
LINE
  5
423
  8
0
 39
3.4350000000000001
 10
93.797746627633131
 20
77.341935842784991
 30
0.0
 11
83.797746627633131
 21
77.341935842784963
 31
0.0
  0
LINE
  5
424
  8
0
 39
3.4350000000000001
 10
93.797746627633131
 20
81.211439542784987
 30
0.0
 11
93.797746627633131
 21
77.341935842784991
 31
0.0
  0
LINE
  5
426
  8
0
 39
3.4350000000000001
 10
90.190625127633126
 20
81.887471342784977
 30
0.0
 11
90.190625127633126
 21
81.211439542784987
 31
0.0
  0
LINE
  5
427
  8
0
 39
3.4350000000000001
 10
83.797746627633131
 20
81.887471342784934
 30
0.0
 11
90.190625127633126
 21
81.887471342784977
 31
0.0
  0
LINE
  5
42E
  8
3
 10
83.797746627633131
 20
75.723501242784991
 30
0.0
 11
91.297746627633131
 21
75.723501242784991
 31
0.0
  0
LINE
  5
42F
  8
0
 10
93.243870363316674
 20
74.211439542784973
 30
0.0
 11
83.797746627633131
 21
74.211439542784973
 31
0.0
  0
LINE
  5
430
  8
3
 10
91.297746627633131
 20
76.955086142784992
 30
0.0
 11
83.797746627633131
 21
76.955086142784992
 31
0.0
  0
LINE
  5
433
  8
0
 10
86.797746627633117
 20
89.711439542784987
 30
0.0
 11
86.797746627633146
 21
84.711439542785016
 31
0.0
  0
LINE
  5
435
  8
0
 10
86.797746627633117
 20
89.711439542784987
 30
0.0
 11
83.797746627633131
 21
89.711439542784987
 31
0.0
  0
LINE
  5
436
  8
0
 10
83.797746627633131
 20
84.711439542784987
 30
0.0
 11
88.297746627633131
 21
84.711439542784987
 31
0.0
  0
LINE
  5
440
  8
3
 10
83.797746627633131
 20
82.066091342784986
 30
0.0
 11
85.01774662763313
 21
82.066091342784986
 31
0.0
  0
LINE
  5
443
  8
3
 10
84.797746627633131
 20
82.066091342784986
 30
0.0
 11
84.797746627633131
 21
76.955086142784992
 31
0.0
  0
LINE
  5
444
  8
3
 10
85.01774662763313
 20
82.066091342784986
 30
0.0
 11
85.01774662763313
 21
89.711439542784987
 31
0.0
  0
LINE
  5
448
  8
0
 10
92.414815627633132
 20
75.96127194278499
 30
0.0
 11
83.797746627633131
 21
75.96127194278499
 31
0.0
  0
LINE
  5
44F
  8
1
 10
94.097746627633128
 20
48.047946409876801
 30
0.0
 11
73.497746627633134
 21
48.047946409876801
 31
0.0
  0
LINE
  5
454
  8
3
 10
91.297746627633131
 20
76.955086142784992
 30
0.0
 11
91.297746627633131
 21
75.723501242784991
 31
0.0
  0
LINE
  5
46B
  8
0
 10
76.297746627633131
 20
76.955086142784992
 30
0.0
 11
76.297746627633131
 21
75.723501242784991
 31
0.0
  0
LINE
  5
46C
  8
0
 10
76.297746627633131
 20
76.955086142784992
 30
0.0
 11
76.297746627633131
 21
75.723501242784991
 31
0.0
  0
LINE
  5
46F
  8
0
 10
76.297746627633131
 20
75.723501242784991
 30
0.0
 11
76.297746627633131
 21
76.955086142784992
 31
0.0
  0
LINE
  5
470
  8
0
 10
76.297746627633131
 20
75.723501242784991
 30
0.0
 11
74.351622891949589
 21
74.211439542784973
 31
0.0
  0
LINE
  5
471
  8
3
 10
91.297746627633131
 20
75.723501242784991
 30
0.0
 11
93.243870363316674
 21
74.211439542784973
 31
0.0
  0
ARC
  5
477
  8
0
 10
77.297746627633131
 20
48.047946409876801
 30
0.0
 40
1.0
 50
90.0
 51
270.0
  0
CIRCLE
  5
478
  8
0
 10
83.797746627633131
 20
48.047946409876801
 30
0.0
 40
1.0
  0
ARC
  5
479
  8
0
 10
90.297746627633146
 20
48.047946409876801
 30
0.0
 40
1.0
 50
270.0
 51
90.0
  0
LINE
  5
47D
  8
0
 10
77.297746627633131
 20
49.047946409876801
 30
0.0
 11
90.297746627633146
 21
49.047946409876801
 31
0.0
  0
LINE
  5
47E
  8
0
 10
77.297746627633131
 20
47.047946409876801
 30
0.0
 11
90.297746627633146
 21
47.047946409876801
 31
0.0
  0
ARC
  5
485
  8
0
 10
83.797746627633131
 20
48.047946409876801
 30
0.0
 40
4.5
 50
51.057558731018673
 51
128.9424412689813
  0
ARC
  5
487
  8
0
 10
83.797746627633131
 20
48.047946409876801
 30
0.0
 40
4.5
 50
231.05755873101859
 51
308.94244126898133
  0
LINE
  5
489
  8
0
 10
79.297746627633131
 20
84.711439542784987
 30
0.0
 11
79.297746627633131
 21
81.887471342784977
 31
0.0
  0
LINE
  5
48A
  8
0
 10
88.297746627633131
 20
84.711439542784987
 30
0.0
 11
88.297746627633131
 21
81.887471342784977
 31
0.0
  0
LINE
  5
499
  8
1
 10
83.797746627633131
 20
90.011439542784984
 30
0.0
 11
83.797746627633131
 21
73.91143954278499
 31
0.0
  0
LINE
  5
49E
  8
2
 10
81.097746627633143
 20
84.711439542784987
 30
0.0
 11
81.097746627633114
 21
89.711439542784987
 31
0.0
  0
LINE
  5
49F
  8
2
 10
86.497746627633134
 20
89.711439542784987
 30
0.0
 11
86.497746627633148
 21
84.711439542784987
 31
0.0
  0
DIMENSION
  5
4A6
  8
2
  2
*D1
 10
101.84924512188169
 20
84.711439542784973
 30
0.0
 11
99.974245121881765
 21
87.211439542785016
 31
0.0
 70
     0
 13
86.797746627633117
 23
89.711439542784987
 33
0.0
 14
88.297746627633131
 24
84.711439542784987
 34
0.0
 50
90.0
  0
LINE
  5
4C0
  8
0
 10
73.797746627633131
 20
81.211439542784987
 30
0.0
 11
77.404868127633137
 21
81.211439542784987
 31
0.0
  0
LINE
  5
4C3
  8
0
 10
83.797746627633131
 20
81.211439542784987
 30
0.0
 11
93.797746627633131
 21
81.211439542784987
 31
0.0
  0
DIMENSION
  5
4C5
  8
2
  2
*D2
 10
101.84924512188169
 20
81.211439542784973
 30
0.0
 11
99.974245121881765
 21
77.711439542785001
 31
0.0
 70
     0
 13
93.243870363316674
 23
74.211439542784973
 33
0.0
 14
93.797746627633131
 24
81.211439542784987
 34
0.0
 50
90.0
  0
DIMENSION
  5
4DC
  8
2
  2
*D3
 10
106.83908283167101
 20
74.211439542784973
 30
0.0
 11
104.96408283167101
 21
81.961439542785001
 31
0.0
 70
     0
 13
101.84924512188169
 23
89.711439542784973
 33
0.0
 14
101.84924512188169
 24
74.211439542784973
 34
0.0
 50
90.0
  0
LINE
  5
500
  8
0
 10
90.297746627633146
 20
51.547946409876801
 30
0.0
 11
77.297746627633131
 21
51.547946409876801
 31
0.0
  0
LINE
  5
501
  8
0
 10
90.297746627633146
 20
44.547946409876801
 30
0.0
 11
77.297746627633131
 21
44.547946409876801
 31
0.0
  0
ARC
  5
507
  8
0
 10
90.297746627633146
 20
48.047946409876801
 30
0.0
 40
3.5
 50
270.0
 51
90.0
  0
ARC
  5
508
  8
0
 10
77.297746627633131
 20
48.047946409876801
 30
0.0
 40
3.5
 50
90.0
 51
270.0
  0
DIMENSION
  5
50D
  8
2
  2
*D4
 10
88.297746627633131
 20
97.549525843975601
 30
0.0
 11
83.797746627633131
 21
99.424525843975601
 31
0.0
 70
     0
  1
%%c<>
 13
79.297746627633131
 23
84.711439542784987
 33
0.0
 14
88.297746627633131
 24
84.711439542784987
 34
0.0
  0
DIMENSION
  5
524
  8
2
  2
*D5
 10
93.797746627633131
 20
59.798670427907638
 30
0.0
 11
83.797746627633131
 21
61.673670427907638
 31
0.0
 70
     0
 13
73.797746627633131
 23
48.047946409876801
 33
0.0
 14
93.797746627633131
 24
48.047946409876801
 34
0.0
  0
DIMENSION
  5
549
  8
2
  2
*D7
 10
107.8886735423411
 20
44.547946409876801
 30
0.0
 11
106.0136735423411
 21
48.047946409876808
 31
0.0
 70
     0
 13
90.297746627633146
 23
51.547946409876801
 33
0.0
 14
90.297746627633146
 24
44.547946409876801
 34
0.0
 50
90.0
  0
TEXT
  5
56F
  8
1
 10
68.13550329269026
 20
90.415420092914744
 30
0.0
 40
2.5
  1
M6
  0
POLYLINE
  8
2
  5
5C7
  66
     1
 10
0.000000
 20
0.000000
 30
0.000000
  70
     8
  0
VERTEX
  8
2
  5
5C8
 10
81.0977
 20
87.2114
 30
0.000000
  70
    32
  0
VERTEX
  8
2
  5
5C9
 10
72.8823
 20
89.9092
 30
0.000000
  70
    32
  0
VERTEX
  8
2
  5
5CA
 10
67.9133
 20
89.9092
 30
0.000000
  70
    32
  0
SEQEND
  8
2
  5
5CB
  0
ARC
  5
580
  8
0
 10
90.797746627633131
 20
48.047946409876801
 30
0.0
 40
3.0
 50
270.0
 51
90.0
  0
ARC
  5
581
  8
0
 10
76.797746627633131
 20
48.047946409876801
 30
0.0
 40
3.0
 50
90.0
 51
270.0
  0
LINE
  5
583
  8
0
 10
90.797746627633131
 20
51.047946409876801
 30
0.0
 11
76.797746627633131
 21
51.047946409876801
 31
0.0
  0
LINE
  5
588
  8
0
 10
76.797746627633131
 20
45.047946409876801
 30
0.0
 11
90.797746627633131
 21
45.047946409876801
 31
0.0
  0
LINE
  5
591
  8
0
 10
76.797746627633131
 20
50.49794640987681
 30
0.0
 11
90.797746627633131
 21
50.49794640987681
 31
0.0
  0
LINE
  5
592
  8
0
 10
76.797746627633131
 20
45.597946409876791
 30
0.0
 11
90.797746627633131
 21
45.597946409876791
 31
0.0
  0
ARC
  5
593
  8
0
 10
76.797746627633131
 20
48.047946409876801
 30
0.0
 40
2.4500000000000002
 50
90.0
 51
270.0
  0
ARC
  5
594
  8
0
 10
90.797746627633131
 20
48.047946409876801
 30
0.0
 40
2.4500000000000002
 50
270.0
 51
90.0
  0
DIMENSION
  5
599
  8
2
  2
*D8
 10
103.4961745085954
 20
45.047946409876801
 30
0.0
 11
101.6211745085953
 21
48.047946409876808
 31
0.0
 70
     0
 13
90.797746627633131
 23
51.047946409876801
 33
0.0
 14
90.797746627633131
 24
45.047946409876801
 34
0.0
 50
90.0
  0
ENDSEC
  0
EOF
