  0
SECTION
  2
HEADER
  9
$ACADVER
  1
AC1009
  9
$INSBASE
 10
0.0
 20
0.0
 30
0.0
  9
$EXTMIN
 10
90.656156194004083
 20
55.058774327308072
 30
0.0
  9
$EXTMAX
 10
108.1333899455594
 20
83.867940354453879
 30
2.0
  9
$LIMMIN
 10
0.0
 20
0.0
  9
$LIMMAX
 10
420.0
 20
297.0
  9
$ORTHOMODE
 70
     0
  9
$REGENMODE
 70
     1
  9
$FILLMODE
 70
     1
  9
$QTEXTMODE
 70
     0
  9
$MIRRTEXT
 70
     1
  9
$DRAGMODE
 70
     2
  9
$LTSCALE
 40
0.3
  9
$OSMODE
 70
    37
  9
$ATTMODE
 70
     1
  9
$TEXTSIZE
 40
2.5
  9
$TRACEWID
 40
1.0
  9
$TEXTSTYLE
  7
STANDARD
  9
$CLAYER
  8
2
  9
$CELTYPE
  6
BYLAYER
  9
$CECOLOR
 62
   256
  9
$DIMSCALE
 40
0.5
  9
$DIMASZ
 40
2.5
  9
$DIMEXO
 40
0.625
  9
$DIMDLI
 40
3.75
  9
$DIMRND
 40
0.0
  9
$DIMDLE
 40
0.0
  9
$DIMEXE
 40
1.25
  9
$DIMTP
 40
0.0
  9
$DIMTM
 40
0.0
  9
$DIMTXT
 40
2.5
  9
$DIMCEN
 40
2.5
  9
$DIMTSZ
 40
0.0
  9
$DIMTOL
 70
     0
  9
$DIMLIM
 70
     0
  9
$DIMTIH
 70
     0
  9
$DIMTOH
 70
     0
  9
$DIMSE1
 70
     0
  9
$DIMSE2
 70
     0
  9
$DIMTAD
 70
     1
  9
$DIMZIN
 70
     8
  9
$DIMBLK
  1

  9
$DIMASO
 70
     1
  9
$DIMSHO
 70
     1
  9
$DIMPOST
  1

  9
$DIMAPOST
  1

  9
$DIMALT
 70
     0
  9
$DIMALTD
 70
     3
  9
$DIMALTF
 40
0.03937007874016
  9
$DIMLFAC
 40
1.0
  9
$DIMTOFL
 70
     1
  9
$DIMTVP
 40
0.0
  9
$DIMTIX
 70
     0
  9
$DIMSOXD
 70
     0
  9
$DIMSAH
 70
     0
  9
$DIMBLK1
  1

  9
$DIMBLK2
  1

  9
$DIMSTYLE
  2
ISO-25
  9
$DIMCLRD
 70
     0
  9
$DIMCLRE
 70
     0
  9
$DIMCLRT
 70
     0
  9
$DIMTFAC
 40
1.0
  9
$DIMGAP
 40
0.625
  9
$LUNITS
 70
     2
  9
$LUPREC
 70
     4
  9
$SKETCHINC
 40
1.0
  9
$FILLETRAD
 40
10.0
  9
$AUNITS
 70
     0
  9
$AUPREC
 70
     0
  9
$MENU
  1
.
  9
$ELEVATION
 40
0.0
  9
$PELEVATION
 40
0.0
  9
$THICKNESS
 40
0.0
  9
$LIMCHECK
 70
     0
  9
$BLIPMODE
 70
     0
  9
$CHAMFERA
 40
10.0
  9
$CHAMFERB
 40
10.0
  9
$SKPOLY
 70
     0
  9
$TDCREATE
 40
2453437.8769119559
  9
$TDUPDATE
 40
2453551.9047330902
  9
$TDINDWG
 40
0.015718912
  9
$TDUSRTIMER
 40
0.0157187963
  9
$USRTIMER
 70
     1
  9
$ANGBASE
 50
0.0
  9
$ANGDIR
 70
     0
  9
$PDMODE
 70
     0
  9
$PDSIZE
 40
0.0
  9
$PLINEWID
 40
0.0
  9
$COORDS
 70
     1
  9
$SPLFRAME
 70
     0
  9
$SPLINETYPE
 70
     6
  9
$SPLINESEGS
 70
     8
  9
$ATTDIA
 70
     0
  9
$ATTREQ
 70
     1
  9
$HANDLING
 70
-16383
  9
$HANDSEED
  5
2C6
  9
$SURFTAB1
 70
     6
  9
$SURFTAB2
 70
     6
  9
$SURFTYPE
 70
     6
  9
$SURFU
 70
     6
  9
$SURFV
 70
     6
  9
$UCSNAME
  2

  9
$UCSORG
 10
0.0
 20
0.0
 30
0.0
  9
$UCSXDIR
 10
1.0
 20
0.0
 30
0.0
  9
$UCSYDIR
 10
0.0
 20
1.0
 30
0.0
  9
$PUCSNAME
  2

  9
$PUCSORG
 10
0.0
 20
0.0
 30
0.0
  9
$PUCSXDIR
 10
1.0
 20
0.0
 30
0.0
  9
$PUCSYDIR
 10
0.0
 20
1.0
 30
0.0
  9
$USERI1
 70
     0
  9
$USERI2
 70
     0
  9
$USERI3
 70
     0
  9
$USERI4
 70
     0
  9
$USERI5
 70
     0
  9
$USERR1
 40
0.0
  9
$USERR2
 40
0.0
  9
$USERR3
 40
0.0
  9
$USERR4
 40
0.0
  9
$USERR5
 40
0.0
  9
$WORLDVIEW
 70
     1
  9
$SHADEDGE
 70
     3
  9
$SHADEDIF
 70
    70
  9
$TILEMODE
 70
     1
  9
$MAXACTVP
 70
    64
  9
$PLIMCHECK
 70
     0
  9
$PEXTMIN
 10
1.0000000000000000E+020
 20
1.0000000000000000E+020
 30
1.0000000000000000E+020
  9
$PEXTMAX
 10
-1.0000000000000000E+020
 20
-1.0000000000000000E+020
 30
-1.0000000000000000E+020
  9
$PLIMMIN
 10
0.0
 20
0.0
  9
$PLIMMAX
 10
420.0
 20
297.0
  9
$UNITMODE
 70
     0
  9
$VISRETAIN
 70
     1
  9
$PLINEGEN
 70
     0
  9
$PSLTSCALE
 70
     1
  0
ENDSEC
  0
SECTION
  2
TABLES
  0
TABLE
  2
VPORT
 70
     2
  0
VPORT
  2
*ACTIVE
 70
     0
 10
0.0
 20
0.0
 11
1.0
 21
1.0
 12
105.4753067456987
 22
67.048593715201292
 13
0.0
 23
0.0
 14
10.0
 24
10.0
 15
10.0
 25
10.0
 16
0.0
 26
0.0
 36
1.0
 17
0.0
 27
0.0
 37
0.0
 40
39.567460184770589
 41
2.5392405063291141
 42
50.0
 43
0.0
 44
0.0
 50
0.0
 51
0.0
 71
     0
 72
   100
 73
     1
 74
     3
 75
     0
 76
     0
 77
     0
 78
     0
  0
ENDTAB
  0
TABLE
  2
LTYPE
 70
     7
  0
LTYPE
  2
CONTINUOUS
 70
     0
  3
Solid line
 72
    65
 73
     0
 40
0.0
  0
LTYPE
  2
NEW_LINE1
 70
     0
  3

 72
    65
 73
     2
 40
1.0
 49
0.5
 49
-0.5
  0
LTYPE
  2
NEW_LINE2
 70
     0
  3

 72
    65
 73
     2
 40
1.0
 49
0.5
 49
-0.5
  0
LTYPE
  2
NEW_LINE6
 70
     0
  3

 72
    65
 73
     8
 40
3.0
 49
0.1
 49
-0.5
 49
0.1
 49
-0.5
 49
0.4
 49
-0.5
 49
0.4
 49
-0.5
  0
LTYPE
  2
NEW_LINE9
 70
     0
  3

 72
    65
 73
     8
 40
3.0
 49
0.1
 49
-0.5
 49
0.1
 49
-0.5
 49
0.4
 49
-0.5
 49
0.4
 49
-0.5
  0
LTYPE
  2
CENTER
 70
     0
  3
Center ____ _ ____ _ ____ _ ____ _ ____ _ ____
 72
    65
 73
     4
 40
50.799999999999997
 49
31.75
 49
-6.3499999999999988
 49
6.3499999999999988
 49
-6.3499999999999988
  0
LTYPE
  2
DASHED2
 70
     0
  3
Dashed (.5x) _ _ _ _ _ _ _ _ _ _ _ _ _ _ _ _ _
 72
    65
 73
     2
 40
9.5249999999999986
 49
6.3499999999999988
 49
-3.1749999999999989
  0
ENDTAB
  0
TABLE
  2
LAYER
 70
     5
  0
LAYER
  2
0
 70
     0
 62
     7
  6
CONTINUOUS
  0
LAYER
  2
1
 70
     0
 62
     7
  6
CENTER
  0
LAYER
  2
2
 70
     0
 62
     7
  6
CONTINUOUS
  0
LAYER
  2
3
 70
     0
 62
     7
  6
DASHED2
  0
LAYER
  2
DEFPOINTS
 70
     0
 62
     7
  6
CONTINUOUS
  0
ENDTAB
  0
TABLE
  2
STYLE
 70
     3
  0
STYLE
  2
STANDARD
 70
     0
 40
0.0
 41
1.0
 50
0.0
 71
     0
 42
2.5
  3
txt
  4

  0
STYLE
  2
\U+00C9L\U+00C9R_\U+00C2S\U+00C2V\U+00C2B\U+00C2N
 70
     0
 40
1.0
 41
1.0
 50
0.0
 71
     0
 42
1.0
  3
\U+00E9l\U+00E9r \U+00E2S\U+00E2V\U+00E2b\U+00E2N
  4

  0
STYLE
  2

 70
     1
 40
0.0
 41
1.0
 50
0.0
 71
     0
 42
2.5
  3
ltypeshp.shx
  4

  0
ENDTAB
  0
TABLE
  2
VIEW
 70
     0
  0
ENDTAB
  0
TABLE
  2
UCS
 70
     0
  0
ENDTAB
  0
TABLE
  2
APPID
 70
     1
  0
APPID
  2
ACAD
 70
     0
  0
ENDTAB
  0
TABLE
  2
DIMSTYLE
 70
     2
  0
DIMSTYLE
  2
ISO-25
 70
     0
  3

  4

  5

  6

  7

 40
0.5
 41
2.5
 42
0.625
 43
3.75
 44
1.25
 45
0.0
 46
0.0
 47
0.0
 48
0.0
140
2.5
141
2.5
142
0.0
143
0.03937007874016
144
1.0
145
0.0
146
1.0
147
0.625
 71
     0
 72
     0
 73
     0
 74
     0
 75
     0
 76
     0
 77
     1
 78
     8
170
     0
171
     3
172
     1
173
     0
174
     0
175
     0
176
     0
177
     0
178
     0
  0
DIMSTYLE
  2
STANDARD
 70
     0
  3

  4

  5

  6

  7

 40
1.0
 41
0.18
 42
0.0625
 43
0.38
 44
0.18
 45
0.0
 46
0.0
 47
0.0
 48
0.0
140
0.18
141
0.09
142
0.0
143
25.399999999999999
144
1.0
145
0.0
146
1.0
147
0.09
 71
     0
 72
     0
 73
     1
 74
     1
 75
     0
 76
     0
 77
     0
 78
     0
170
     0
171
     2
172
     0
173
     0
174
     0
175
     0
176
     0
177
     0
178
     0
  0
ENDTAB
  0
ENDSEC
  0
SECTION
  2
BLOCKS
  0
BLOCK
  8
0
  2
$MODEL_SPACE
 70
     0
 10
0.0
 20
0.0
 30
0.0
  3
$MODEL_SPACE
  1

  0
ENDBLK
  5
21
  8
0
  0
BLOCK
 67
     1
  8
0
  2
$PAPER_SPACE
 70
     0
 10
0.0
 20
0.0
 30
0.0
  3
$PAPER_SPACE
  1

  0
ENDBLK
  5
1D
 67
     1
  8
0
  0
BLOCK
  8
0
  2
*D2
 70
     1
 10
0.0
 20
0.0
 30
0.0
  3
*D2
  1

  0
LINE
  5
241
  8
2
 62
     0
 10
98.205281522853113
 20
76.625950027092415
 30
0.0
 11
104.6507908298039
 21
76.625950027092415
 31
0.0
  0
LINE
  5
242
  8
2
 62
     0
 10
98.942481522853143
 20
75.325950027092418
 30
0.0
 11
104.6507908298039
 21
75.325950027092418
 31
0.0
  0
LINE
  5
243
  8
2
 62
     0
 10
104.0257908298039
 20
77.875950027092415
 30
0.0
 11
104.0257908298039
 21
79.125950027092415
 31
0.0
  0
LINE
  5
244
  8
2
 62
     0
 10
104.0257908298039
 20
74.075950027092418
 30
0.0
 11
104.0257908298039
 21
70.117616693759089
 31
0.0
  0
LINE
  5
245
  8
2
 62
     0
 10
104.0257908298039
 20
76.625950027092415
 30
0.0
 11
104.0257908298039
 21
75.325950027092418
 31
0.0
  0
SOLID
  5
246
  8
2
 62
     0
 10
103.8174574964706
 20
77.875950027092415
 30
0.0
 11
104.2341241631372
 21
77.875950027092415
 31
0.0
 12
104.0257908298039
 22
76.625950027092415
 32
0.0
 13
104.0257908298039
 23
76.625950027092415
 33
0.0
  0
SOLID
  5
247
  8
2
 62
     0
 10
103.8174574964706
 20
74.075950027092418
 30
0.0
 11
104.2341241631372
 21
74.075950027092418
 31
0.0
 12
104.0257908298039
 22
75.325950027092418
 32
0.0
 13
104.0257908298039
 23
75.325950027092418
 33
0.0
  0
TEXT
  5
248
  8
2
 62
     0
 10
103.7132908298039
 20
70.430116693759103
 30
0.0
 40
1.25
  1
1.3
 50
90.0
  0
POINT
  5
249
  8
DEFPOINTS
 62
     0
 10
97.892781522853113
 20
76.625950027092415
 30
0.0
  0
POINT
  5
24A
  8
DEFPOINTS
 62
     0
 10
98.629981522853143
 20
75.325950027092418
 30
0.0
  0
POINT
  5
24B
  8
DEFPOINTS
 62
     0
 10
104.0257908298039
 20
75.325950027092418
 30
0.0
  0
ENDBLK
  5
24D
  8
0
  0
BLOCK
  8
0
  2
*D3
 70
     1
 10
0.0
 20
0.0
 30
0.0
  3
*D3
  1

  0
LINE
  5
250
  8
2
 62
     0
 10
104.3382908298039
 20
76.625950027092415
 30
0.0
 11
107.0860186406413
 21
76.625950027092415
 31
0.0
  0
LINE
  5
251
  8
2
 62
     0
 10
98.971317716311731
 20
73.625950027092415
 30
0.0
 11
107.0860186406413
 21
73.625950027092415
 31
0.0
  0
LINE
  5
252
  8
2
 62
     0
 10
106.4610186406413
 20
77.875950027092415
 30
0.0
 11
106.4610186406413
 21
79.125950027092415
 31
0.0
  0
LINE
  5
253
  8
2
 62
     0
 10
106.4610186406413
 20
72.375950027092415
 30
0.0
 11
106.4610186406413
 21
71.125950027092415
 31
0.0
  0
LINE
  5
254
  8
2
 62
     0
 10
106.4610186406413
 20
76.625950027092415
 30
0.0
 11
106.4610186406413
 21
73.625950027092415
 31
0.0
  0
SOLID
  5
255
  8
2
 62
     0
 10
106.252685307308
 20
77.875950027092415
 30
0.0
 11
106.6693519739747
 21
77.875950027092415
 31
0.0
 12
106.4610186406413
 22
76.625950027092415
 32
0.0
 13
106.4610186406413
 23
76.625950027092415
 33
0.0
  0
SOLID
  5
256
  8
2
 62
     0
 10
106.252685307308
 20
72.375950027092415
 30
0.0
 11
106.6693519739747
 21
72.375950027092415
 31
0.0
 12
106.4610186406413
 22
73.625950027092415
 32
0.0
 13
106.4610186406413
 23
73.625950027092415
 33
0.0
  0
TEXT
  5
257
  8
2
 62
     0
 10
106.1485186406413
 20
74.709283360425772
 30
0.0
 40
1.25
  1
3
 50
90.0
  0
POINT
  5
258
  8
DEFPOINTS
 62
     0
 10
104.0257908298039
 20
76.625950027092415
 30
0.0
  0
POINT
  5
259
  8
DEFPOINTS
 62
     0
 10
98.658817716311731
 20
73.625950027092415
 30
0.0
  0
POINT
  5
25A
  8
DEFPOINTS
 62
     0
 10
106.4610186406413
 20
73.625950027092415
 30
0.0
  0
ENDBLK
  5
25C
  8
0
  0
BLOCK
  8
0
  2
*D4
 70
     1
 10
0.0
 20
0.0
 30
0.0
  3
*D4
  1

  0
LINE
  5
298
  8
2
 62
     0
 10
96.292781522853133
 20
76.938450027092415
 30
0.0
 11
96.292781522853133
 21
80.396015122696966
 31
0.0
  0
LINE
  5
299
  8
2
 62
     0
 10
97.492781522853136
 20
76.938450027092415
 30
0.0
 11
97.492781522853136
 21
80.396015122696966
 31
0.0
  0
LINE
  5
29A
  8
2
 62
     0
 10
95.042781522853133
 20
79.771015122696951
 30
0.0
 11
93.792781522853133
 21
79.771015122696951
 31
0.0
  0
LINE
  5
29B
  8
2
 62
     0
 10
98.742781522853136
 20
79.771015122696951
 30
0.0
 11
103.95111485618639
 21
79.771015122696951
 31
0.0
  0
LINE
  5
29C
  8
2
 62
     0
 10
96.292781522853133
 20
79.771015122696951
 30
0.0
 11
97.492781522853136
 21
79.771015122696951
 31
0.0
  0
SOLID
  5
29D
  8
2
 62
     0
 10
95.042781522853133
 20
79.97934845603028
 30
0.0
 11
95.042781522853133
 21
79.562681789363623
 31
0.0
 12
96.292781522853133
 22
79.771015122696951
 32
0.0
 13
96.292781522853133
 23
79.771015122696951
 33
0.0
  0
SOLID
  5
29E
  8
2
 62
     0
 10
98.742781522853136
 20
79.97934845603028
 30
0.0
 11
98.742781522853136
 21
79.562681789363623
 31
0.0
 12
97.492781522853136
 22
79.771015122696951
 32
0.0
 13
97.492781522853136
 23
79.771015122696951
 33
0.0
  0
INSERT
  5
29F
  8
2
  2
*U8
 10
0.0
 20
0.0
 30
0.0
  0
POINT
  5
2A0
  8
DEFPOINTS
 62
     0
 10
96.292781522853133
 20
76.625950027092415
 30
0.0
  0
POINT
  5
2A1
  8
DEFPOINTS
 62
     0
 10
97.492781522853136
 20
76.625950027092415
 30
0.0
  0
POINT
  5
2A2
  8
DEFPOINTS
 62
     0
 10
97.492781522853136
 20
79.771015122696951
 30
0.0
  0
ENDBLK
  5
26B
  8
0
  0
BLOCK
  8
0
  2
*D5
 70
     1
 10
0.0
 20
0.0
 30
0.0
  3
*D5
  1

  0
LINE
  5
2A3
  8
2
 62
     0
 10
95.892781522853127
 20
76.938450027092415
 30
0.0
 11
95.892781522853127
 21
82.930440354453879
 31
0.0
  0
LINE
  5
2A4
  8
2
 62
     0
 10
97.892781522853113
 20
76.938450027092415
 30
0.0
 11
97.892781522853113
 21
82.930440354453879
 31
0.0
  0
LINE
  5
2A5
  8
2
 62
     0
 10
94.642781522853127
 20
82.305440354453879
 30
0.0
 11
93.392781522853127
 21
82.305440354453879
 31
0.0
  0
LINE
  5
2A6
  8
2
 62
     0
 10
99.142781522853113
 20
82.305440354453879
 30
0.0
 11
103.1011148561864
 21
82.305440354453879
 31
0.0
  0
LINE
  5
2A7
  8
2
 62
     0
 10
95.892781522853127
 20
82.305440354453879
 30
0.0
 11
97.892781522853113
 21
82.305440354453879
 31
0.0
  0
SOLID
  5
2A8
  8
2
 62
     0
 10
94.642781522853127
 20
82.513773687787207
 30
0.0
 11
94.642781522853127
 21
82.09710702112055
 31
0.0
 12
95.892781522853127
 22
82.305440354453879
 32
0.0
 13
95.892781522853127
 23
82.305440354453879
 33
0.0
  0
SOLID
  5
2A9
  8
2
 62
     0
 10
99.142781522853113
 20
82.513773687787207
 30
0.0
 11
99.142781522853113
 21
82.09710702112055
 31
0.0
 12
97.892781522853113
 22
82.305440354453879
 32
0.0
 13
97.892781522853113
 23
82.305440354453879
 33
0.0
  0
INSERT
  5
2AA
  8
2
  2
*U9
 10
0.0
 20
0.0
 30
0.0
  0
POINT
  5
2AB
  8
DEFPOINTS
 62
     0
 10
95.892781522853127
 20
76.625950027092415
 30
0.0
  0
POINT
  5
2AC
  8
DEFPOINTS
 62
     0
 10
97.892781522853113
 20
76.625950027092415
 30
0.0
  0
POINT
  5
2AD
  8
DEFPOINTS
 62
     0
 10
97.892781522853113
 20
82.305440354453879
 30
0.0
  0
ENDBLK
  5
27A
  8
0
  0
BLOCK
  8
0
  2
*D6
 70
     1
 10
0.0
 20
0.0
 30
0.0
  3
*D6
  1

  0
LINE
  5
27D
  8
2
 62
     0
 10
94.892781522853127
 20
65.073401810172115
 30
0.0
 11
94.892781522853127
 21
60.784974047662452
 31
0.0
  0
LINE
  5
27E
  8
2
 62
     0
 10
98.892781522853141
 20
65.073401810172115
 30
0.0
 11
98.892781522853141
 21
60.784974047662452
 31
0.0
  0
LINE
  5
27F
  8
2
 62
     0
 10
96.142781522853127
 20
61.409974047662452
 30
0.0
 11
97.642781522853141
 21
61.409974047662452
 31
0.0
  0
SOLID
  5
280
  8
2
 62
     0
 10
96.142781522853127
 20
61.61830738099578
 30
0.0
 11
96.142781522853127
 21
61.201640714329109
 31
0.0
 12
94.892781522853127
 22
61.409974047662452
 32
0.0
 13
94.892781522853127
 23
61.409974047662452
 33
0.0
  0
SOLID
  5
281
  8
2
 62
     0
 10
97.642781522853141
 20
61.61830738099578
 30
0.0
 11
97.642781522853141
 21
61.201640714329109
 31
0.0
 12
98.892781522853141
 22
61.409974047662452
 32
0.0
 13
98.892781522853141
 23
61.409974047662452
 33
0.0
  0
TEXT
  5
282
  8
2
 62
     0
 10
96.47611485618647
 20
61.722474047662452
 30
0.0
 40
1.25
  1
4
  0
POINT
  5
283
  8
DEFPOINTS
 62
     0
 10
94.892781522853127
 20
65.385901810172115
 30
0.0
  0
POINT
  5
284
  8
DEFPOINTS
 62
     0
 10
98.892781522853141
 20
65.385901810172115
 30
0.0
  0
POINT
  5
285
  8
DEFPOINTS
 62
     0
 10
98.892781522853141
 20
61.409974047662452
 30
0.0
  0
ENDBLK
  5
287
  8
0
  0
BLOCK
  8
0
  2
*D7
 70
     1
 10
0.0
 20
0.0
 30
0.0
  3
*D7
  1

  0
LINE
  5
28A
  8
2
 62
     0
 10
98.205281522853113
 20
66.385901810172129
 30
0.0
 11
102.5323651913812
 21
66.385901810172129
 31
0.0
  0
LINE
  5
28B
  8
2
 62
     0
 10
98.205281522853113
 20
64.385901810172129
 30
0.0
 11
102.5323651913812
 21
64.385901810172129
 31
0.0
  0
LINE
  5
28C
  8
2
 62
     0
 10
101.9073651913812
 20
67.635901810172129
 30
0.0
 11
101.9073651913812
 21
68.885901810172129
 31
0.0
  0
LINE
  5
28D
  8
2
 62
     0
 10
101.9073651913812
 20
63.135901810172143
 30
0.0
 11
101.9073651913812
 21
61.885901810172143
 31
0.0
  0
LINE
  5
28E
  8
2
 62
     0
 10
101.9073651913812
 20
66.385901810172129
 30
0.0
 11
101.9073651913812
 21
64.385901810172129
 31
0.0
  0
SOLID
  5
28F
  8
2
 62
     0
 10
101.6990318580479
 20
67.635901810172129
 30
0.0
 11
102.1156985247145
 21
67.635901810172129
 31
0.0
 12
101.9073651913812
 22
66.385901810172129
 32
0.0
 13
101.9073651913812
 23
66.385901810172129
 33
0.0
  0
SOLID
  5
290
  8
2
 62
     0
 10
101.6990318580479
 20
63.135901810172143
 30
0.0
 11
102.1156985247145
 21
63.135901810172143
 31
0.0
 12
101.9073651913812
 22
64.385901810172129
 32
0.0
 13
101.9073651913812
 23
64.385901810172129
 33
0.0
  0
TEXT
  5
291
  8
2
 62
     0
 10
101.5948651913812
 20
64.969235143505486
 30
0.0
 40
1.25
  1
2
 50
90.0
  0
POINT
  5
292
  8
DEFPOINTS
 62
     0
 10
97.892781522853113
 20
66.385901810172129
 30
0.0
  0
POINT
  5
293
  8
DEFPOINTS
 62
     0
 10
97.892781522853113
 20
64.385901810172129
 30
0.0
  0
POINT
  5
294
  8
DEFPOINTS
 62
     0
 10
101.9073651913812
 20
64.385901810172129
 30
0.0
  0
ENDBLK
  5
296
  8
0
  0
BLOCK
  8
0
  2
*U8
 70
     1
 10
0.0
 20
0.0
 30
0.0
  3
*U8
  1

  0
TEXT
  5
2BD
  8
2
 62
     0
 10
100.30528152285309
 20
80.083515122696966
 30
0.0
 40
1.25
  1
\U+2205
  0
TEXT
  5
2BE
  8
2
 62
     0
 10
101.55528152285309
 20
80.083515122696966
 30
0.0
 40
1.25
  1
1.2
  0
ENDBLK
  5
2C0
  8
0
  0
BLOCK
  8
0
  2
*U9
 70
     1
 10
0.0
 20
0.0
 30
0.0
  3
*U9
  1

  0
TEXT
  5
2C2
  8
2
 62
     0
 10
100.7052815228531
 20
82.617940354453879
 30
0.0
 40
1.25
  1
\U+2205
  0
TEXT
  5
2C3
  8
2
 62
     0
 10
101.9552815228531
 20
82.617940354453879
 30
0.0
 40
1.25
  1
2
  0
ENDBLK
  5
2C5
  8
0
  0
ENDSEC
  0
SECTION
  2
ENTITIES
  0
TEXT
  5
17B
  8
2
 10
90.65615622803287
 20
55.179724041593794
 30
0.0
 40
1.2699720000000001
  1
No. 132.4x2.001._
 51
-0.0000015352344868
  7
\U+00C9L\U+00C9R_\U+00C2S\U+00C2V\U+00C2B\U+00C2N
  0
LINE
  5
19A
  8
0
 39
2.0
 10
96.892781522853127
 20
74.075790027092395
 30
0.0
 11
95.423821522853132
 21
74.075790027092395
 31
0.0
  0
LINE
  5
1A3
  8
0
 39
2.0
 10
95.155581522853126
 20
75.325950027092418
 30
0.0
 11
95.155581522853126
 21
74.99095002709241
 31
0.0
  0
LINE
  5
1A4
  8
0
 39
2.0
 10
95.155581522853126
 20
74.99095002709241
 30
0.0
 11
95.155581522853126
 21
74.99095002709241
 31
0.0
  0
LINE
  5
1A5
  8
0
 39
2.0
 10
95.155581522853126
 20
74.99095002709241
 30
0.0
 11
95.214101522853113
 21
74.915510027092409
 31
0.0
  0
LINE
  5
1A6
  8
0
 39
2.0
 10
95.214101522853113
 20
74.915510027092409
 30
0.0
 11
95.260461522853134
 21
74.842430027092405
 31
0.0
  0
LINE
  5
1A7
  8
0
 39
2.0
 10
95.260461522853134
 20
74.842430027092405
 30
0.0
 11
95.295261522853124
 21
74.771190027092416
 31
0.0
  0
LINE
  5
1A8
  8
0
 39
2.0
 10
95.295261522853124
 20
74.771190027092416
 30
0.0
 11
95.318861522853126
 21
74.701470027092412
 31
0.0
  0
LINE
  5
1A9
  8
0
 39
2.0
 10
95.318861522853126
 20
74.701470027092412
 30
0.0
 11
95.331941522853128
 21
74.632710027092415
 31
0.0
  0
LINE
  5
1AA
  8
0
 39
2.0
 10
95.331941522853128
 20
74.632710027092415
 30
0.0
 11
95.334821522853133
 21
74.564670027092419
 31
0.0
  0
LINE
  5
1AB
  8
0
 39
2.0
 10
95.334821522853133
 20
74.564670027092419
 30
0.0
 11
95.328061522853133
 21
74.496830027092415
 31
0.0
  0
LINE
  5
1AC
  8
0
 39
2.0
 10
95.328061522853133
 20
74.496830027092415
 30
0.0
 11
95.312061522853114
 21
74.428870027092415
 31
0.0
  0
LINE
  5
1AD
  8
0
 39
2.0
 10
95.312061522853114
 20
74.428870027092415
 30
0.0
 11
95.287501522853134
 21
74.360190027092415
 31
0.0
  0
LINE
  5
1AE
  8
0
 39
2.0
 10
95.287501522853134
 20
74.360190027092415
 30
0.0
 11
95.254701522853125
 21
74.290590027092406
 31
0.0
  0
LINE
  5
1AF
  8
0
 39
2.0
 10
95.254701522853125
 20
74.290590027092406
 30
0.0
 11
95.214221522853123
 21
74.219510027092412
 31
0.0
  0
LINE
  5
1B0
  8
0
 39
2.0
 10
95.214221522853123
 20
74.219510027092412
 30
0.0
 11
95.166421522853113
 21
74.146670027092412
 31
0.0
  0
LINE
  5
1B1
  8
0
 39
2.0
 10
95.166421522853113
 20
74.146670027092412
 30
0.0
 11
95.111981522853128
 21
74.071470027092417
 31
0.0
  0
LINE
  5
1B2
  8
0
 39
2.0
 10
95.111981522853128
 20
74.071470027092417
 30
0.0
 11
95.051221522853126
 21
73.993710027092419
 31
0.0
  0
LINE
  5
1B3
  8
0
 39
2.0
 10
95.051221522853126
 20
73.993710027092419
 30
0.0
 11
94.984701522853115
 21
73.912870027092396
 31
0.0
  0
LINE
  5
1B4
  8
0
 39
2.0
 10
94.984701522853115
 20
73.912870027092396
 30
0.0
 11
94.912901522853133
 21
73.828550027092405
 31
0.0
  0
LINE
  5
1B5
  8
0
 39
2.0
 10
94.912901522853133
 20
73.828550027092405
 30
0.0
 11
95.126745329394524
 21
73.625950027092415
 31
0.0
  0
LINE
  5
1B8
  8
1
 10
96.892781522853127
 20
76.925950027092412
 30
0.0
 11
96.892781522853127
 21
73.325950027092418
 31
0.0
  0
LINE
  5
1BA
  8
0
 10
95.892781522853127
 20
76.625950027092415
 30
0.0
 11
96.892781522853127
 21
76.625950027092415
 31
0.0
  0
LINE
  5
1D9
  8
0
 10
95.892781522853127
 20
75.325950027092418
 30
0.0
 11
95.155581522853126
 21
75.325950027092418
 31
0.0
  0
LINE
  5
1DA
  8
0
 10
96.292781522853133
 20
76.625950027092415
 30
0.0
 11
96.292781522853133
 21
74.075790027092424
 31
0.0
  0
LINE
  5
1DB
  8
0
 10
95.892781522853127
 20
76.625950027092415
 30
0.0
 11
95.892781522853127
 21
75.325950027092418
 31
0.0
  0
LINE
  5
1E0
  8
0
 10
96.892781522853127
 20
73.625950027092415
 30
0.0
 11
95.126745329394524
 21
73.625950027092415
 31
0.0
  0
LINE
  5
1E3
  8
0
 10
95.423821522853132
 20
74.075790027092395
 30
0.0
 11
95.126745329394524
 21
73.625950027092415
 31
0.0
  0
LINE
  5
1E6
  8
0
 39
2.0
 10
98.872661522853136
 20
73.828550027092405
 30
0.0
 11
98.658817716311731
 21
73.625950027092415
 31
0.0
  0
LINE
  5
1E7
  8
0
 39
2.0
 10
98.800861522853126
 20
73.912870027092396
 30
0.0
 11
98.872661522853136
 21
73.828550027092405
 31
0.0
  0
LINE
  5
1E8
  8
0
 39
2.0
 10
98.734341522853114
 20
73.993710027092419
 30
0.0
 11
98.800861522853126
 21
73.912870027092396
 31
0.0
  0
LINE
  5
1E9
  8
0
 39
2.0
 10
98.673581522853127
 20
74.071470027092417
 30
0.0
 11
98.734341522853114
 21
73.993710027092419
 31
0.0
  0
LINE
  5
1EA
  8
0
 39
2.0
 10
98.619141522853127
 20
74.146670027092412
 30
0.0
 11
98.673581522853127
 21
74.071470027092417
 31
0.0
  0
LINE
  5
1EB
  8
0
 39
2.0
 10
98.571341522853132
 20
74.219510027092412
 30
0.0
 11
98.619141522853127
 21
74.146670027092412
 31
0.0
  0
LINE
  5
1EC
  8
0
 39
2.0
 10
98.530861522853144
 20
74.290590027092406
 30
0.0
 11
98.571341522853132
 21
74.219510027092412
 31
0.0
  0
LINE
  5
1ED
  8
0
 39
2.0
 10
98.498061522853121
 20
74.360190027092415
 30
0.0
 11
98.530861522853144
 21
74.290590027092406
 31
0.0
  0
LINE
  5
1EE
  8
0
 39
2.0
 10
98.473501522853127
 20
74.428870027092415
 30
0.0
 11
98.498061522853121
 21
74.360190027092415
 31
0.0
  0
LINE
  5
1EF
  8
0
 39
2.0
 10
98.457501522853121
 20
74.496830027092415
 30
0.0
 11
98.473501522853127
 21
74.428870027092415
 31
0.0
  0
LINE
  5
1F0
  8
0
 39
2.0
 10
98.450741522853136
 20
74.564670027092419
 30
0.0
 11
98.457501522853121
 21
74.496830027092415
 31
0.0
  0
LINE
  5
1F1
  8
0
 39
2.0
 10
98.453621522853126
 20
74.632710027092415
 30
0.0
 11
98.450741522853136
 21
74.564670027092419
 31
0.0
  0
LINE
  5
1F2
  8
0
 39
2.0
 10
98.466701522853114
 20
74.701470027092412
 30
0.0
 11
98.453621522853126
 21
74.632710027092415
 31
0.0
  0
LINE
  5
1F3
  8
0
 39
2.0
 10
98.490301522853144
 20
74.771190027092416
 30
0.0
 11
98.466701522853114
 21
74.701470027092412
 31
0.0
  0
LINE
  5
1F4
  8
0
 39
2.0
 10
98.52510152285312
 20
74.842430027092405
 30
0.0
 11
98.490301522853144
 21
74.771190027092416
 31
0.0
  0
LINE
  5
1F5
  8
0
 39
2.0
 10
98.571461522853127
 20
74.915510027092409
 30
0.0
 11
98.52510152285312
 21
74.842430027092405
 31
0.0
  0
LINE
  5
1F6
  8
0
 39
2.0
 10
98.629981522853143
 20
74.99095002709241
 30
0.0
 11
98.571461522853127
 21
74.915510027092409
 31
0.0
  0
LINE
  5
1F7
  8
0
 39
2.0
 10
98.629981522853143
 20
74.99095002709241
 30
0.0
 11
98.629981522853143
 21
74.99095002709241
 31
0.0
  0
LINE
  5
1F8
  8
0
 39
2.0
 10
98.629981522853143
 20
75.325950027092418
 30
0.0
 11
98.629981522853143
 21
74.99095002709241
 31
0.0
  0
LINE
  5
1FA
  8
3
 10
98.361741522853123
 20
74.075790027092395
 30
0.0
 11
98.658817716311731
 21
73.625950027092415
 31
0.0
  0
LINE
  5
1FB
  8
0
 10
96.892781522853127
 20
73.625950027092415
 30
0.0
 11
98.658817716311731
 21
73.625950027092415
 31
0.0
  0
LINE
  5
1FC
  8
0
 10
96.892781522853127
 20
75.325950027092418
 30
0.0
 11
98.629981522853143
 21
75.325950027092418
 31
0.0
  0
LINE
  5
1FD
  8
0
 10
97.892781522853113
 20
76.625950027092415
 30
0.0
 11
97.892781522853113
 21
75.325950027092418
 31
0.0
  0
LINE
  5
1FE
  8
3
 10
97.492781522853136
 20
76.625950027092415
 30
0.0
 11
97.492781522853136
 21
74.075790027092424
 31
0.0
  0
LINE
  5
1FF
  8
0
 10
97.892781522853113
 20
76.625950027092415
 30
0.0
 11
96.892781522853127
 21
76.625950027092415
 31
0.0
  0
LINE
  5
202
  8
3
 10
96.892781522853127
 20
74.075790027092395
 30
0.0
 11
98.361741522853123
 21
74.075790027092395
 31
0.0
  0
LINE
  5
205
  8
0
 10
98.629981522853143
 20
74.99095002709241
 30
0.0
 11
96.892781522853127
 21
74.99095002709241
 31
0.0
  0
LINE
  5
208
  8
0
 10
96.892781522853127
 20
73.828550027092405
 30
0.0
 11
98.872661522853136
 21
73.828550027092405
 31
0.0
  0
LINE
  5
20E
  8
1
 10
96.892781522853127
 20
66.585901810172132
 30
0.0
 11
96.892781522853127
 21
64.185901810172126
 31
0.0
  0
LINE
  5
210
  8
1
 10
99.09278152285313
 20
65.385901810172115
 30
0.0
 11
94.692781522853124
 21
65.385901810172115
 31
0.0
  0
LINE
  5
211
  8
0
 10
97.892781522853113
 20
66.385901810172129
 30
0.0
 11
95.892781522853127
 21
66.385901810172129
 31
0.0
  0
LINE
  5
212
  8
0
 10
97.892781522853113
 20
64.385901810172129
 30
0.0
 11
95.892781522853127
 21
64.385901810172129
 31
0.0
  0
ARC
  5
217
  8
0
 10
95.892781522853127
 20
65.385901810172115
 30
0.0
 40
1.0
 50
90.0
 51
270.0
  0
ARC
  5
218
  8
0
 10
97.892781522853113
 20
65.385901810172115
 30
0.0
 40
1.0
 50
270.0
 51
90.0
  0
ARC
  5
21A
  8
0
 10
95.892781522853127
 20
65.385901810172115
 30
0.0
 40
0.8
 50
90.0
 51
270.0
  0
ARC
  5
21B
  8
0
 10
97.892781522853113
 20
65.385901810172115
 30
0.0
 40
0.8
 50
270.0
 51
90.0
  0
LINE
  5
21D
  8
0
 10
97.892781522853113
 20
64.585901810172132
 30
0.0
 11
95.892781522853127
 21
64.585901810172132
 31
0.0
  0
LINE
  5
21E
  8
0
 10
97.892781522853113
 20
66.185901810172126
 30
0.0
 11
95.892781522853127
 21
66.185901810172126
 31
0.0
  0
CIRCLE
  5
224
  8
0
 10
96.892781522853127
 20
65.385901810172115
 30
0.0
 40
0.6
  0
LINE
  5
229
  8
0
 10
97.892781522853113
 20
65.985901810172123
 30
0.0
 11
95.892781522853127
 21
65.985901810172123
 31
0.0
  0
LINE
  5
22A
  8
0
 10
97.892781522853113
 20
64.785901810172135
 30
0.0
 11
95.892781522853127
 21
64.785901810172135
 31
0.0
  0
ARC
  5
22F
  8
0
 10
95.892781522853127
 20
65.385901810172115
 30
0.0
 40
0.6
 50
90.0
 51
270.0
  0
ARC
  5
230
  8
0
 10
97.892781522853113
 20
65.385901810172115
 30
0.0
 40
0.6
 50
270.0
 51
90.0
  0
DIMENSION
  5
23F
  8
2
  2
*D2
 10
104.0257908298039
 20
75.325950027092418
 30
0.0
 11
103.0882908298039
 21
71.471783360425775
 31
0.0
 70
     0
 13
97.892781522853113
 23
76.625950027092415
 33
0.0
 14
98.629981522853143
 24
75.325950027092418
 34
0.0
 50
90.0
  0
DIMENSION
  5
24E
  8
2
  2
*D3
 10
106.4610186406413
 20
73.625950027092415
 30
0.0
 11
105.5235186406413
 21
75.125950027092443
 31
0.0
 70
     0
 13
104.0257908298039
 23
76.625950027092415
 33
0.0
 14
98.658817716311731
 24
73.625950027092415
 34
0.0
 50
90.0
  0
DIMENSION
  5
25D
  8
2
  2
*D4
 10
97.492781522853136
 20
79.771015122696951
 30
0.0
 11
101.97194818951979
 21
80.708515122696966
 31
0.0
 70
     0
  1
%%c<>
 13
96.292781522853133
 23
76.625950027092415
 33
0.0
 14
97.492781522853136
 24
76.625950027092415
 34
0.0
  0
DIMENSION
  5
26C
  8
2
  2
*D5
 10
97.892781522853113
 20
82.305440354453879
 30
0.0
 11
101.7469481895197
 21
83.242940354453879
 31
0.0
 70
     0
  1
%%c<>
 13
95.892781522853127
 23
76.625950027092415
 33
0.0
 14
97.892781522853113
 24
76.625950027092415
 34
0.0
  0
DIMENSION
  5
27B
  8
2
  2
*D6
 10
98.892781522853141
 20
61.409974047662452
 30
0.0
 11
96.892781522853127
 21
62.347474047662452
 31
0.0
 70
     0
 13
94.892781522853127
 23
65.385901810172115
 33
0.0
 14
98.892781522853141
 24
65.385901810172115
 34
0.0
  0
DIMENSION
  5
288
  8
2
  2
*D7
 10
101.9073651913812
 20
64.385901810172129
 30
0.0
 11
100.9698651913812
 21
65.385901810172157
 31
0.0
 70
     0
 13
97.892781522853113
 23
66.385901810172129
 33
0.0
 14
97.892781522853113
 24
64.385901810172129
 34
0.0
 50
90.0
  0
ENDSEC
  0
EOF
