  0
SECTION
  2
HEADER
  9
$ACADVER
  1
AC1009
  9
$INSBASE
 10
0.0
 20
0.0
 30
0.0
  9
$EXTMIN
 10
86.688173550701251
 20
69.142212320854966
 30
0.0
  9
$EXTMAX
 10
104.1654073022565
 20
102.14585436951241
 30
2.0
  9
$LIMMIN
 10
0.0
 20
0.0
  9
$LIMMAX
 10
420.0
 20
297.0
  9
$ORTHOMODE
 70
     0
  9
$REGENMODE
 70
     1
  9
$FILLMODE
 70
     1
  9
$QTEXTMODE
 70
     0
  9
$MIRRTEXT
 70
     1
  9
$DRAGMODE
 70
     2
  9
$LTSCALE
 40
0.3
  9
$OSMODE
 70
    37
  9
$ATTMODE
 70
     1
  9
$TEXTSIZE
 40
2.5
  9
$TRACEWID
 40
1.0
  9
$TEXTSTYLE
  7
STANDARD
  9
$CLAYER
  8
2
  9
$CELTYPE
  6
BYLAYER
  9
$CECOLOR
 62
   256
  9
$DIMSCALE
 40
0.5
  9
$DIMASZ
 40
2.5
  9
$DIMEXO
 40
0.625
  9
$DIMDLI
 40
3.75
  9
$DIMRND
 40
0.0
  9
$DIMDLE
 40
0.0
  9
$DIMEXE
 40
1.25
  9
$DIMTP
 40
0.0
  9
$DIMTM
 40
0.0
  9
$DIMTXT
 40
2.5
  9
$DIMCEN
 40
2.5
  9
$DIMTSZ
 40
0.0
  9
$DIMTOL
 70
     0
  9
$DIMLIM
 70
     0
  9
$DIMTIH
 70
     0
  9
$DIMTOH
 70
     0
  9
$DIMSE1
 70
     0
  9
$DIMSE2
 70
     0
  9
$DIMTAD
 70
     1
  9
$DIMZIN
 70
     8
  9
$DIMBLK
  1

  9
$DIMASO
 70
     1
  9
$DIMSHO
 70
     1
  9
$DIMPOST
  1

  9
$DIMAPOST
  1

  9
$DIMALT
 70
     0
  9
$DIMALTD
 70
     3
  9
$DIMALTF
 40
0.03937007874016
  9
$DIMLFAC
 40
1.0
  9
$DIMTOFL
 70
     1
  9
$DIMTVP
 40
0.0
  9
$DIMTIX
 70
     0
  9
$DIMSOXD
 70
     0
  9
$DIMSAH
 70
     0
  9
$DIMBLK1
  1

  9
$DIMBLK2
  1

  9
$DIMSTYLE
  2
ISO-25
  9
$DIMCLRD
 70
     0
  9
$DIMCLRE
 70
     0
  9
$DIMCLRT
 70
     0
  9
$DIMTFAC
 40
1.0
  9
$DIMGAP
 40
0.625
  9
$LUNITS
 70
     2
  9
$LUPREC
 70
     4
  9
$SKETCHINC
 40
1.0
  9
$FILLETRAD
 40
10.0
  9
$AUNITS
 70
     0
  9
$AUPREC
 70
     0
  9
$MENU
  1
.
  9
$ELEVATION
 40
0.0
  9
$PELEVATION
 40
0.0
  9
$THICKNESS
 40
0.0
  9
$LIMCHECK
 70
     0
  9
$BLIPMODE
 70
     0
  9
$CHAMFERA
 40
10.0
  9
$CHAMFERB
 40
10.0
  9
$SKPOLY
 70
     0
  9
$TDCREATE
 40
2453437.8774444442
  9
$TDUPDATE
 40
2453551.905015335
  9
$TDINDWG
 40
0.0151072569
  9
$TDUSRTIMER
 40
0.0151072569
  9
$USRTIMER
 70
     1
  9
$ANGBASE
 50
0.0
  9
$ANGDIR
 70
     0
  9
$PDMODE
 70
     0
  9
$PDSIZE
 40
0.0
  9
$PLINEWID
 40
0.0
  9
$COORDS
 70
     1
  9
$SPLFRAME
 70
     0
  9
$SPLINETYPE
 70
     6
  9
$SPLINESEGS
 70
     8
  9
$ATTDIA
 70
     0
  9
$ATTREQ
 70
     1
  9
$HANDLING
 70
-16383
  9
$HANDSEED
  5
345
  9
$SURFTAB1
 70
     6
  9
$SURFTAB2
 70
     6
  9
$SURFTYPE
 70
     6
  9
$SURFU
 70
     6
  9
$SURFV
 70
     6
  9
$UCSNAME
  2

  9
$UCSORG
 10
0.0
 20
0.0
 30
0.0
  9
$UCSXDIR
 10
1.0
 20
0.0
 30
0.0
  9
$UCSYDIR
 10
0.0
 20
1.0
 30
0.0
  9
$PUCSNAME
  2

  9
$PUCSORG
 10
0.0
 20
0.0
 30
0.0
  9
$PUCSXDIR
 10
1.0
 20
0.0
 30
0.0
  9
$PUCSYDIR
 10
0.0
 20
1.0
 30
0.0
  9
$USERI1
 70
     0
  9
$USERI2
 70
     0
  9
$USERI3
 70
     0
  9
$USERI4
 70
     0
  9
$USERI5
 70
     0
  9
$USERR1
 40
0.0
  9
$USERR2
 40
0.0
  9
$USERR3
 40
0.0
  9
$USERR4
 40
0.0
  9
$USERR5
 40
0.0
  9
$WORLDVIEW
 70
     1
  9
$SHADEDGE
 70
     3
  9
$SHADEDIF
 70
    70
  9
$TILEMODE
 70
     1
  9
$MAXACTVP
 70
    64
  9
$PLIMCHECK
 70
     0
  9
$PEXTMIN
 10
1.0000000000000000E+020
 20
1.0000000000000000E+020
 30
1.0000000000000000E+020
  9
$PEXTMAX
 10
-1.0000000000000000E+020
 20
-1.0000000000000000E+020
 30
-1.0000000000000000E+020
  9
$PLIMMIN
 10
0.0
 20
0.0
  9
$PLIMMAX
 10
420.0
 20
297.0
  9
$UNITMODE
 70
     0
  9
$VISRETAIN
 70
     1
  9
$PLINEGEN
 70
     0
  9
$PSLTSCALE
 70
     1
  0
ENDSEC
  0
SECTION
  2
TABLES
  0
TABLE
  2
VPORT
 70
     2
  0
VPORT
  2
*ACTIVE
 70
     0
 10
0.0
 20
0.0
 11
1.0
 21
1.0
 12
105.6446192916026
 22
85.688470728568944
 13
0.0
 23
0.0
 14
10.0
 24
10.0
 15
10.0
 25
10.0
 16
0.0
 26
0.0
 36
1.0
 17
0.0
 27
0.0
 37
0.0
 40
41.103651210244621
 41
2.5392405063291141
 42
50.0
 43
0.0
 44
0.0
 50
0.0
 51
0.0
 71
     0
 72
   100
 73
     1
 74
     3
 75
     0
 76
     0
 77
     0
 78
     0
  0
ENDTAB
  0
TABLE
  2
LTYPE
 70
     9
  0
LTYPE
  2
CONTINUOUS
 70
     0
  3
Solid line
 72
    65
 73
     0
 40
0.0
  0
LTYPE
  2
NEW_LINE12
 70
     0
  3

 72
    65
 73
     2
 40
1.0
 49
0.5
 49
-0.5
  0
LTYPE
  2
NEW_LINE13
 70
     0
  3

 72
    65
 73
     2
 40
1.0
 49
0.5
 49
-0.5
  0
LTYPE
  2
NEW_LINE14
 70
     0
  3

 72
    65
 73
     2
 40
1.0
 49
0.5
 49
-0.5
  0
LTYPE
  2
NEW_LINE15
 70
     0
  3

 72
    65
 73
     2
 40
1.0
 49
0.5
 49
-0.5
  0
LTYPE
  2
NEW_LINE16
 70
     0
  3

 72
    65
 73
     8
 40
3.0
 49
0.1
 49
-0.5
 49
0.1
 49
-0.5
 49
0.4
 49
-0.5
 49
0.4
 49
-0.5
  0
LTYPE
  2
NEW_LINE17
 70
     0
  3

 72
    65
 73
     8
 40
3.0
 49
0.1
 49
-0.5
 49
0.1
 49
-0.5
 49
0.4
 49
-0.5
 49
0.4
 49
-0.5
  0
LTYPE
  2
CENTER
 70
     0
  3
Center ____ _ ____ _ ____ _ ____ _ ____ _ ____
 72
    65
 73
     4
 40
50.799999999999997
 49
31.75
 49
-6.3499999999999988
 49
6.3499999999999988
 49
-6.3499999999999988
  0
LTYPE
  2
DASHED2
 70
     0
  3
Dashed (.5x) _ _ _ _ _ _ _ _ _ _ _ _ _ _ _ _ _
 72
    65
 73
     2
 40
9.5249999999999986
 49
6.3499999999999988
 49
-3.1749999999999989
  0
ENDTAB
  0
TABLE
  2
LAYER
 70
     5
  0
LAYER
  2
0
 70
     0
 62
     7
  6
CONTINUOUS
  0
LAYER
  2
1
 70
     0
 62
     7
  6
CENTER
  0
LAYER
  2
2
 70
     0
 62
     7
  6
CONTINUOUS
  0
LAYER
  2
3
 70
     0
 62
     7
  6
DASHED2
  0
LAYER
  2
DEFPOINTS
 70
     0
 62
     7
  6
CONTINUOUS
  0
ENDTAB
  0
TABLE
  2
STYLE
 70
     3
  0
STYLE
  2
STANDARD
 70
     0
 40
0.0
 41
1.0
 50
0.0
 71
     0
 42
2.5
  3
txt
  4

  0
STYLE
  2
\U+00C9L\U+00C9R_\U+00C2S\U+00C2V\U+00C2B\U+00C2N
 70
     0
 40
1.0
 41
1.0
 50
0.0
 71
     0
 42
1.0
  3
\U+00E9l\U+00E9r \U+00E2S\U+00E2V\U+00E2b\U+00E2N
  4

  0
STYLE
  2

 70
     1
 40
0.0
 41
1.0
 50
0.0
 71
     0
 42
2.5
  3
ltypeshp.shx
  4

  0
ENDTAB
  0
TABLE
  2
VIEW
 70
     0
  0
ENDTAB
  0
TABLE
  2
UCS
 70
     0
  0
ENDTAB
  0
TABLE
  2
APPID
 70
     1
  0
APPID
  2
ACAD
 70
     0
  0
ENDTAB
  0
TABLE
  2
DIMSTYLE
 70
     2
  0
DIMSTYLE
  2
ISO-25
 70
     0
  3

  4

  5

  6

  7

 40
0.5
 41
2.5
 42
0.625
 43
3.75
 44
1.25
 45
0.0
 46
0.0
 47
0.0
 48
0.0
140
2.5
141
2.5
142
0.0
143
0.03937007874016
144
1.0
145
0.0
146
1.0
147
0.625
 71
     0
 72
     0
 73
     0
 74
     0
 75
     0
 76
     0
 77
     1
 78
     8
170
     0
171
     3
172
     1
173
     0
174
     0
175
     0
176
     0
177
     0
178
     0
  0
DIMSTYLE
  2
STANDARD
 70
     0
  3

  4

  5

  6

  7

 40
1.0
 41
0.18
 42
0.0625
 43
0.38
 44
0.18
 45
0.0
 46
0.0
 47
0.0
 48
0.0
140
0.18
141
0.09
142
0.0
143
25.399999999999999
144
1.0
145
0.0
146
1.0
147
0.09
 71
     0
 72
     0
 73
     1
 74
     1
 75
     0
 76
     0
 77
     0
 78
     0
170
     0
171
     2
172
     0
173
     0
174
     0
175
     0
176
     0
177
     0
178
     0
  0
ENDTAB
  0
ENDSEC
  0
SECTION
  2
BLOCKS
  0
BLOCK
  8
0
  2
$MODEL_SPACE
 70
     0
 10
0.0
 20
0.0
 30
0.0
  3
$MODEL_SPACE
  1

  0
ENDBLK
  5
21
  8
0
  0
BLOCK
 67
     1
  8
0
  2
$PAPER_SPACE
 70
     0
 10
0.0
 20
0.0
 30
0.0
  3
$PAPER_SPACE
  1

  0
ENDBLK
  5
1D
 67
     1
  8
0
  0
BLOCK
  8
0
  2
*D2
 70
     1
 10
0.0
 20
0.0
 30
0.0
  3
*D2
  1

  0
LINE
  5
31C
  8
2
 62
     0
 10
93.243399605910326
 20
88.99340989896298
 30
0.0
 11
93.243399605910326
 21
82.493546881721315
 31
0.0
  0
LINE
  5
31D
  8
2
 62
     0
 10
94.443399605910315
 20
88.99340989896298
 30
0.0
 11
94.443399605910315
 21
82.493546881721315
 31
0.0
  0
LINE
  5
31E
  8
2
 62
     0
 10
91.993399605910326
 20
83.118546881721315
 30
0.0
 11
90.743399605910326
 21
83.118546881721315
 31
0.0
  0
LINE
  5
31F
  8
2
 62
     0
 10
95.693399605910315
 20
83.118546881721315
 30
0.0
 11
100.9017329392436
 21
83.118546881721315
 31
0.0
  0
LINE
  5
320
  8
2
 62
     0
 10
93.243399605910326
 20
83.118546881721315
 30
0.0
 11
94.443399605910315
 21
83.118546881721315
 31
0.0
  0
SOLID
  5
321
  8
2
 62
     0
 10
91.993399605910326
 20
83.326880215054658
 30
0.0
 11
91.993399605910326
 21
82.910213548388001
 31
0.0
 12
93.243399605910326
 22
83.118546881721315
 32
0.0
 13
93.243399605910326
 23
83.118546881721315
 33
0.0
  0
SOLID
  5
322
  8
2
 62
     0
 10
95.693399605910315
 20
83.326880215054658
 30
0.0
 11
95.693399605910315
 21
82.910213548388001
 31
0.0
 12
94.443399605910315
 22
83.118546881721315
 32
0.0
 13
94.443399605910315
 23
83.118546881721315
 33
0.0
  0
INSERT
  5
323
  8
2
  2
*U11
 10
0.0
 20
0.0
 30
0.0
  0
POINT
  5
324
  8
DEFPOINTS
 62
     0
 10
93.243399605910326
 20
89.30590989896298
 30
0.0
  0
POINT
  5
325
  8
DEFPOINTS
 62
     0
 10
94.443399605910315
 20
89.30590989896298
 30
0.0
  0
POINT
  5
326
  8
DEFPOINTS
 62
     0
 10
94.443399605910315
 20
83.118546881721315
 30
0.0
  0
ENDBLK
  5
2A7
  8
0
  0
BLOCK
  8
0
  2
*D3
 70
     1
 10
0.0
 20
0.0
 30
0.0
  3
*D3
  1

  0
LINE
  5
2B5
  8
2
 62
     0
 10
91.843399605910321
 20
75.772517478533018
 30
0.0
 11
91.843399605910321
 21
80.840061476630083
 31
0.0
  0
LINE
  5
2B6
  8
2
 62
     0
 10
95.843399605910321
 20
75.772517478533018
 30
0.0
 11
95.843399605910321
 21
80.840061476630083
 31
0.0
  0
LINE
  5
2B7
  8
2
 62
     0
 10
93.093399605910321
 20
80.215061476630083
 30
0.0
 11
94.593399605910321
 21
80.215061476630083
 31
0.0
  0
SOLID
  5
2B8
  8
2
 62
     0
 10
93.093399605910321
 20
80.423394809963426
 30
0.0
 11
93.093399605910321
 21
80.006728143296769
 31
0.0
 12
91.843399605910321
 22
80.215061476630083
 32
0.0
 13
91.843399605910321
 23
80.215061476630083
 33
0.0
  0
SOLID
  5
2B9
  8
2
 62
     0
 10
94.593399605910321
 20
80.423394809963426
 30
0.0
 11
94.593399605910321
 21
80.006728143296769
 31
0.0
 12
95.843399605910321
 22
80.215061476630083
 32
0.0
 13
95.843399605910321
 23
80.215061476630083
 33
0.0
  0
TEXT
  5
2BA
  8
2
 62
     0
 10
93.426732939243649
 20
80.527561476630083
 30
0.0
 40
1.25
  1
4
  0
POINT
  5
2BB
  8
DEFPOINTS
 62
     0
 10
91.843399605910321
 20
75.460017478533018
 30
0.0
  0
POINT
  5
2BC
  8
DEFPOINTS
 62
     0
 10
95.843399605910321
 20
75.460017478533018
 30
0.0
  0
POINT
  5
2BD
  8
DEFPOINTS
 62
     0
 10
95.843399605910321
 20
80.215061476630083
 30
0.0
  0
ENDBLK
  5
2BF
  8
0
  0
BLOCK
  8
0
  2
*D4
 70
     1
 10
0.0
 20
0.0
 30
0.0
  3
*D4
  1

  0
LINE
  5
2C2
  8
2
 62
     0
 10
95.155899605910321
 20
76.460017478533004
 30
0.0
 11
101.2143300840704
 21
76.460017478533004
 31
0.0
  0
LINE
  5
2C3
  8
2
 62
     0
 10
95.155899605910321
 20
74.460017478533004
 30
0.0
 11
101.2143300840704
 21
74.460017478533004
 31
0.0
  0
LINE
  5
2C4
  8
2
 62
     0
 10
100.5893300840704
 20
77.710017478533004
 30
0.0
 11
100.5893300840704
 21
78.960017478533004
 31
0.0
  0
LINE
  5
2C5
  8
2
 62
     0
 10
100.5893300840704
 20
73.210017478533004
 30
0.0
 11
100.5893300840704
 21
71.960017478533004
 31
0.0
  0
LINE
  5
2C6
  8
2
 62
     0
 10
100.5893300840704
 20
76.460017478533004
 30
0.0
 11
100.5893300840704
 21
74.460017478533004
 31
0.0
  0
SOLID
  5
2C7
  8
2
 62
     0
 10
100.3809967507371
 20
77.710017478533004
 30
0.0
 11
100.7976634174037
 21
77.710017478533004
 31
0.0
 12
100.5893300840704
 22
76.460017478533004
 32
0.0
 13
100.5893300840704
 23
76.460017478533004
 33
0.0
  0
SOLID
  5
2C8
  8
2
 62
     0
 10
100.3809967507371
 20
73.210017478533004
 30
0.0
 11
100.7976634174037
 21
73.210017478533004
 31
0.0
 12
100.5893300840704
 22
74.460017478533004
 32
0.0
 13
100.5893300840704
 23
74.460017478533004
 33
0.0
  0
TEXT
  5
2C9
  8
2
 62
     0
 10
100.2768300840704
 20
75.043350811866361
 30
0.0
 40
1.25
  1
2
 50
90.0
  0
POINT
  5
2CA
  8
DEFPOINTS
 62
     0
 10
94.843399605910321
 20
76.460017478533004
 30
0.0
  0
POINT
  5
2CB
  8
DEFPOINTS
 62
     0
 10
94.843399605910321
 20
74.460017478533004
 30
0.0
  0
POINT
  5
2CC
  8
DEFPOINTS
 62
     0
 10
100.5893300840704
 20
74.460017478533004
 30
0.0
  0
ENDBLK
  5
2CE
  8
0
  0
BLOCK
  8
0
  2
*D5
 70
     1
 10
0.0
 20
0.0
 30
0.0
  3
*D5
  1

  0
LINE
  5
2D2
  8
2
 62
     0
 10
96.155899605910321
 20
88.805909898962966
 30
0.0
 11
100.9953381751527
 21
88.805909898962966
 31
0.0
  0
LINE
  5
2D3
  8
2
 62
     0
 10
94.755899605910315
 20
89.30590989896298
 30
0.0
 11
100.9953381751527
 21
89.305909898962966
 31
0.0
  0
LINE
  5
2D4
  8
2
 62
     0
 10
100.3703381751527
 20
87.555909898962966
 30
0.0
 11
100.3703381751527
 21
86.305909898962966
 31
0.0
  0
LINE
  5
2D5
  8
2
 62
     0
 10
100.3703381751527
 20
90.555909898962966
 30
0.0
 11
100.3703381751527
 21
94.722576565629637
 31
0.0
  0
LINE
  5
2D6
  8
2
 62
     0
 10
100.3703381751527
 20
88.805909898962966
 30
0.0
 11
100.3703381751527
 21
89.305909898962966
 31
0.0
  0
SOLID
  5
2D7
  8
2
 62
     0
 10
100.1620048418194
 20
87.555909898962966
 30
0.0
 11
100.578671508486
 21
87.555909898962966
 31
0.0
 12
100.3703381751527
 22
88.805909898962966
 32
0.0
 13
100.3703381751527
 23
88.805909898962966
 33
0.0
  0
SOLID
  5
2D8
  8
2
 62
     0
 10
100.1620048418194
 20
90.555909898962966
 30
0.0
 11
100.578671508486
 21
90.555909898962966
 31
0.0
 12
100.3703381751527
 22
89.305909898962966
 32
0.0
 13
100.3703381751527
 23
89.305909898962966
 33
0.0
  0
TEXT
  5
2D9
  8
2
 62
     0
 10
100.0578381751527
 20
92.118409898962994
 30
0.0
 40
1.25
  1
0.5
 50
90.0
  0
POINT
  5
2DA
  8
DEFPOINTS
 62
     0
 10
95.843399605910321
 20
88.80590989896298
 30
0.0
  0
POINT
  5
2DB
  8
DEFPOINTS
 62
     0
 10
94.443399605910315
 20
89.30590989896298
 30
0.0
  0
POINT
  5
2DC
  8
DEFPOINTS
 62
     0
 10
100.3703381751527
 20
89.305909898962966
 30
0.0
  0
ENDBLK
  5
2DE
  8
0
  0
BLOCK
  8
0
  2
*D6
 70
     1
 10
0.0
 20
0.0
 30
0.0
  3
*D6
  1

  0
LINE
  5
2E1
  8
2
 62
     0
 10
100.6828381751527
 20
88.805909898962966
 30
0.0
 11
103.0744624858963
 21
88.805909898962966
 31
0.0
  0
LINE
  5
2E2
  8
2
 62
     0
 10
97.155899605910321
 20
94.805909898962966
 30
0.0
 11
103.0744624858963
 21
94.805909898962966
 31
0.0
  0
LINE
  5
2E3
  8
2
 62
     0
 10
102.4494624858963
 20
90.055909898962966
 30
0.0
 11
102.4494624858963
 21
93.555909898962966
 31
0.0
  0
SOLID
  5
2E4
  8
2
 62
     0
 10
102.241129152563
 20
90.055909898962966
 30
0.0
 11
102.65779581922961
 21
90.055909898962966
 31
0.0
 12
102.4494624858963
 22
88.805909898962966
 32
0.0
 13
102.4494624858963
 23
88.805909898962966
 33
0.0
  0
SOLID
  5
2E5
  8
2
 62
     0
 10
102.241129152563
 20
93.555909898962966
 30
0.0
 11
102.65779581922961
 21
93.555909898962966
 31
0.0
 12
102.4494624858963
 22
94.805909898962966
 32
0.0
 13
102.4494624858963
 23
94.805909898962966
 33
0.0
  0
TEXT
  5
2E6
  8
2
 62
     0
 10
102.1369624858963
 20
91.389243232296323
 30
0.0
 40
1.25
  1
6
 50
90.0
  0
POINT
  5
2E7
  8
DEFPOINTS
 62
     0
 10
100.3703381751527
 20
88.805909898962966
 30
0.0
  0
POINT
  5
2E8
  8
DEFPOINTS
 62
     0
 10
96.843399605910321
 20
94.805909898962966
 30
0.0
  0
POINT
  5
2E9
  8
DEFPOINTS
 62
     0
 10
102.4494624858963
 20
94.805909898962966
 30
0.0
  0
ENDBLK
  5
2EB
  8
0
  0
BLOCK
  8
0
  2
*D7
 70
     1
 10
0.0
 20
0.0
 30
0.0
  3
*D7
  1

  0
LINE
  5
308
  8
2
 62
     0
 10
92.543399605910324
 20
95.118409898962966
 30
0.0
 11
92.543399605910324
 21
98.696329868958514
 31
0.0
  0
LINE
  5
309
  8
2
 62
     0
 10
95.143399605910318
 20
95.118409898962966
 30
0.0
 11
95.143399605910318
 21
98.696329868958514
 31
0.0
  0
LINE
  5
30A
  8
2
 62
     0
 10
91.293399605910324
 20
98.071329868958514
 30
0.0
 11
90.043399605910324
 21
98.071329868958514
 31
0.0
  0
LINE
  5
30B
  8
2
 62
     0
 10
96.393399605910318
 20
98.071329868958514
 30
0.0
 11
102.0183996059103
 21
98.071329868958514
 31
0.0
  0
LINE
  5
30C
  8
2
 62
     0
 10
92.543399605910324
 20
98.071329868958514
 30
0.0
 11
95.143399605910318
 21
98.071329868958514
 31
0.0
  0
SOLID
  5
30D
  8
2
 62
     0
 10
91.293399605910324
 20
98.279663202291843
 30
0.0
 11
91.293399605910324
 21
97.862996535625186
 31
0.0
 12
92.543399605910324
 22
98.071329868958514
 32
0.0
 13
92.543399605910324
 23
98.071329868958514
 33
0.0
  0
SOLID
  5
30E
  8
2
 62
     0
 10
96.393399605910318
 20
98.279663202291843
 30
0.0
 11
96.393399605910318
 21
97.862996535625186
 31
0.0
 12
95.143399605910318
 22
98.071329868958514
 32
0.0
 13
95.143399605910318
 23
98.071329868958514
 33
0.0
  0
INSERT
  5
30F
  8
2
  2
*U9
 10
0.0
 20
0.0
 30
0.0
  0
POINT
  5
310
  8
DEFPOINTS
 62
     0
 10
92.543399605910324
 20
94.805909898962966
 30
0.0
  0
POINT
  5
311
  8
DEFPOINTS
 62
     0
 10
95.143399605910318
 20
94.805909898962966
 30
0.0
  0
POINT
  5
312
  8
DEFPOINTS
 62
     0
 10
95.143399605910318
 20
98.071329868958514
 30
0.0
  0
ENDBLK
  5
2FA
  8
0
  0
BLOCK
  8
0
  2
*D8
 70
     1
 10
0.0
 20
0.0
 30
0.0
  3
*D8
  1

  0
LINE
  5
313
  8
2
 62
     0
 10
90.843399605910321
 20
95.118409898962966
 30
0.0
 11
90.843399605910321
 21
101.20835436951231
 31
0.0
  0
LINE
  5
314
  8
2
 62
     0
 10
96.843399605910321
 20
95.118409898962966
 30
0.0
 11
96.843399605910321
 21
101.20835436951231
 31
0.0
  0
LINE
  5
315
  8
2
 62
     0
 10
92.093399605910321
 20
100.58335436951241
 30
0.0
 11
95.593399605910321
 21
100.58335436951241
 31
0.0
  0
SOLID
  5
316
  8
2
 62
     0
 10
92.093399605910321
 20
100.79168770284571
 30
0.0
 11
92.093399605910321
 21
100.37502103617901
 31
0.0
 12
90.843399605910321
 22
100.58335436951241
 32
0.0
 13
90.843399605910321
 23
100.58335436951241
 33
0.0
  0
SOLID
  5
317
  8
2
 62
     0
 10
95.593399605910321
 20
100.79168770284571
 30
0.0
 11
95.593399605910321
 21
100.37502103617901
 31
0.0
 12
96.843399605910321
 22
100.58335436951241
 32
0.0
 13
96.843399605910321
 23
100.58335436951241
 33
0.0
  0
INSERT
  5
318
  8
2
  2
*U10
 10
0.0
 20
0.0
 30
0.0
  0
POINT
  5
319
  8
DEFPOINTS
 62
     0
 10
90.843399605910321
 20
94.805909898962966
 30
0.0
  0
POINT
  5
31A
  8
DEFPOINTS
 62
     0
 10
96.843399605910321
 20
94.805909898962966
 30
0.0
  0
POINT
  5
31B
  8
DEFPOINTS
 62
     0
 10
96.843399605910321
 20
100.58335436951241
 30
0.0
  0
ENDBLK
  5
307
  8
0
  0
BLOCK
  8
0
  2
*U9
 70
     1
 10
0.0
 20
0.0
 30
0.0
  3
*U9
  1

  0
TEXT
  5
337
  8
2
 62
     0
 10
97.955899605910318
 20
98.383829868958514
 30
0.0
 40
1.25
  1
\U+2205
  0
TEXT
  5
338
  8
2
 62
     0
 10
99.205899605910318
 20
98.383829868958514
 30
0.0
 40
1.25
  1
2.6
  0
ENDBLK
  5
33A
  8
0
  0
BLOCK
  8
0
  2
*U10
 70
     1
 10
0.0
 20
0.0
 30
0.0
  3
*U10
  1

  0
TEXT
  5
33C
  8
2
 62
     0
 10
92.801732939243649
 20
100.89585436951231
 30
0.0
 40
1.25
  1
\U+2205
  0
TEXT
  5
33D
  8
2
 62
     0
 10
94.051732939243649
 20
100.89585436951231
 30
0.0
 40
1.25
  1
6
  0
ENDBLK
  5
33F
  8
0
  0
BLOCK
  8
0
  2
*U11
 70
     1
 10
0.0
 20
0.0
 30
0.0
  3
*U11
  1

  0
TEXT
  5
341
  8
2
 62
     0
 10
97.255899605910315
 20
83.431046881721315
 30
0.0
 40
1.25
  1
\U+2205
  0
TEXT
  5
342
  8
2
 62
     0
 10
98.505899605910315
 20
83.431046881721315
 30
0.0
 40
1.25
  1
1.2
  0
ENDBLK
  5
344
  8
0
  0
ENDSEC
  0
SECTION
  2
ENTITIES
  0
TEXT
  5
116
  8
2
 10
86.688173584730023
 20
69.263162035140624
 30
0.0
 40
1.2699720000000001
  1
No. 132.4x2.031._
 51
-0.0000015352344868
  7
\U+00C9L\U+00C9R_\U+00C2S\U+00C2V\U+00C2B\U+00C2N
  0
LINE
  5
1FF
  8
0
 39
2.0
 10
90.843399605910321
 20
90.875530237946023
 30
0.0
 11
92.715639605910326
 21
89.807189898962974
 31
0.0
  0
LINE
  5
20E
  8
1
 10
93.843399605910335
 20
78.660017478533021
 30
0.0
 11
93.843399605910335
 21
72.260017478533015
 31
0.0
  0
LINE
  5
22A
  8
0
 10
90.843399605910321
 20
94.805909898962966
 30
0.0
 11
90.843399605910321
 21
90.875530237946023
 31
0.0
  0
LINE
  5
22C
  8
0
 10
93.843399605910335
 20
88.80590989896298
 30
0.0
 11
91.843399605910321
 21
88.80590989896298
 31
0.0
  0
LINE
  5
22F
  8
0
 10
93.843399605910335
 20
89.30590989896298
 30
0.0
 11
93.243399605910326
 21
89.30590989896298
 31
0.0
  0
LINE
  5
234
  8
0
 10
90.843399605910321
 20
94.805909898962966
 30
0.0
 11
93.843399605910335
 21
94.805909898962966
 31
0.0
  0
LINE
  5
238
  8
0
 10
93.243399605910326
 20
90.833349898962979
 30
0.0
 11
93.243399605910326
 21
89.30590989896298
 31
0.0
  0
LINE
  5
23A
  8
0
 10
92.715639605910326
 20
89.807189898962974
 30
0.0
 11
91.843399605910321
 21
88.80590989896298
 31
0.0
  0
LINE
  5
23B
  8
0
 10
93.243399605910326
 20
89.30590989896298
 30
0.0
 11
91.843399605910321
 21
88.80590989896298
 31
0.0
  0
LINE
  5
242
  8
0
 10
92.543399605910324
 20
94.805909898962966
 30
0.0
 11
92.543399605910324
 21
91.371829898962986
 31
0.0
  0
LINE
  5
245
  8
0
 39
2.0
 10
96.843399605910321
 20
90.875530237946023
 30
0.0
 11
94.971159605910316
 21
89.807189898962974
 31
0.0
  0
LINE
  5
24C
  8
3
 10
94.443399605910315
 20
90.833349898962979
 30
0.0
 11
94.443399605910315
 21
89.30590989896298
 31
0.0
  0
LINE
  5
24D
  8
3
 10
94.443399605910315
 20
89.30590989896298
 30
0.0
 11
95.843399605910321
 21
88.80590989896298
 31
0.0
  0
LINE
  5
24E
  8
0
 10
94.971159605910316
 20
89.807189898962974
 30
0.0
 11
95.843399605910321
 21
88.80590989896298
 31
0.0
  0
LINE
  5
24F
  8
3
 10
93.843399605910335
 20
89.30590989896298
 30
0.0
 11
94.443399605910315
 21
89.30590989896298
 31
0.0
  0
LINE
  5
250
  8
0
 10
93.843399605910335
 20
88.80590989896298
 30
0.0
 11
95.843399605910321
 21
88.80590989896298
 31
0.0
  0
LINE
  5
251
  8
0
 10
96.843399605910321
 20
94.805909898962966
 30
0.0
 11
93.843399605910335
 21
94.805909898962966
 31
0.0
  0
LINE
  5
252
  8
0
 10
96.843399605910321
 20
94.805909898962966
 30
0.0
 11
96.843399605910321
 21
90.875530237946023
 31
0.0
  0
LINE
  5
253
  8
3
 10
95.143399605910318
 20
94.805909898962966
 30
0.0
 11
95.143399605910318
 21
91.371829898962986
 31
0.0
  0
LINE
  5
25C
  8
0
 10
91.843399605910321
 20
91.371829898962986
 30
0.0
 11
91.843399605910321
 21
90.833349898962979
 31
0.0
  0
LINE
  5
25D
  8
3
 10
95.843399605910321
 20
91.371829898962986
 30
0.0
 11
95.843399605910321
 21
90.833349898962979
 31
0.0
  0
LINE
  5
267
  8
0
 10
93.843399605910335
 20
91.371829898962986
 30
0.0
 11
91.843399605910321
 21
91.371829898962986
 31
0.0
  0
LINE
  5
268
  8
0
 10
93.843399605910335
 20
90.833349898962979
 30
0.0
 11
91.843399605910321
 21
90.833349898962979
 31
0.0
  0
LINE
  5
26A
  8
3
 10
95.843399605910321
 20
91.371829898962986
 30
0.0
 11
93.843399605910335
 21
91.371829898962986
 31
0.0
  0
LINE
  5
26E
  8
3
 10
93.843399605910335
 20
90.833349898962979
 30
0.0
 11
95.843399605910321
 21
90.833349898962979
 31
0.0
  0
LINE
  5
272
  8
1
 10
97.043399605910324
 20
75.460017478533018
 30
0.0
 11
90.643399605910318
 21
75.460017478533018
 31
0.0
  0
CIRCLE
  5
273
  8
0
 10
93.843399605910335
 20
75.460017478533018
 30
0.0
 40
3.0
  0
CIRCLE
  5
277
  8
0
 10
93.843399605910335
 20
75.460017478533018
 30
0.0
 40
0.6
  0
LINE
  5
279
  8
0
 10
94.843399605910321
 20
76.460017478533004
 30
0.0
 11
92.843399605910307
 21
76.460017478533004
 31
0.0
  0
LINE
  5
27A
  8
0
 10
94.843399605910321
 20
74.460017478533004
 30
0.0
 11
92.843399605910307
 21
74.460017478533004
 31
0.0
  0
ARC
  5
27E
  8
0
 10
92.843399605910307
 20
75.460017478533018
 30
0.0
 40
1.0
 50
90.0
 51
270.0
  0
ARC
  5
283
  8
0
 10
94.843399605910321
 20
75.460017478533018
 30
0.0
 40
1.0
 50
270.0
 51
90.0
  0
LINE
  5
291
  8
1
 10
93.843399605910335
 20
88.605909898962977
 30
0.0
 11
93.843399605910335
 21
95.005909898962983
 31
0.0
  0
DIMENSION
  5
299
  8
2
  2
*D2
 10
94.443399605910315
 20
83.118546881721315
 30
0.0
 11
98.922566272576987
 21
84.056046881721315
 31
0.0
 70
     0
  1
%%c<>
 13
93.243399605910326
 23
89.30590989896298
 33
0.0
 14
94.443399605910315
 24
89.30590989896298
 34
0.0
  0
DIMENSION
  5
2B3
  8
2
  2
*D3
 10
95.843399605910321
 20
80.215061476630083
 30
0.0
 11
93.843399605910335
 21
81.152561476630083
 31
0.0
 70
     0
 13
91.843399605910321
 23
75.460017478533018
 33
0.0
 14
95.843399605910321
 24
75.460017478533018
 34
0.0
  0
DIMENSION
  5
2C0
  8
2
  2
*D4
 10
100.5893300840704
 20
74.460017478533004
 30
0.0
 11
99.651830084070454
 21
75.460017478533032
 31
0.0
 70
     0
 13
94.843399605910321
 23
76.460017478533004
 33
0.0
 14
94.843399605910321
 24
74.460017478533004
 34
0.0
 50
90.0
  0
DIMENSION
  5
2D0
  8
2
  2
*D5
 10
100.3703381751527
 20
89.305909898962966
 30
0.0
 11
99.432838175152753
 21
93.264243232296323
 31
0.0
 70
     0
 13
95.843399605910321
 23
88.80590989896298
 33
0.0
 14
94.443399605910315
 24
89.30590989896298
 34
0.0
 50
90.0
  0
DIMENSION
  5
2DF
  8
2
  2
*D6
 10
102.4494624858963
 20
94.805909898962966
 30
0.0
 11
101.5119624858963
 21
91.805909898962994
 31
0.0
 70
     0
 13
100.3703381751527
 23
88.805909898962966
 33
0.0
 14
96.843399605910321
 24
94.805909898962966
 34
0.0
 50
90.0
  0
DIMENSION
  5
2EC
  8
2
  2
*D7
 10
95.143399605910318
 20
98.071329868958514
 30
0.0
 11
99.830899605910318
 21
99.008829868958514
 31
0.0
 70
     0
  1
%%c<>
 13
92.543399605910324
 23
94.805909898962966
 33
0.0
 14
95.143399605910318
 24
94.805909898962966
 34
0.0
  0
DIMENSION
  5
2FB
  8
2
  2
*D8
 10
96.843399605910321
 20
100.58335436951241
 30
0.0
 11
93.843399605910335
 21
101.52085436951231
 31
0.0
 70
     0
  1
%%c<>
 13
90.843399605910321
 23
94.805909898962966
 33
0.0
 14
96.843399605910321
 24
94.805909898962966
 34
0.0
  0
ENDSEC
  0
EOF
