  0
SECTION
  2
HEADER
  9
$ACADVER
  1
AC1009
  9
$INSBASE
 10
0.0
 20
0.0
 30
0.0
  9
$EXTMIN
 10
80.117611564948746
 20
74.005040933020439
 30
0.0
  9
$EXTMAX
 10
99.53472504332747
 20
106.113093936265
 30
1.75
  9
$LIMMIN
 10
0.0
 20
0.0
  9
$LIMMAX
 10
420.0
 20
297.0
  9
$ORTHOMODE
 70
     0
  9
$REGENMODE
 70
     1
  9
$FILLMODE
 70
     1
  9
$QTEXTMODE
 70
     0
  9
$MIRRTEXT
 70
     1
  9
$DRAGMODE
 70
     2
  9
$LTSCALE
 40
0.3
  9
$OSMODE
 70
    37
  9
$ATTMODE
 70
     1
  9
$TEXTSIZE
 40
2.5
  9
$TRACEWID
 40
1.0
  9
$TEXTSTYLE
  7
STANDARD
  9
$CLAYER
  8
2
  9
$CELTYPE
  6
BYLAYER
  9
$CECOLOR
 62
   256
  9
$DIMSCALE
 40
0.5
  9
$DIMASZ
 40
2.5
  9
$DIMEXO
 40
0.625
  9
$DIMDLI
 40
3.75
  9
$DIMRND
 40
0.0
  9
$DIMDLE
 40
0.0
  9
$DIMEXE
 40
1.25
  9
$DIMTP
 40
0.0
  9
$DIMTM
 40
0.0
  9
$DIMTXT
 40
2.5
  9
$DIMCEN
 40
2.5
  9
$DIMTSZ
 40
0.0
  9
$DIMTOL
 70
     0
  9
$DIMLIM
 70
     0
  9
$DIMTIH
 70
     0
  9
$DIMTOH
 70
     0
  9
$DIMSE1
 70
     0
  9
$DIMSE2
 70
     0
  9
$DIMTAD
 70
     1
  9
$DIMZIN
 70
     8
  9
$DIMBLK
  1

  9
$DIMASO
 70
     1
  9
$DIMSHO
 70
     1
  9
$DIMPOST
  1

  9
$DIMAPOST
  1

  9
$DIMALT
 70
     0
  9
$DIMALTD
 70
     3
  9
$DIMALTF
 40
0.03937007874016
  9
$DIMLFAC
 40
1.0
  9
$DIMTOFL
 70
     1
  9
$DIMTVP
 40
0.0
  9
$DIMTIX
 70
     0
  9
$DIMSOXD
 70
     0
  9
$DIMSAH
 70
     0
  9
$DIMBLK1
  1

  9
$DIMBLK2
  1

  9
$DIMSTYLE
  2
ISO-25
  9
$DIMCLRD
 70
     0
  9
$DIMCLRE
 70
     0
  9
$DIMCLRT
 70
     0
  9
$DIMTFAC
 40
1.0
  9
$DIMGAP
 40
0.625
  9
$LUNITS
 70
     2
  9
$LUPREC
 70
     4
  9
$SKETCHINC
 40
1.0
  9
$FILLETRAD
 40
10.0
  9
$AUNITS
 70
     0
  9
$AUPREC
 70
     0
  9
$MENU
  1
.
  9
$ELEVATION
 40
0.0
  9
$PELEVATION
 40
0.0
  9
$THICKNESS
 40
0.0
  9
$LIMCHECK
 70
     0
  9
$BLIPMODE
 70
     0
  9
$CHAMFERA
 40
10.0
  9
$CHAMFERB
 40
10.0
  9
$SKPOLY
 70
     0
  9
$TDCREATE
 40
2453437.8778499989
  9
$TDUPDATE
 40
2453551.9053768399
  9
$TDINDWG
 40
0.0183613542
  9
$TDUSRTIMER
 40
0.0183612384
  9
$USRTIMER
 70
     1
  9
$ANGBASE
 50
0.0
  9
$ANGDIR
 70
     0
  9
$PDMODE
 70
     0
  9
$PDSIZE
 40
0.0
  9
$PLINEWID
 40
0.0
  9
$COORDS
 70
     1
  9
$SPLFRAME
 70
     0
  9
$SPLINETYPE
 70
     6
  9
$SPLINESEGS
 70
     8
  9
$ATTDIA
 70
     0
  9
$ATTREQ
 70
     1
  9
$HANDLING
 70
-16383
  9
$HANDSEED
  5
335
  9
$SURFTAB1
 70
     6
  9
$SURFTAB2
 70
     6
  9
$SURFTYPE
 70
     6
  9
$SURFU
 70
     6
  9
$SURFV
 70
     6
  9
$UCSNAME
  2

  9
$UCSORG
 10
0.0
 20
0.0
 30
0.0
  9
$UCSXDIR
 10
1.0
 20
0.0
 30
0.0
  9
$UCSYDIR
 10
0.0
 20
1.0
 30
0.0
  9
$PUCSNAME
  2

  9
$PUCSORG
 10
0.0
 20
0.0
 30
0.0
  9
$PUCSXDIR
 10
1.0
 20
0.0
 30
0.0
  9
$PUCSYDIR
 10
0.0
 20
1.0
 30
0.0
  9
$USERI1
 70
     0
  9
$USERI2
 70
     0
  9
$USERI3
 70
     0
  9
$USERI4
 70
     0
  9
$USERI5
 70
     0
  9
$USERR1
 40
0.0
  9
$USERR2
 40
0.0
  9
$USERR3
 40
0.0
  9
$USERR4
 40
0.0
  9
$USERR5
 40
0.0
  9
$WORLDVIEW
 70
     1
  9
$SHADEDGE
 70
     3
  9
$SHADEDIF
 70
    70
  9
$TILEMODE
 70
     1
  9
$MAXACTVP
 70
    64
  9
$PLIMCHECK
 70
     0
  9
$PEXTMIN
 10
1.0000000000000000E+020
 20
1.0000000000000000E+020
 30
1.0000000000000000E+020
  9
$PEXTMAX
 10
-1.0000000000000000E+020
 20
-1.0000000000000000E+020
 30
-1.0000000000000000E+020
  9
$PLIMMIN
 10
0.0
 20
0.0
  9
$PLIMMAX
 10
420.0
 20
297.0
  9
$UNITMODE
 70
     0
  9
$VISRETAIN
 70
     1
  9
$PLINEGEN
 70
     0
  9
$PSLTSCALE
 70
     1
  0
ENDSEC
  0
SECTION
  2
TABLES
  0
TABLE
  2
VPORT
 70
     2
  0
VPORT
  2
*ACTIVE
 70
     0
 10
0.0
 20
0.0
 11
1.0
 21
1.0
 12
93.561385000094731
 22
90.727209681481597
 13
0.0
 23
0.0
 14
10.0
 24
10.0
 15
10.0
 25
10.0
 16
0.0
 26
0.0
 36
1.0
 17
0.0
 27
0.0
 37
0.0
 40
41.659653630080903
 41
2.5392405063291141
 42
50.0
 43
0.0
 44
0.0
 50
0.0
 51
0.0
 71
     0
 72
   100
 73
     1
 74
     3
 75
     0
 76
     0
 77
     0
 78
     0
  0
ENDTAB
  0
TABLE
  2
LTYPE
 70
     7
  0
LTYPE
  2
CONTINUOUS
 70
     0
  3
Solid line
 72
    65
 73
     0
 40
0.0
  0
LTYPE
  2
NEW_LINE3
 70
     0
  3

 72
    65
 73
     2
 40
1.0
 49
0.5
 49
-0.5
  0
LTYPE
  2
NEW_LINE4
 70
     0
  3

 72
    65
 73
     2
 40
1.0
 49
0.5
 49
-0.5
  0
LTYPE
  2
NEW_LINE7
 70
     0
  3

 72
    65
 73
     8
 40
3.0
 49
0.1
 49
-0.5
 49
0.1
 49
-0.5
 49
0.4
 49
-0.5
 49
0.4
 49
-0.5
  0
LTYPE
  2
NEW_LINE10
 70
     0
  3

 72
    65
 73
     8
 40
3.0
 49
0.1
 49
-0.5
 49
0.1
 49
-0.5
 49
0.4
 49
-0.5
 49
0.4
 49
-0.5
  0
LTYPE
  2
CENTER
 70
     0
  3
Center ____ _ ____ _ ____ _ ____ _ ____ _ ____
 72
    65
 73
     4
 40
50.799999999999997
 49
31.75
 49
-6.3499999999999988
 49
6.3499999999999988
 49
-6.3499999999999988
  0
LTYPE
  2
DASHED2
 70
     0
  3
Dashed (.5x) _ _ _ _ _ _ _ _ _ _ _ _ _ _ _ _ _
 72
    65
 73
     2
 40
9.5249999999999986
 49
6.3499999999999988
 49
-3.1749999999999989
  0
ENDTAB
  0
TABLE
  2
LAYER
 70
     5
  0
LAYER
  2
0
 70
     0
 62
     7
  6
CONTINUOUS
  0
LAYER
  2
1
 70
     0
 62
     7
  6
CENTER
  0
LAYER
  2
2
 70
     0
 62
     7
  6
CONTINUOUS
  0
LAYER
  2
3
 70
     0
 62
     7
  6
DASHED2
  0
LAYER
  2
DEFPOINTS
 70
     0
 62
     7
  6
CONTINUOUS
  0
ENDTAB
  0
TABLE
  2
STYLE
 70
     3
  0
STYLE
  2
STANDARD
 70
     0
 40
0.0
 41
1.0
 50
0.0
 71
     0
 42
2.5
  3
txt
  4

  0
STYLE
  2
\U+00C9L\U+00C9R_\U+00C2S\U+00C2V\U+00C2B\U+00C2N
 70
     0
 40
1.0
 41
1.0
 50
0.0
 71
     0
 42
1.0
  3
\U+00E9l\U+00E9r \U+00E2S\U+00E2V\U+00E2b\U+00E2N
  4

  0
STYLE
  2

 70
     1
 40
0.0
 41
1.0
 50
0.0
 71
     0
 42
2.5
  3
ltypeshp.shx
  4

  0
ENDTAB
  0
TABLE
  2
VIEW
 70
     0
  0
ENDTAB
  0
TABLE
  2
UCS
 70
     0
  0
ENDTAB
  0
TABLE
  2
APPID
 70
     1
  0
APPID
  2
ACAD
 70
     0
  0
ENDTAB
  0
TABLE
  2
DIMSTYLE
 70
     2
  0
DIMSTYLE
  2
ISO-25
 70
     0
  3

  4

  5

  6

  7

 40
0.5
 41
2.5
 42
0.625
 43
3.75
 44
1.25
 45
0.0
 46
0.0
 47
0.0
 48
0.0
140
2.5
141
2.5
142
0.0
143
0.03937007874016
144
1.0
145
0.0
146
1.0
147
0.625
 71
     0
 72
     0
 73
     0
 74
     0
 75
     0
 76
     0
 77
     1
 78
     8
170
     0
171
     3
172
     1
173
     0
174
     0
175
     0
176
     0
177
     0
178
     0
  0
DIMSTYLE
  2
STANDARD
 70
     0
  3

  4

  5

  6

  7

 40
1.0
 41
0.18
 42
0.0625
 43
0.38
 44
0.18
 45
0.0
 46
0.0
 47
0.0
 48
0.0
140
0.18
141
0.09
142
0.0
143
25.399999999999999
144
1.0
145
0.0
146
1.0
147
0.09
 71
     0
 72
     0
 73
     1
 74
     1
 75
     0
 76
     0
 77
     0
 78
     0
170
     0
171
     2
172
     0
173
     0
174
     0
175
     0
176
     0
177
     0
178
     0
  0
ENDTAB
  0
ENDSEC
  0
SECTION
  2
BLOCKS
  0
BLOCK
  8
0
  2
$MODEL_SPACE
 70
     0
 10
0.0
 20
0.0
 30
0.0
  3
$MODEL_SPACE
  1

  0
ENDBLK
  5
21
  8
0
  0
BLOCK
 67
     1
  8
0
  2
$PAPER_SPACE
 70
     0
 10
0.0
 20
0.0
 30
0.0
  3
$PAPER_SPACE
  1

  0
ENDBLK
  5
1D
 67
     1
  8
0
  0
BLOCK
  8
0
  2
*D1
 70
     1
 10
0.0
 20
0.0
 30
0.0
  3
*D1
  1

  0
LINE
  5
2FE
  8
2
 62
     0
 10
86.532742390437875
 20
98.463632636768878
 30
0.0
 11
86.532742390437875
 21
103.02959927742749
 31
0.0
  0
LINE
  5
2FF
  8
2
 62
     0
 10
88.032742390437889
 20
98.463632636768878
 30
0.0
 11
88.032742390437889
 21
103.02959927742749
 31
0.0
  0
LINE
  5
300
  8
2
 62
     0
 10
85.282742390437875
 20
102.40459927742749
 30
0.0
 11
84.032742390437875
 21
102.40459927742749
 31
0.0
  0
LINE
  5
301
  8
2
 62
     0
 10
89.282742390437889
 20
102.40459927742749
 30
0.0
 11
94.491075723771203
 21
102.40459927742749
 31
0.0
  0
LINE
  5
302
  8
2
 62
     0
 10
86.532742390437875
 20
102.40459927742749
 30
0.0
 11
88.032742390437889
 21
102.40459927742749
 31
0.0
  0
SOLID
  5
303
  8
2
 62
     0
 10
85.282742390437875
 20
102.61293261076079
 30
0.0
 11
85.282742390437875
 21
102.19626594409409
 31
0.0
 12
86.532742390437875
 22
102.40459927742749
 32
0.0
 13
86.532742390437875
 23
102.40459927742749
 33
0.0
  0
SOLID
  5
304
  8
2
 62
     0
 10
89.282742390437889
 20
102.61293261076079
 30
0.0
 11
89.282742390437889
 21
102.19626594409409
 31
0.0
 12
88.032742390437889
 22
102.40459927742749
 32
0.0
 13
88.032742390437889
 23
102.40459927742749
 33
0.0
  0
INSERT
  5
305
  8
2
  2
*U8
 10
0.0
 20
0.0
 30
0.0
  0
POINT
  5
306
  8
DEFPOINTS
 62
     0
 10
86.532742390437875
 20
98.151132636768878
 30
0.0
  0
POINT
  5
307
  8
DEFPOINTS
 62
     0
 10
88.032742390437889
 20
98.151132636768878
 30
0.0
  0
POINT
  5
308
  8
DEFPOINTS
 62
     0
 10
88.032742390437889
 20
102.40459927742749
 30
0.0
  0
ENDBLK
  5
2AD
  8
0
  0
BLOCK
  8
0
  2
*D2
 70
     1
 10
0.0
 20
0.0
 30
0.0
  3
*D2
  1

  0
LINE
  5
2F4
  8
2
 62
     0
 10
85.532742390437889
 20
98.463632636768878
 30
0.0
 11
85.532742390437889
 21
105.175593936265
 31
0.0
  0
LINE
  5
2F5
  8
2
 62
     0
 10
89.032742390437875
 20
98.463632636768878
 30
0.0
 11
89.032742390437875
 21
105.175593936265
 31
0.0
  0
LINE
  5
2F6
  8
2
 62
     0
 10
86.782742390437889
 20
104.550593936265
 30
0.0
 11
87.782742390437875
 21
104.550593936265
 31
0.0
  0
LINE
  5
2F7
  8
2
 62
     0
 10
89.032742390437875
 20
104.550593936265
 30
0.0
 11
94.657742390437875
 21
104.550593936265
 31
0.0
  0
SOLID
  5
2F8
  8
2
 62
     0
 10
86.782742390437889
 20
104.7589272695983
 30
0.0
 11
86.782742390437889
 21
104.3422606029317
 31
0.0
 12
85.532742390437889
 22
104.550593936265
 32
0.0
 13
85.532742390437889
 23
104.550593936265
 33
0.0
  0
SOLID
  5
2F9
  8
2
 62
     0
 10
87.782742390437875
 20
104.7589272695983
 30
0.0
 11
87.782742390437875
 21
104.3422606029317
 31
0.0
 12
89.032742390437875
 22
104.550593936265
 32
0.0
 13
89.032742390437875
 23
104.550593936265
 33
0.0
  0
INSERT
  5
2FA
  8
2
  2
*U7
 10
0.0
 20
0.0
 30
0.0
  0
POINT
  5
2FB
  8
DEFPOINTS
 62
     0
 10
85.532742390437889
 20
98.151132636768878
 30
0.0
  0
POINT
  5
2FC
  8
DEFPOINTS
 62
     0
 10
89.032742390437875
 20
98.151132636768878
 30
0.0
  0
POINT
  5
2FD
  8
DEFPOINTS
 62
     0
 10
89.032742390437875
 20
104.550593936265
 30
0.0
  0
ENDBLK
  5
2BA
  8
0
  0
BLOCK
  8
0
  2
*D3
 70
     1
 10
0.0
 20
0.0
 30
0.0
  3
*D3
  1

  0
LINE
  5
2BD
  8
2
 62
     0
 10
89.345242390437875
 20
98.151132636768878
 30
0.0
 11
97.036907903891347
 21
98.151132636768864
 31
0.0
  0
LINE
  5
2BE
  8
2
 62
     0
 10
90.733622390437887
 20
96.151132636768892
 30
0.0
 11
97.036907903891347
 21
96.151132636768864
 31
0.0
  0
LINE
  5
2BF
  8
2
 62
     0
 10
96.411907903891347
 20
99.401132636768864
 30
0.0
 11
96.411907903891347
 21
100.65113263676881
 31
0.0
  0
LINE
  5
2C0
  8
2
 62
     0
 10
96.411907903891333
 20
94.901132636768864
 30
0.0
 11
96.411907903891333
 21
93.651132636768864
 31
0.0
  0
LINE
  5
2C1
  8
2
 62
     0
 10
96.411907903891347
 20
98.151132636768864
 30
0.0
 11
96.411907903891347
 21
96.151132636768864
 31
0.0
  0
SOLID
  5
2C2
  8
2
 62
     0
 10
96.203574570558033
 20
99.401132636768864
 30
0.0
 11
96.620241237224676
 21
99.401132636768864
 31
0.0
 12
96.411907903891347
 22
98.151132636768864
 32
0.0
 13
96.411907903891347
 23
98.151132636768864
 33
0.0
  0
SOLID
  5
2C3
  8
2
 62
     0
 10
96.203574570558004
 20
94.901132636768864
 30
0.0
 11
96.620241237224676
 21
94.901132636768864
 31
0.0
 12
96.411907903891347
 22
96.151132636768864
 32
0.0
 13
96.411907903891347
 23
96.151132636768864
 33
0.0
  0
TEXT
  5
2C4
  8
2
 62
     0
 10
96.099407903891304
 20
96.734465970102221
 30
0.0
 40
1.25
  1
2
 50
90.0
  0
POINT
  5
2C5
  8
DEFPOINTS
 62
     0
 10
89.032742390437875
 20
98.151132636768878
 30
0.0
  0
POINT
  5
2C6
  8
DEFPOINTS
 62
     0
 10
90.421122390437887
 20
96.151132636768892
 30
0.0
  0
POINT
  5
2C7
  8
DEFPOINTS
 62
     0
 10
96.411907903891347
 20
96.151132636768864
 30
0.0
  0
ENDBLK
  5
2C9
  8
0
  0
BLOCK
  8
0
  2
*D4
 70
     1
 10
0.0
 20
0.0
 30
0.0
  3
*D4
  1

  0
LINE
  5
2CC
  8
2
 62
     0
 10
96.724407903891347
 20
98.151132636768864
 30
0.0
 11
99.53472504332747
 21
98.151132636768864
 31
0.0
  0
LINE
  5
2CD
  8
2
 62
     0
 10
90.744911799918896
 20
93.651132636768864
 30
0.0
 11
99.534725043327455
 21
93.65113263676885
 31
0.0
  0
LINE
  5
2CE
  8
2
 62
     0
 10
98.90972504332747
 20
96.901132636768864
 30
0.0
 11
98.909725043327455
 21
94.90113263676885
 31
0.0
  0
SOLID
  5
2CF
  8
2
 62
     0
 10
98.701391709994155
 20
96.901132636768864
 30
0.0
 11
99.118058376660784
 21
96.901132636768864
 31
0.0
 12
98.90972504332747
 22
98.151132636768864
 32
0.0
 13
98.90972504332747
 23
98.151132636768864
 33
0.0
  0
SOLID
  5
2D0
  8
2
 62
     0
 10
98.701391709994127
 20
94.90113263676885
 30
0.0
 11
99.118058376660784
 21
94.90113263676885
 31
0.0
 12
98.909725043327455
 22
93.65113263676885
 32
0.0
 13
98.909725043327455
 23
93.65113263676885
 33
0.0
  0
TEXT
  5
2D1
  8
2
 62
     0
 10
98.597225043327441
 20
94.651132636768878
 30
0.0
 40
1.25
  1
4.5
 50
90.0
  0
POINT
  5
2D2
  8
DEFPOINTS
 62
     0
 10
96.411907903891347
 20
98.151132636768864
 30
0.0
  0
POINT
  5
2D3
  8
DEFPOINTS
 62
     0
 10
90.432411799918896
 20
93.651132636768864
 30
0.0
  0
POINT
  5
2D4
  8
DEFPOINTS
 62
     0
 10
98.909725043327455
 20
93.65113263676885
 30
0.0
  0
ENDBLK
  5
2D6
  8
0
  0
BLOCK
  8
0
  2
*D5
 70
     1
 10
0.0
 20
0.0
 30
0.0
  3
*D5
  1

  0
LINE
  5
2DA
  8
2
 62
     0
 10
83.782742390437875
 20
80.916214374563936
 30
0.0
 11
83.782742390437875
 21
85.826848013940918
 31
0.0
  0
LINE
  5
2DB
  8
2
 62
     0
 10
90.782742390437889
 20
80.916214374563936
 30
0.0
 11
90.782742390437889
 21
85.826848013940918
 31
0.0
  0
LINE
  5
2DC
  8
2
 62
     0
 10
85.032742390437875
 20
85.201848013940918
 30
0.0
 11
89.532742390437889
 21
85.201848013940918
 31
0.0
  0
SOLID
  5
2DD
  8
2
 62
     0
 10
85.032742390437875
 20
85.410181347274246
 30
0.0
 11
85.032742390437875
 21
84.993514680607575
 31
0.0
 12
83.782742390437875
 22
85.201848013940918
 32
0.0
 13
83.782742390437875
 23
85.201848013940918
 33
0.0
  0
SOLID
  5
2DE
  8
2
 62
     0
 10
89.532742390437889
 20
85.410181347274246
 30
0.0
 11
89.532742390437889
 21
84.993514680607575
 31
0.0
 12
90.782742390437889
 22
85.201848013940918
 32
0.0
 13
90.782742390437889
 23
85.201848013940918
 33
0.0
  0
TEXT
  5
2DF
  8
2
 62
     0
 10
86.866075723771218
 20
85.514348013940918
 30
0.0
 40
1.25
  1
7
  0
POINT
  5
2E0
  8
DEFPOINTS
 62
     0
 10
83.782742390437875
 20
80.603714374563936
 30
0.0
  0
POINT
  5
2E1
  8
DEFPOINTS
 62
     0
 10
90.782742390437889
 20
80.603714374563936
 30
0.0
  0
POINT
  5
2E2
  8
DEFPOINTS
 62
     0
 10
90.782742390437889
 20
85.201848013940918
 30
0.0
  0
ENDBLK
  5
2E4
  8
0
  0
BLOCK
  8
0
  2
*D6
 70
     1
 10
0.0
 20
0.0
 30
0.0
  3
*D6
  1

  0
LINE
  5
2E7
  8
2
 62
     0
 10
89.345242390437875
 20
82.353714374563936
 30
0.0
 11
97.385440443029552
 21
82.353714374563907
 31
0.0
  0
LINE
  5
2E8
  8
2
 62
     0
 10
89.345242390437875
 20
78.853714374563936
 30
0.0
 11
97.385440443029552
 21
78.853714374563921
 31
0.0
  0
LINE
  5
2E9
  8
2
 62
     0
 10
96.760440443029552
 20
81.103714374563907
 30
0.0
 11
96.760440443029552
 21
80.103714374563921
 31
0.0
  0
SOLID
  5
2EA
  8
2
 62
     0
 10
96.552107109696223
 20
81.103714374563907
 30
0.0
 11
96.968773776362895
 21
81.103714374563907
 31
0.0
 12
96.760440443029552
 22
82.353714374563907
 32
0.0
 13
96.760440443029552
 23
82.353714374563907
 33
0.0
  0
SOLID
  5
2EB
  8
2
 62
     0
 10
96.552107109696223
 20
80.103714374563921
 30
0.0
 11
96.968773776362895
 21
80.103714374563921
 31
0.0
 12
96.760440443029552
 22
78.853714374563921
 32
0.0
 13
96.760440443029552
 23
78.853714374563921
 33
0.0
  0
TEXT
  5
2EC
  8
2
 62
     0
 10
96.447940443029552
 20
79.35371437456395
 30
0.0
 40
1.25
  1
3.5
 50
90.0
  0
POINT
  5
2ED
  8
DEFPOINTS
 62
     0
 10
89.032742390437875
 20
82.353714374563936
 30
0.0
  0
POINT
  5
2EE
  8
DEFPOINTS
 62
     0
 10
89.032742390437875
 20
78.853714374563936
 30
0.0
  0
POINT
  5
2EF
  8
DEFPOINTS
 62
     0
 10
96.760440443029552
 20
78.853714374563921
 30
0.0
  0
ENDBLK
  5
2F1
  8
0
  0
BLOCK
  8
0
  2
*U7
 70
     1
 10
0.0
 20
0.0
 30
0.0
  3
*U7
  1

  0
TEXT
  5
32C
  8
2
 62
     0
 10
90.595242390437875
 20
104.863093936265
 30
0.0
 40
1.25
  1
\U+2205
  0
TEXT
  5
32D
  8
2
 62
     0
 10
91.845242390437875
 20
104.863093936265
 30
0.0
 40
1.25
  1
3.5
  0
ENDBLK
  5
32F
  8
0
  0
BLOCK
  8
0
  2
*U8
 70
     1
 10
0.0
 20
0.0
 30
0.0
  3
*U8
  1

  0
TEXT
  5
331
  8
2
 62
     0
 10
90.845242390437889
 20
102.71709927742749
 30
0.0
 40
1.25
  1
\U+2205
  0
TEXT
  5
332
  8
2
 62
     0
 10
92.095242390437889
 20
102.71709927742749
 30
0.0
 40
1.25
  1
1.5
  0
ENDBLK
  5
334
  8
0
  0
ENDSEC
  0
SECTION
  2
ENTITIES
  0
TEXT
  5
124
  8
2
 10
80.117611598977533
 20
74.125990647306097
 30
0.0
 40
1.2699720000000001
  1
No. 132.7x4.002._
 51
-0.0000015352344868
  7
\U+00C9L\U+00C9R_\U+00C2S\U+00C2V\U+00C2B\U+00C2N
  0
LINE
  5
185
  8
0
 39
1.75
 10
87.282742390437889
 20
94.346212636768882
 30
0.0
 11
84.544062390437887
 21
94.346212636768882
 31
0.0
  0
LINE
  5
18C
  8
0
 39
1.75
 10
84.144362390437891
 20
96.151132636768892
 30
0.0
 11
84.144362390437891
 21
95.714957636768872
 31
0.0
  0
LINE
  5
18D
  8
0
 39
1.75
 10
84.144362390437891
 20
95.714957636768872
 30
0.0
 11
84.144362390437891
 21
95.714957636768872
 31
0.0
  0
LINE
  5
18E
  8
0
 39
1.75
 10
84.144362390437891
 20
95.714957636768872
 30
0.0
 11
84.231512390437885
 21
95.60260763676888
 31
0.0
  0
LINE
  5
18F
  8
0
 39
1.75
 10
84.231512390437885
 20
95.60260763676888
 30
0.0
 11
84.300602390437874
 21
95.493722636768879
 31
0.0
  0
LINE
  5
190
  8
0
 39
1.75
 10
84.300602390437874
 20
95.493722636768879
 30
0.0
 11
84.352437390437885
 21
95.387602636768875
 31
0.0
  0
LINE
  5
191
  8
0
 39
1.75
 10
84.352437390437885
 20
95.387602636768875
 30
0.0
 11
84.387647390437877
 21
95.283687636768875
 31
0.0
  0
LINE
  5
192
  8
0
 39
1.75
 10
84.387647390437877
 20
95.283687636768875
 30
0.0
 11
84.407107390437901
 21
95.181277636768883
 31
0.0
  0
LINE
  5
193
  8
0
 39
1.75
 10
84.407107390437901
 20
95.181277636768883
 30
0.0
 11
84.411412390437889
 21
95.079917636768883
 31
0.0
  0
LINE
  5
194
  8
0
 39
1.75
 10
84.411412390437889
 20
95.079917636768883
 30
0.0
 11
84.401332390437886
 21
94.978837636768858
 31
0.0
  0
LINE
  5
195
  8
0
 39
1.75
 10
84.401332390437886
 20
94.978837636768858
 30
0.0
 11
84.377532390437892
 21
94.877512636768884
 31
0.0
  0
LINE
  5
196
  8
0
 39
1.75
 10
84.377532390437892
 20
94.877512636768884
 30
0.0
 11
84.340922390437896
 21
94.775207636768883
 31
0.0
  0
LINE
  5
197
  8
0
 39
1.75
 10
84.340922390437896
 20
94.775207636768883
 30
0.0
 11
84.291992390437883
 21
94.671467636768881
 31
0.0
  0
LINE
  5
198
  8
0
 39
1.75
 10
84.291992390437883
 20
94.671467636768881
 30
0.0
 11
84.231652390437887
 21
94.565592636768883
 31
0.0
  0
LINE
  5
199
  8
0
 39
1.75
 10
84.231652390437887
 20
94.565592636768883
 30
0.0
 11
84.1604623904379
 21
94.457022636768869
 31
0.0
  0
LINE
  5
19A
  8
0
 39
1.75
 10
84.1604623904379
 20
94.457022636768869
 30
0.0
 11
84.079332390437898
 21
94.345057636768885
 31
0.0
  0
LINE
  5
19B
  8
0
 39
1.75
 10
84.079332390437898
 20
94.345057636768885
 30
0.0
 11
83.988822390437889
 21
94.229137636768883
 31
0.0
  0
LINE
  5
19C
  8
0
 39
1.75
 10
83.988822390437889
 20
94.229137636768883
 30
0.0
 11
83.889737390437887
 21
94.108667636768885
 31
0.0
  0
LINE
  5
19D
  8
0
 39
1.75
 10
83.889737390437887
 20
94.108667636768885
 30
0.0
 11
83.782742390437875
 21
93.983017636768878
 31
0.0
  0
LINE
  5
19E
  8
0
 39
1.75
 10
83.782742390437875
 20
93.983017636768878
 30
0.0
 11
84.133072980956896
 21
93.651132636768864
 31
0.0
  0
LINE
  5
1A9
  8
1
 10
87.282742390437889
 20
82.553714374563938
 30
0.0
 11
87.282742390437889
 21
78.653714374563933
 31
0.0
  0
LINE
  5
1AA
  8
0
 10
85.532742390437889
 20
98.151132636768878
 30
0.0
 11
87.282742390437889
 21
98.151132636768878
 31
0.0
  0
LINE
  5
1C5
  8
0
 10
86.532742390437875
 20
98.151132636768878
 30
0.0
 11
86.532742390437875
 21
94.346212636768882
 31
0.0
  0
LINE
  5
1C7
  8
0
 10
85.532742390437889
 20
98.151132636768878
 30
0.0
 11
85.532742390437889
 21
96.151132636768892
 31
0.0
  0
LINE
  5
1CA
  8
0
 10
84.133072980956896
 20
93.651132636768864
 30
0.0
 11
87.282742390437889
 21
93.651132636768864
 31
0.0
  0
LINE
  5
1CB
  8
0
 10
84.544062390437887
 20
94.346212636768882
 30
0.0
 11
84.133072980956896
 21
93.651132636768864
 31
0.0
  0
LINE
  5
1E3
  8
0
 39
1.75
 10
90.782742390437889
 20
93.983017636768878
 30
0.0
 11
90.432411799918881
 21
93.651132636768864
 31
0.0
  0
LINE
  5
1E4
  8
0
 39
1.75
 10
90.675747390437905
 20
94.108667636768885
 30
0.0
 11
90.782742390437889
 21
93.983017636768878
 31
0.0
  0
LINE
  5
1E5
  8
0
 39
1.75
 10
90.576662390437875
 20
94.229137636768883
 30
0.0
 11
90.675747390437905
 21
94.108667636768885
 31
0.0
  0
LINE
  5
1E6
  8
0
 39
1.75
 10
90.486152390437894
 20
94.345057636768885
 30
0.0
 11
90.576662390437875
 21
94.229137636768883
 31
0.0
  0
LINE
  5
1E7
  8
0
 39
1.75
 10
90.405022390437864
 20
94.457022636768869
 30
0.0
 11
90.486152390437894
 21
94.345057636768885
 31
0.0
  0
LINE
  5
1E8
  8
0
 39
1.75
 10
90.333832390437891
 20
94.565592636768883
 30
0.0
 11
90.405022390437864
 21
94.457022636768869
 31
0.0
  0
LINE
  5
1E9
  8
0
 39
1.75
 10
90.27349239043788
 20
94.671467636768881
 30
0.0
 11
90.333832390437891
 21
94.565592636768883
 31
0.0
  0
LINE
  5
1EA
  8
0
 39
1.75
 10
90.224562390437896
 20
94.775207636768883
 30
0.0
 11
90.27349239043788
 21
94.671467636768881
 31
0.0
  0
LINE
  5
1EB
  8
0
 39
1.75
 10
90.187952390437886
 20
94.877512636768884
 30
0.0
 11
90.224562390437896
 21
94.775207636768883
 31
0.0
  0
LINE
  5
1EC
  8
0
 39
1.75
 10
90.164152390437891
 20
94.978837636768858
 30
0.0
 11
90.187952390437886
 21
94.877512636768884
 31
0.0
  0
LINE
  5
1ED
  8
0
 39
1.75
 10
90.154072390437875
 20
95.079917636768883
 30
0.0
 11
90.164152390437891
 21
94.978837636768858
 31
0.0
  0
LINE
  5
1EE
  8
0
 39
1.75
 10
90.158377390437863
 20
95.181277636768883
 30
0.0
 11
90.154072390437875
 21
95.079917636768883
 31
0.0
  0
LINE
  5
1EF
  8
0
 39
1.75
 10
90.177837390437887
 20
95.283687636768875
 30
0.0
 11
90.158377390437863
 21
95.181277636768883
 31
0.0
  0
LINE
  5
1F0
  8
0
 39
1.75
 10
90.213047390437893
 20
95.387602636768875
 30
0.0
 11
90.177837390437887
 21
95.283687636768875
 31
0.0
  0
LINE
  5
1F1
  8
0
 39
1.75
 10
90.26488239043789
 20
95.493722636768879
 30
0.0
 11
90.213047390437893
 21
95.387602636768875
 31
0.0
  0
LINE
  5
1F2
  8
0
 39
1.75
 10
90.333972390437879
 20
95.60260763676888
 30
0.0
 11
90.26488239043789
 21
95.493722636768879
 31
0.0
  0
LINE
  5
1F3
  8
0
 39
1.75
 10
90.421122390437887
 20
95.714957636768872
 30
0.0
 11
90.333972390437879
 21
95.60260763676888
 31
0.0
  0
LINE
  5
1F4
  8
0
 39
1.75
 10
90.421122390437887
 20
95.714957636768872
 30
0.0
 11
90.421122390437887
 21
95.714957636768872
 31
0.0
  0
LINE
  5
1F5
  8
0
 39
1.75
 10
90.421122390437887
 20
96.151132636768892
 30
0.0
 11
90.421122390437887
 21
95.714957636768872
 31
0.0
  0
LINE
  5
1F8
  8
0
 10
90.432411799918881
 20
93.651132636768864
 30
0.0
 11
87.282742390437889
 21
93.651132636768864
 31
0.0
  0
LINE
  5
1F9
  8
0
 10
89.032742390437875
 20
98.151132636768878
 30
0.0
 11
87.282742390437889
 21
98.151132636768878
 31
0.0
  0
LINE
  5
1FA
  8
0
 10
89.032742390437875
 20
98.151132636768878
 30
0.0
 11
89.032742390437875
 21
96.151132636768892
 31
0.0
  0
LINE
  5
1FB
  8
3
 10
88.032742390437889
 20
98.151132636768878
 30
0.0
 11
88.032742390437889
 21
94.346212636768882
 31
0.0
  0
LINE
  5
1FC
  8
3
 10
90.021422390437905
 20
94.346212636768882
 30
0.0
 11
90.432411799918881
 21
93.651132636768864
 31
0.0
  0
LINE
  5
201
  8
1
 10
90.982742390437892
 20
80.603714374563936
 30
0.0
 11
83.582742390437886
 21
80.603714374563936
 31
0.0
  0
LINE
  5
203
  8
0
 10
89.032742390437875
 20
82.353714374563936
 30
0.0
 11
85.532742390437889
 21
82.353714374563936
 31
0.0
  0
LINE
  5
204
  8
0
 10
89.032742390437875
 20
78.853714374563936
 30
0.0
 11
85.532742390437889
 21
78.853714374563936
 31
0.0
  0
ARC
  5
208
  8
0
 10
89.032742390437875
 20
80.603714374563936
 30
0.0
 40
1.75
 50
270.0
 51
90.0
  0
ARC
  5
209
  8
0
 10
85.532742390437889
 20
80.603714374563936
 30
0.0
 40
1.75
 50
90.0
 51
270.0
  0
ARC
  5
21A
  8
0
 10
85.532742390437889
 20
80.603714374563936
 30
0.0
 40
1.399999999999999
 50
90.0
 51
270.0
  0
ARC
  5
21B
  8
0
 10
89.032742390437875
 20
80.603714374563936
 30
0.0
 40
1.399999999999999
 50
270.0
 51
90.0
  0
LINE
  5
21C
  8
0
 10
89.032742390437875
 20
82.003714374563955
 30
0.0
 11
85.532742390437889
 21
82.003714374563955
 31
0.0
  0
LINE
  5
21D
  8
0
 10
89.032742390437875
 20
79.20371437456393
 30
0.0
 11
85.532742390437889
 21
79.20371437456393
 31
0.0
  0
ARC
  5
233
  8
0
 10
85.532742390437889
 20
80.603714374563936
 30
0.0
 40
1.0
 50
90.0
 51
270.0
  0
ARC
  5
234
  8
0
 10
89.032742390437875
 20
80.603714374563936
 30
0.0
 40
1.0
 50
270.0
 51
90.0
  0
LINE
  5
238
  8
0
 10
89.032742390437875
 20
81.603714374563936
 30
0.0
 11
85.532742390437889
 21
81.603714374563936
 31
0.0
  0
LINE
  5
239
  8
0
 10
89.032742390437875
 20
79.603714374563936
 30
0.0
 11
85.532742390437889
 21
79.603714374563936
 31
0.0
  0
CIRCLE
  5
23F
  8
0
 10
87.282742390437889
 20
80.603714374563936
 30
0.0
 40
0.75
  0
LINE
  5
267
  8
1
 10
87.282742390437889
 20
98.351132636768881
 30
0.0
 11
87.282742390437889
 21
93.451132636768875
 31
0.0
  0
LINE
  5
293
  8
2
 10
85.532742390437889
 20
96.151132636768892
 30
0.0
 11
84.144362390437891
 21
96.151132636768892
 31
0.0
  0
LINE
  5
295
  8
2
 10
87.282742390437889
 20
96.151132636768892
 30
0.0
 11
90.421122390437887
 21
96.151132636768892
 31
0.0
  0
LINE
  5
298
  8
3
 10
87.282742390437889
 20
94.346212636768882
 30
0.0
 11
90.021422390437905
 21
94.346212636768882
 31
0.0
  0
LINE
  5
29B
  8
0
 10
90.421122390437887
 20
95.714957636768872
 30
0.0
 11
87.282742390437889
 21
95.714957636768872
 31
0.0
  0
DIMENSION
  5
29F
  8
2
  2
*D1
 10
88.032742390437889
 20
102.40459927742749
 30
0.0
 11
92.511909057104575
 21
103.34209927742749
 31
0.0
 70
     0
  1
%%c<>
 13
86.532742390437875
 23
98.151132636768878
 33
0.0
 14
88.032742390437889
 24
98.151132636768878
 34
0.0
  0
DIMENSION
  5
2AE
  8
2
  2
*D2
 10
89.032742390437875
 20
104.550593936265
 30
0.0
 11
92.470242390437875
 21
105.488093936265
 31
0.0
 70
     0
  1
%%c<>
 13
85.532742390437889
 23
98.151132636768878
 33
0.0
 14
89.032742390437875
 24
98.151132636768878
 34
0.0
  0
DIMENSION
  5
2BB
  8
2
  2
*D3
 10
96.411907903891347
 20
96.151132636768864
 30
0.0
 11
95.474407903891304
 21
97.151132636768907
 31
0.0
 70
     0
 13
89.032742390437875
 23
98.151132636768878
 33
0.0
 14
90.421122390437887
 24
96.151132636768892
 34
0.0
 50
90.0
  0
DIMENSION
  5
2CA
  8
2
  2
*D4
 10
98.909725043327455
 20
93.65113263676885
 30
0.0
 11
97.972225043327441
 21
95.901132636768878
 31
0.0
 70
     0
 13
96.411907903891347
 23
98.151132636768864
 33
0.0
 14
90.432411799918896
 24
93.651132636768864
 34
0.0
 50
90.0
  0
DIMENSION
  5
2D8
  8
2
  2
*D5
 10
90.782742390437889
 20
85.201848013940918
 30
0.0
 11
87.282742390437889
 21
86.139348013940918
 31
0.0
 70
     0
 13
83.782742390437875
 23
80.603714374563936
 33
0.0
 14
90.782742390437889
 24
80.603714374563936
 34
0.0
  0
DIMENSION
  5
2E5
  8
2
  2
*D6
 10
96.760440443029552
 20
78.853714374563921
 30
0.0
 11
95.822940443029523
 21
80.603714374563936
 31
0.0
 70
     0
 13
89.032742390437875
 23
82.353714374563936
 33
0.0
 14
89.032742390437875
 24
78.853714374563936
 34
0.0
 50
90.0
  0
LINE
  5
30C
  8
2
 10
90.782742390437889
 20
93.983017636768878
 30
0.0
 11
87.282742390437889
 21
93.983017636768878
 31
0.0
  0
ENDSEC
  0
EOF
