  0
SECTION
  2
HEADER
  9
$ACADVER
  1
AC1009
  9
$INSBASE
 10
0.0
 20
0.0
 30
0.0
  9
$EXTMIN
 10
84.512933855378179
 20
56.321351534401337
 30
0.0
  9
$EXTMAX
 10
104.9510455254195
 20
87.664587717551612
 30
2.0
  9
$LIMMIN
 10
0.0
 20
0.0
  9
$LIMMAX
 10
420.0
 20
297.0
  9
$ORTHOMODE
 70
     0
  9
$REGENMODE
 70
     1
  9
$FILLMODE
 70
     1
  9
$QTEXTMODE
 70
     0
  9
$MIRRTEXT
 70
     1
  9
$DRAGMODE
 70
     2
  9
$LTSCALE
 40
0.3
  9
$OSMODE
 70
    37
  9
$ATTMODE
 70
     1
  9
$TEXTSIZE
 40
2.5
  9
$TRACEWID
 40
1.0
  9
$TEXTSTYLE
  7
STANDARD
  9
$CLAYER
  8
2
  9
$CELTYPE
  6
BYLAYER
  9
$CECOLOR
 62
   256
  9
$DIMSCALE
 40
0.5
  9
$DIMASZ
 40
2.5
  9
$DIMEXO
 40
0.625
  9
$DIMDLI
 40
3.75
  9
$DIMRND
 40
0.0
  9
$DIMDLE
 40
0.0
  9
$DIMEXE
 40
1.25
  9
$DIMTP
 40
0.0
  9
$DIMTM
 40
0.0
  9
$DIMTXT
 40
2.5
  9
$DIMCEN
 40
2.5
  9
$DIMTSZ
 40
0.0
  9
$DIMTOL
 70
     0
  9
$DIMLIM
 70
     0
  9
$DIMTIH
 70
     0
  9
$DIMTOH
 70
     0
  9
$DIMSE1
 70
     0
  9
$DIMSE2
 70
     0
  9
$DIMTAD
 70
     1
  9
$DIMZIN
 70
     8
  9
$DIMBLK
  1

  9
$DIMASO
 70
     1
  9
$DIMSHO
 70
     1
  9
$DIMPOST
  1

  9
$DIMAPOST
  1

  9
$DIMALT
 70
     0
  9
$DIMALTD
 70
     3
  9
$DIMALTF
 40
0.03937007874016
  9
$DIMLFAC
 40
1.0
  9
$DIMTOFL
 70
     1
  9
$DIMTVP
 40
0.0
  9
$DIMTIX
 70
     0
  9
$DIMSOXD
 70
     0
  9
$DIMSAH
 70
     0
  9
$DIMBLK1
  1

  9
$DIMBLK2
  1

  9
$DIMSTYLE
  2
ISO-25
  9
$DIMCLRD
 70
     0
  9
$DIMCLRE
 70
     0
  9
$DIMCLRT
 70
     0
  9
$DIMTFAC
 40
1.0
  9
$DIMGAP
 40
0.625
  9
$LUNITS
 70
     2
  9
$LUPREC
 70
     4
  9
$SKETCHINC
 40
1.0
  9
$FILLETRAD
 40
10.0
  9
$AUNITS
 70
     0
  9
$AUPREC
 70
     0
  9
$MENU
  1
.
  9
$ELEVATION
 40
0.0
  9
$PELEVATION
 40
0.0
  9
$THICKNESS
 40
0.0
  9
$LIMCHECK
 70
     0
  9
$BLIPMODE
 70
     0
  9
$CHAMFERA
 40
10.0
  9
$CHAMFERB
 40
10.0
  9
$SKPOLY
 70
     0
  9
$TDCREATE
 40
2453517.5678101731
  9
$TDUPDATE
 40
2453551.9055930092
  9
$TDINDWG
 40
0.0167310069
  9
$TDUSRTIMER
 40
0.0167310069
  9
$USRTIMER
 70
     1
  9
$ANGBASE
 50
0.0
  9
$ANGDIR
 70
     0
  9
$PDMODE
 70
     0
  9
$PDSIZE
 40
0.0
  9
$PLINEWID
 40
0.0
  9
$COORDS
 70
     1
  9
$SPLFRAME
 70
     0
  9
$SPLINETYPE
 70
     6
  9
$SPLINESEGS
 70
     8
  9
$ATTDIA
 70
     0
  9
$ATTREQ
 70
     1
  9
$HANDLING
 70
-16383
  9
$HANDSEED
  5
3F5
  9
$SURFTAB1
 70
     6
  9
$SURFTAB2
 70
     6
  9
$SURFTYPE
 70
     6
  9
$SURFU
 70
     6
  9
$SURFV
 70
     6
  9
$UCSNAME
  2

  9
$UCSORG
 10
0.0
 20
0.0
 30
0.0
  9
$UCSXDIR
 10
1.0
 20
0.0
 30
0.0
  9
$UCSYDIR
 10
0.0
 20
1.0
 30
0.0
  9
$PUCSNAME
  2

  9
$PUCSORG
 10
0.0
 20
0.0
 30
0.0
  9
$PUCSXDIR
 10
1.0
 20
0.0
 30
0.0
  9
$PUCSYDIR
 10
0.0
 20
1.0
 30
0.0
  9
$USERI1
 70
     0
  9
$USERI2
 70
     0
  9
$USERI3
 70
     0
  9
$USERI4
 70
     0
  9
$USERI5
 70
     0
  9
$USERR1
 40
0.0
  9
$USERR2
 40
0.0
  9
$USERR3
 40
0.0
  9
$USERR4
 40
0.0
  9
$USERR5
 40
0.0
  9
$WORLDVIEW
 70
     1
  9
$SHADEDGE
 70
     3
  9
$SHADEDIF
 70
    70
  9
$TILEMODE
 70
     1
  9
$MAXACTVP
 70
    64
  9
$PLIMCHECK
 70
     0
  9
$PEXTMIN
 10
1.0000000000000000E+020
 20
1.0000000000000000E+020
 30
1.0000000000000000E+020
  9
$PEXTMAX
 10
-1.0000000000000000E+020
 20
-1.0000000000000000E+020
 30
-1.0000000000000000E+020
  9
$PLIMMIN
 10
0.0
 20
0.0
  9
$PLIMMAX
 10
420.0
 20
297.0
  9
$UNITMODE
 70
     0
  9
$VISRETAIN
 70
     1
  9
$PLINEGEN
 70
     0
  9
$PSLTSCALE
 70
     1
  0
ENDSEC
  0
SECTION
  2
TABLES
  0
TABLE
  2
VPORT
 70
     2
  0
VPORT
  2
*ACTIVE
 70
     0
 10
0.0
 20
0.0
 11
1.0
 21
1.0
 12
97.029010327458948
 22
73.425549548422282
 13
0.0
 23
0.0
 14
10.0
 24
10.0
 15
10.0
 25
10.0
 16
0.0
 26
0.0
 36
1.0
 17
0.0
 27
0.0
 37
0.0
 40
37.095275326135997
 41
2.5392405063291141
 42
50.0
 43
0.0
 44
0.0
 50
0.0
 51
0.0
 71
     0
 72
   100
 73
     1
 74
     3
 75
     0
 76
     0
 77
     0
 78
     0
  0
ENDTAB
  0
TABLE
  2
LTYPE
 70
     3
  0
LTYPE
  2
CONTINUOUS
 70
     0
  3
Solid line
 72
    65
 73
     0
 40
0.0
  0
LTYPE
  2
CENTER
 70
     0
  3
Center ____ _ ____ _ ____ _ ____ _ ____ _ ____
 72
    65
 73
     4
 40
50.799999999999997
 49
31.75
 49
-6.3499999999999988
 49
6.3499999999999988
 49
-6.3499999999999988
  0
LTYPE
  2
DASHED2
 70
     0
  3
Dashed (.5x) _ _ _ _ _ _ _ _ _ _ _ _ _ _ _ _ _
 72
    65
 73
     2
 40
9.5249999999999986
 49
6.3499999999999988
 49
-3.1749999999999989
  0
ENDTAB
  0
TABLE
  2
LAYER
 70
     5
  0
LAYER
  2
0
 70
     0
 62
     7
  6
CONTINUOUS
  0
LAYER
  2
1
 70
     0
 62
     7
  6
CENTER
  0
LAYER
  2
2
 70
     0
 62
     7
  6
CONTINUOUS
  0
LAYER
  2
3
 70
     0
 62
     7
  6
DASHED2
  0
LAYER
  2
DEFPOINTS
 70
     0
 62
     7
  6
CONTINUOUS
  0
ENDTAB
  0
TABLE
  2
STYLE
 70
     3
  0
STYLE
  2
STANDARD
 70
     0
 40
0.0
 41
1.0
 50
0.0
 71
     0
 42
2.5
  3
txt
  4

  0
STYLE
  2
\U+00C9L\U+00C9R_\U+00C2S\U+00C2V\U+00C2B\U+00C2N
 70
     0
 40
1.0
 41
1.0
 50
0.0
 71
     0
 42
1.0
  3
\U+00E9l\U+00E9r \U+00E2S\U+00E2V\U+00E2b\U+00E2N
  4

  0
STYLE
  2

 70
     1
 40
0.0
 41
1.0
 50
0.0
 71
     0
 42
2.5
  3
ltypeshp.shx
  4

  0
ENDTAB
  0
TABLE
  2
VIEW
 70
     0
  0
ENDTAB
  0
TABLE
  2
UCS
 70
     0
  0
ENDTAB
  0
TABLE
  2
APPID
 70
     1
  0
APPID
  2
ACAD
 70
     0
  0
ENDTAB
  0
TABLE
  2
DIMSTYLE
 70
     2
  0
DIMSTYLE
  2
ISO-25
 70
     0
  3

  4

  5

  6

  7

 40
0.5
 41
2.5
 42
0.625
 43
3.75
 44
1.25
 45
0.0
 46
0.0
 47
0.0
 48
0.0
140
2.5
141
2.5
142
0.0
143
0.03937007874016
144
1.0
145
0.0
146
1.0
147
0.625
 71
     0
 72
     0
 73
     0
 74
     0
 75
     0
 76
     0
 77
     1
 78
     8
170
     0
171
     3
172
     1
173
     0
174
     0
175
     0
176
     0
177
     0
178
     0
  0
DIMSTYLE
  2
STANDARD
 70
     0
  3

  4

  5

  6

  7

 40
1.0
 41
0.18
 42
0.0625
 43
0.38
 44
0.18
 45
0.0
 46
0.0
 47
0.0
 48
0.0
140
0.18
141
0.09
142
0.0
143
25.399999999999999
144
1.0
145
0.0
146
1.0
147
0.09
 71
     0
 72
     0
 73
     1
 74
     1
 75
     0
 76
     0
 77
     0
 78
     0
170
     0
171
     2
172
     0
173
     0
174
     0
175
     0
176
     0
177
     0
178
     0
  0
ENDTAB
  0
ENDSEC
  0
SECTION
  2
BLOCKS
  0
BLOCK
  8
0
  2
$MODEL_SPACE
 70
     0
 10
0.0
 20
0.0
 30
0.0
  3
$MODEL_SPACE
  1

  0
ENDBLK
  5
21
  8
0
  0
BLOCK
 67
     1
  8
0
  2
$PAPER_SPACE
 70
     0
 10
0.0
 20
0.0
 30
0.0
  3
$PAPER_SPACE
  1

  0
ENDBLK
  5
1D
 67
     1
  8
0
  0
BLOCK
  8
0
  2
*D2
 70
     1
 10
0.0
 20
0.0
 30
0.0
  3
*D2
  1

  0
LINE
  5
350
  8
2
 62
     0
 10
97.794814558797199
 20
79.563200258875725
 30
0.0
 11
103.88682070686799
 21
79.563200258875725
 31
0.0
  0
LINE
  5
351
  8
2
 62
     0
 10
98.294814558797199
 20
73.563200258875725
 30
0.0
 11
103.88682070686799
 21
73.563200258875725
 31
0.0
  0
LINE
  5
352
  8
2
 62
     0
 10
103.26182070686799
 20
78.313200258875725
 30
0.0
 11
103.26182070686799
 21
74.813200258875725
 31
0.0
  0
SOLID
  5
353
  8
2
 62
     0
 10
103.05348737353459
 20
78.313200258875725
 30
0.0
 11
103.47015404020129
 21
78.313200258875725
 31
0.0
 12
103.26182070686799
 22
79.563200258875725
 32
0.0
 13
103.26182070686799
 23
79.563200258875725
 33
0.0
  0
SOLID
  5
354
  8
2
 62
     0
 10
103.05348737353459
 20
74.813200258875725
 30
0.0
 11
103.47015404020129
 21
74.813200258875725
 31
0.0
 12
103.26182070686799
 22
73.563200258875725
 32
0.0
 13
103.26182070686799
 23
73.563200258875725
 33
0.0
  0
TEXT
  5
355
  8
2
 62
     0
 10
102.94932070686789
 20
76.146533592209082
 30
0.0
 40
1.25
  1
6
 50
90.0
  0
POINT
  5
356
  8
DEFPOINTS
 62
     0
 10
97.482314558797199
 20
79.563200258875725
 30
0.0
  0
POINT
  5
357
  8
DEFPOINTS
 62
     0
 10
97.982314558797199
 20
73.563200258875725
 30
0.0
  0
POINT
  5
358
  8
DEFPOINTS
 62
     0
 10
103.26182070686799
 20
73.563200258875725
 30
0.0
  0
ENDBLK
  5
34F
  8
0
  0
BLOCK
  8
0
  2
*D3
 70
     1
 10
0.0
 20
0.0
 30
0.0
  3
*D3
  1

  0
LINE
  5
35B
  8
2
 62
     0
 10
90.669814558797185
 20
73.563200258875725
 30
0.0
 11
85.450433855378179
 21
73.563200258875725
 31
0.0
  0
LINE
  5
35C
  8
2
 62
     0
 10
91.669814558797185
 20
74.363200258875722
 30
0.0
 11
85.450433855378179
 21
74.363200258875722
 31
0.0
  0
LINE
  5
35D
  8
2
 62
     0
 10
86.075433855378179
 20
72.313200258875725
 30
0.0
 11
86.075433855378179
 21
71.063200258875725
 31
0.0
  0
LINE
  5
35E
  8
2
 62
     0
 10
86.075433855378179
 20
75.613200258875722
 30
0.0
 11
86.075433855378179
 21
79.779866925542393
 31
0.0
  0
LINE
  5
35F
  8
2
 62
     0
 10
86.075433855378179
 20
73.563200258875725
 30
0.0
 11
86.075433855378179
 21
74.363200258875722
 31
0.0
  0
SOLID
  5
360
  8
2
 62
     0
 10
85.867100522044865
 20
72.313200258875725
 30
0.0
 11
86.283767188711494
 21
72.313200258875725
 31
0.0
 12
86.075433855378179
 22
73.563200258875725
 32
0.0
 13
86.075433855378179
 23
73.563200258875725
 33
0.0
  0
SOLID
  5
361
  8
2
 62
     0
 10
85.867100522044865
 20
75.613200258875722
 30
0.0
 11
86.283767188711494
 21
75.613200258875722
 31
0.0
 12
86.075433855378179
 22
74.363200258875722
 32
0.0
 13
86.075433855378179
 23
74.363200258875722
 33
0.0
  0
TEXT
  5
362
  8
2
 62
     0
 10
85.762933855378165
 20
77.175700258875736
 30
0.0
 40
1.25
  1
0.8
 50
90.0
  0
POINT
  5
363
  8
DEFPOINTS
 62
     0
 10
90.982314558797185
 20
73.563200258875725
 30
0.0
  0
POINT
  5
364
  8
DEFPOINTS
 62
     0
 10
91.982314558797185
 20
74.363200258875722
 30
0.0
  0
POINT
  5
365
  8
DEFPOINTS
 62
     0
 10
86.075433855378179
 20
74.363200258875722
 30
0.0
  0
ENDBLK
  5
367
  8
0
  0
BLOCK
  8
0
  2
*D4
 70
     1
 10
0.0
 20
0.0
 30
0.0
  3
*D4
  1

  0
LINE
  5
3CD
  8
2
 62
     0
 10
93.732314558797199
 20
74.050700258875722
 30
0.0
 11
93.732314558797199
 21
70.081129380799382
 31
0.0
  0
LINE
  5
3CE
  8
2
 62
     0
 10
95.232314558797199
 20
74.050700258875722
 30
0.0
 11
95.232314558797199
 21
70.081129380799382
 31
0.0
  0
LINE
  5
3CF
  8
2
 62
     0
 10
92.482314558797199
 20
70.706129380799382
 30
0.0
 11
91.232314558797199
 21
70.706129380799382
 31
0.0
  0
LINE
  5
3D0
  8
2
 62
     0
 10
96.482314558797199
 20
70.706129380799382
 30
0.0
 11
101.6906478921305
 21
70.706129380799382
 31
0.0
  0
LINE
  5
3D1
  8
2
 62
     0
 10
93.732314558797199
 20
70.706129380799382
 30
0.0
 11
95.232314558797199
 21
70.706129380799382
 31
0.0
  0
SOLID
  5
3D2
  8
2
 62
     0
 10
92.482314558797199
 20
70.914462714132711
 30
0.0
 11
92.482314558797199
 21
70.497796047466053
 31
0.0
 12
93.732314558797199
 22
70.706129380799382
 32
0.0
 13
93.732314558797199
 23
70.706129380799382
 33
0.0
  0
SOLID
  5
3D3
  8
2
 62
     0
 10
96.482314558797199
 20
70.914462714132711
 30
0.0
 11
96.482314558797199
 21
70.497796047466053
 31
0.0
 12
95.232314558797199
 22
70.706129380799382
 32
0.0
 13
95.232314558797199
 23
70.706129380799382
 33
0.0
  0
INSERT
  5
3D4
  8
2
  2
*U11
 10
0.0
 20
0.0
 30
0.0
  0
POINT
  5
3D5
  8
DEFPOINTS
 62
     0
 10
93.732314558797199
 20
74.363200258875722
 30
0.0
  0
POINT
  5
3D6
  8
DEFPOINTS
 62
     0
 10
95.232314558797199
 20
74.363200258875722
 30
0.0
  0
POINT
  5
3D7
  8
DEFPOINTS
 62
     0
 10
95.232314558797199
 20
70.706129380799382
 30
0.0
  0
ENDBLK
  5
376
  8
0
  0
BLOCK
  8
0
  2
*D5
 70
     1
 10
0.0
 20
0.0
 30
0.0
  3
*D5
  1

  0
LINE
  5
379
  8
2
 62
     0
 10
90.982314558797185
 20
64.687656093908657
 30
0.0
 11
90.982314558797185
 21
68.364199897857219
 31
0.0
  0
LINE
  5
37A
  8
2
 62
     0
 10
97.982314558797199
 20
64.687656093908657
 30
0.0
 11
97.982314558797199
 21
68.364199897857219
 31
0.0
  0
LINE
  5
37B
  8
2
 62
     0
 10
92.232314558797185
 20
67.739199897857219
 30
0.0
 11
96.732314558797199
 21
67.739199897857219
 31
0.0
  0
SOLID
  5
37C
  8
2
 62
     0
 10
92.232314558797185
 20
67.947533231190548
 30
0.0
 11
92.232314558797185
 21
67.53086656452389
 31
0.0
 12
90.982314558797185
 22
67.739199897857219
 32
0.0
 13
90.982314558797185
 23
67.739199897857219
 33
0.0
  0
SOLID
  5
37D
  8
2
 62
     0
 10
96.732314558797199
 20
67.947533231190548
 30
0.0
 11
96.732314558797199
 21
67.53086656452389
 31
0.0
 12
97.982314558797199
 22
67.739199897857219
 32
0.0
 13
97.982314558797199
 23
67.739199897857219
 33
0.0
  0
TEXT
  5
37E
  8
2
 62
     0
 10
94.065647892130528
 20
68.051699897857219
 30
0.0
 40
1.25
  1
7
  0
POINT
  5
37F
  8
DEFPOINTS
 62
     0
 10
90.982314558797185
 20
64.375156093908657
 30
0.0
  0
POINT
  5
380
  8
DEFPOINTS
 62
     0
 10
97.982314558797199
 20
64.375156093908657
 30
0.0
  0
POINT
  5
381
  8
DEFPOINTS
 62
     0
 10
97.982314558797199
 20
67.739199897857219
 30
0.0
  0
ENDBLK
  5
383
  8
0
  0
BLOCK
  8
0
  2
*D6
 70
     1
 10
0.0
 20
0.0
 30
0.0
  3
*D6
  1

  0
LINE
  5
391
  8
2
 62
     0
 10
96.544814558797199
 20
66.125156093908643
 30
0.0
 11
104.2080615180935
 21
66.125156093908643
 31
0.0
  0
LINE
  5
392
  8
2
 62
     0
 10
96.544814558797199
 20
62.625156093908657
 30
0.0
 11
104.2080615180935
 21
62.625156093908657
 31
0.0
  0
LINE
  5
393
  8
2
 62
     0
 10
103.5830615180935
 20
64.875156093908643
 30
0.0
 11
103.5830615180935
 21
63.875156093908657
 31
0.0
  0
SOLID
  5
394
  8
2
 62
     0
 10
103.3747281847602
 20
64.875156093908643
 30
0.0
 11
103.7913948514268
 21
64.875156093908643
 31
0.0
 12
103.5830615180935
 22
66.125156093908643
 32
0.0
 13
103.5830615180935
 23
66.125156093908643
 33
0.0
  0
SOLID
  5
395
  8
2
 62
     0
 10
103.3747281847602
 20
63.875156093908657
 30
0.0
 11
103.7913948514268
 21
63.875156093908657
 31
0.0
 12
103.5830615180935
 22
62.625156093908657
 32
0.0
 13
103.5830615180935
 23
62.625156093908657
 33
0.0
  0
TEXT
  5
396
  8
2
 62
     0
 10
103.2705615180935
 20
63.125156093908679
 30
0.0
 40
1.25
  1
3.5
 50
90.0
  0
POINT
  5
397
  8
DEFPOINTS
 62
     0
 10
96.232314558797199
 20
66.125156093908643
 30
0.0
  0
POINT
  5
398
  8
DEFPOINTS
 62
     0
 10
96.232314558797199
 20
62.625156093908657
 30
0.0
  0
POINT
  5
399
  8
DEFPOINTS
 62
     0
 10
103.5830615180935
 20
62.625156093908657
 30
0.0
  0
ENDBLK
  5
39B
  8
0
  0
BLOCK
  8
0
  2
*D7
 70
     1
 10
0.0
 20
0.0
 30
0.0
  3
*D7
  1

  0
LINE
  5
3C2
  8
2
 62
     0
 10
93.182314558797202
 20
79.875700258875725
 30
0.0
 11
93.182314558797202
 21
84.161094623675183
 31
0.0
  0
LINE
  5
3C3
  8
2
 62
     0
 10
95.782314558797196
 20
79.875700258875725
 30
0.0
 11
95.782314558797196
 21
84.161094623675183
 31
0.0
  0
LINE
  5
3C4
  8
2
 62
     0
 10
91.932314558797202
 20
83.536094623675183
 30
0.0
 11
90.682314558797202
 21
83.536094623675183
 31
0.0
  0
LINE
  5
3C5
  8
2
 62
     0
 10
97.032314558797196
 20
83.536094623675183
 30
0.0
 11
102.6573145587972
 21
83.536094623675183
 31
0.0
  0
LINE
  5
3C6
  8
2
 62
     0
 10
93.182314558797202
 20
83.536094623675183
 30
0.0
 11
95.782314558797196
 21
83.536094623675183
 31
0.0
  0
SOLID
  5
3C7
  8
2
 62
     0
 10
91.932314558797202
 20
83.744427957008511
 30
0.0
 11
91.932314558797202
 21
83.327761290341854
 31
0.0
 12
93.182314558797202
 22
83.536094623675183
 32
0.0
 13
93.182314558797202
 23
83.536094623675183
 33
0.0
  0
SOLID
  5
3C8
  8
2
 62
     0
 10
97.032314558797196
 20
83.744427957008511
 30
0.0
 11
97.032314558797196
 21
83.327761290341854
 31
0.0
 12
95.782314558797196
 22
83.536094623675183
 32
0.0
 13
95.782314558797196
 23
83.536094623675183
 33
0.0
  0
INSERT
  5
3C9
  8
2
  2
*U10
 10
0.0
 20
0.0
 30
0.0
  0
POINT
  5
3CA
  8
DEFPOINTS
 62
     0
 10
93.182314558797202
 20
79.563200258875725
 30
0.0
  0
POINT
  5
3CB
  8
DEFPOINTS
 62
     0
 10
95.782314558797196
 20
79.563200258875725
 30
0.0
  0
POINT
  5
3CC
  8
DEFPOINTS
 62
     0
 10
95.782314558797196
 20
83.536094623675183
 30
0.0
  0
ENDBLK
  5
3AB
  8
0
  0
BLOCK
  8
0
  2
*D8
 70
     1
 10
0.0
 20
0.0
 30
0.0
  3
*D8
  1

  0
LINE
  5
3B9
  8
2
 62
     0
 10
91.482314558797199
 20
79.875700258875725
 30
0.0
 11
91.482314558797199
 21
86.727087717551584
 31
0.0
  0
LINE
  5
3BA
  8
2
 62
     0
 10
97.482314558797199
 20
79.875700258875725
 30
0.0
 11
97.482314558797199
 21
86.727087717551584
 31
0.0
  0
LINE
  5
3BB
  8
2
 62
     0
 10
92.732314558797199
 20
86.102087717551584
 30
0.0
 11
96.232314558797199
 21
86.102087717551584
 31
0.0
  0
SOLID
  5
3BC
  8
2
 62
     0
 10
92.732314558797199
 20
86.310421050884926
 30
0.0
 11
92.732314558797199
 21
85.893754384218269
 31
0.0
 12
91.482314558797199
 22
86.102087717551584
 32
0.0
 13
91.482314558797199
 23
86.102087717551584
 33
0.0
  0
SOLID
  5
3BD
  8
2
 62
     0
 10
96.232314558797199
 20
86.310421050884926
 30
0.0
 11
96.232314558797199
 21
85.893754384218269
 31
0.0
 12
97.482314558797199
 22
86.102087717551584
 32
0.0
 13
97.482314558797199
 23
86.102087717551584
 33
0.0
  0
INSERT
  5
3BE
  8
2
  2
*U9
 10
0.0
 20
0.0
 30
0.0
  0
POINT
  5
3BF
  8
DEFPOINTS
 62
     0
 10
91.482314558797199
 20
79.563200258875725
 30
0.0
  0
POINT
  5
3C0
  8
DEFPOINTS
 62
     0
 10
97.482314558797199
 20
79.563200258875725
 30
0.0
  0
POINT
  5
3C1
  8
DEFPOINTS
 62
     0
 10
97.482314558797199
 20
86.102087717551584
 30
0.0
  0
ENDBLK
  5
3B8
  8
0
  0
BLOCK
  8
0
  2
*U9
 70
     1
 10
0.0
 20
0.0
 30
0.0
  3
*U9
  1

  0
TEXT
  5
3E7
  8
2
 62
     0
 10
93.440647892130528
 20
86.414587717551584
 30
0.0
 40
1.25
  1
\U+2205
  0
TEXT
  5
3E8
  8
2
 62
     0
 10
94.690647892130528
 20
86.414587717551584
 30
0.0
 40
1.25
  1
6
  0
ENDBLK
  5
3EA
  8
0
  0
BLOCK
  8
0
  2
*U10
 70
     1
 10
0.0
 20
0.0
 30
0.0
  3
*U10
  1

  0
TEXT
  5
3EC
  8
2
 62
     0
 10
98.594814558797196
 20
83.848594623675183
 30
0.0
 40
1.25
  1
\U+2205
  0
TEXT
  5
3ED
  8
2
 62
     0
 10
99.844814558797196
 20
83.848594623675183
 30
0.0
 40
1.25
  1
2.6
  0
ENDBLK
  5
3EF
  8
0
  0
BLOCK
  8
0
  2
*U11
 70
     1
 10
0.0
 20
0.0
 30
0.0
  3
*U11
  1

  0
TEXT
  5
3F1
  8
2
 62
     0
 10
98.044814558797199
 20
71.018629380799382
 30
0.0
 40
1.25
  1
\U+2205
  0
TEXT
  5
3F2
  8
2
 62
     0
 10
99.294814558797199
 20
71.018629380799382
 30
0.0
 40
1.25
  1
1.5
  0
ENDBLK
  5
3F4
  8
0
  0
ENDSEC
  0
SECTION
  2
ENTITIES
  0
TEXT
  5
1BB
  8
2
 10
87.231912379321528
 20
56.442301248687052
 30
0.0
 40
1.2699720000000001
  1
No. 132.7x4.034._
 51
-0.0000015352344868
  7
\U+00C9L\U+00C9R_\U+00C2S\U+00C2V\U+00C2B\U+00C2N
  0
LINE
  5
29F
  8
0
 39
2.0
 10
92.592554558797204
 20
75.590640258875723
 30
0.0
 11
94.482314558797185
 21
75.590640258875723
 31
0.0
  0
LINE
  5
2A1
  8
0
 39
2.0
 10
94.482314558797185
 20
76.129120258875716
 30
0.0
 11
92.592554558797204
 21
76.129120258875716
 31
0.0
  0
LINE
  5
2A3
  8
0
 39
2.0
 10
92.592554558797204
 20
75.590640258875723
 30
0.0
 11
92.592554558797204
 21
75.590640258875723
 31
0.0
  0
LINE
  5
2BC
  8
1
 10
94.482314558797185
 20
79.763200258875727
 30
0.0
 11
94.482314558797185
 21
73.363200258875722
 31
0.0
  0
LINE
  5
2BD
  8
0
 10
91.482314558797199
 20
79.563200258875725
 30
0.0
 11
94.482314558797185
 21
79.563200258875725
 31
0.0
  0
LINE
  5
2D9
  8
0
 10
90.982314558797185
 20
73.563200258875725
 30
0.0
 11
94.482314558797185
 21
73.563200258875725
 31
0.0
  0
LINE
  5
2DB
  8
0
 10
93.182314558797202
 20
79.563200258875725
 30
0.0
 11
93.182314558797202
 21
76.129120258875716
 31
0.0
  0
LINE
  5
2DC
  8
0
 10
91.482314558797199
 20
79.563200258875725
 30
0.0
 11
91.482314558797199
 21
74.309196356436686
 31
0.0
  0
LINE
  5
2DF
  8
0
 10
91.482314558797199
 20
74.309196356436701
 30
0.0
 11
90.982314558797185
 21
73.563200258875725
 31
0.0
  0
LINE
  5
2E5
  8
0
 10
91.982314558797185
 20
74.363200258875722
 30
0.0
 11
94.482314558797185
 21
74.363200258875722
 31
0.0
  0
LINE
  5
2E8
  8
0
 10
93.732314558797199
 20
75.590640258875723
 30
0.0
 11
93.732314558797199
 21
74.363200258875722
 31
0.0
  0
LINE
  5
2EC
  8
0
 39
2.0
 10
96.372074558797195
 20
75.590640258875723
 30
0.0
 11
96.372074558797195
 21
75.590640258875723
 31
0.0
  0
LINE
  5
2F0
  8
0
 10
97.482314558797199
 20
79.563200258875725
 30
0.0
 11
97.482314558797199
 21
74.309196356436686
 31
0.0
  0
LINE
  5
2F1
  8
3
 10
95.782314558797196
 20
79.563200258875725
 30
0.0
 11
95.782314558797196
 21
76.129120258875716
 31
0.0
  0
LINE
  5
2F2
  8
0
 10
97.482314558797199
 20
74.309196356436701
 30
0.0
 11
97.982314558797199
 21
73.563200258875725
 31
0.0
  0
LINE
  5
2F3
  8
0
 10
97.982314558797199
 20
73.563200258875725
 30
0.0
 11
94.482314558797185
 21
73.563200258875725
 31
0.0
  0
LINE
  5
2F4
  8
3
 10
95.232314558797199
 20
75.590640258875723
 30
0.0
 11
95.232314558797199
 21
74.363200258875722
 31
0.0
  0
LINE
  5
2F5
  8
3
 10
96.982314558797214
 20
74.363200258875722
 30
0.0
 11
94.482314558797185
 21
74.363200258875722
 31
0.0
  0
LINE
  5
2F7
  8
0
 10
97.482314558797199
 20
79.563200258875725
 30
0.0
 11
94.482314558797185
 21
79.563200258875725
 31
0.0
  0
LINE
  5
2F9
  8
0
 10
97.482314558797199
 20
74.309196356436701
 30
0.0
 11
94.482314558797185
 21
74.309196356436701
 31
0.0
  0
LINE
  5
2FB
  8
3
 10
96.482314558797199
 20
75.590640258875723
 30
0.0
 11
92.482314558797199
 21
75.590640258875723
 31
0.0
  0
LINE
  5
2FC
  8
3
 10
96.482314558797199
 20
76.129120258875716
 30
0.0
 11
92.482314558797199
 21
76.129120258875716
 31
0.0
  0
LINE
  5
2FD
  8
0
 10
92.482314558797199
 20
76.129120258875716
 30
0.0
 11
92.482314558797199
 21
75.590640258875723
 31
0.0
  0
LINE
  5
2FE
  8
3
 10
96.482314558797199
 20
76.129120258875716
 30
0.0
 11
96.482314558797199
 21
75.590640258875723
 31
0.0
  0
LINE
  5
30B
  8
3
 10
94.482314558797185
 20
66.32515609390866
 30
0.0
 11
94.482314558797185
 21
62.425156093908647
 31
0.0
  0
LINE
  5
30C
  8
3
 10
98.182314558797202
 20
64.375156093908657
 30
0.0
 11
90.782314558797196
 21
64.375156093908657
 31
0.0
  0
LINE
  5
30E
  8
0
 10
96.232314558797199
 20
66.125156093908643
 30
0.0
 11
92.732314558797199
 21
66.125156093908643
 31
0.0
  0
LINE
  5
30F
  8
0
 10
96.232314558797199
 20
62.625156093908657
 30
0.0
 11
92.732314558797199
 21
62.625156093908657
 31
0.0
  0
ARC
  5
312
  8
0
 10
96.232314558797199
 20
64.375156093908657
 30
0.0
 40
1.75
 50
270.0
 51
90.0
  0
ARC
  5
313
  8
0
 10
92.732314558797199
 20
64.375156093908657
 30
0.0
 40
1.75
 50
90.0
 51
270.0
  0
ARC
  5
316
  8
0
 10
92.732314558797199
 20
64.375156093908657
 30
0.0
 40
1.25
 50
90.0
 51
270.0
  0
ARC
  5
317
  8
0
 10
96.232314558797199
 20
64.375156093908657
 30
0.0
 40
1.25
 50
270.0
 51
90.0
  0
LINE
  5
31A
  8
0
 10
96.232314558797199
 20
65.625156093908657
 30
0.0
 11
92.732314558797199
 21
65.625156093908657
 31
0.0
  0
LINE
  5
31B
  8
0
 10
96.232314558797199
 20
63.125156093908657
 30
0.0
 11
92.732314558797199
 21
63.125156093908657
 31
0.0
  0
CIRCLE
  5
321
  8
0
 10
94.482314558797185
 20
64.375156093908657
 30
0.0
 40
0.75
  0
ARC
  5
323
  8
0
 10
92.732314558797199
 20
64.375156093908657
 30
0.0
 40
0.75
 50
90.0
 51
270.0
  0
ARC
  5
324
  8
0
 10
96.232314558797199
 20
64.375156093908657
 30
0.0
 40
0.75
 50
270.0
 51
90.0
  0
LINE
  5
326
  8
0
 10
96.232314558797199
 20
65.125156093908657
 30
0.0
 11
92.732314558797199
 21
65.125156093908657
 31
0.0
  0
LINE
  5
327
  8
0
 10
96.232314558797199
 20
63.62515609390865
 30
0.0
 11
92.732314558797199
 21
63.62515609390865
 31
0.0
  0
LINE
  5
32F
  8
3
 10
91.982314558797185
 20
74.363200258875722
 30
0.0
 11
91.482314558797199
 21
73.563200258875725
 31
0.0
  0
LINE
  5
331
  8
3
 10
96.982314558797214
 20
74.363200258875722
 30
0.0
 11
97.482314558797199
 21
73.563200258875725
 31
0.0
  0
ARC
  5
33B
  8
0
 10
94.482314558797185
 20
64.375156093908657
 30
0.0
 40
3.0
 50
211.00271913387391
 51
328.997280866126
  0
ARC
  5
33C
  8
0
 10
94.482314558797185
 20
64.375156093908657
 30
0.0
 40
3.0
 50
31.002719133874081
 51
148.99728086612581
  0
DIMENSION
  5
343
  8
2
  2
*D2
 10
103.26182070686799
 20
73.563200258875725
 30
0.0
 11
102.32432070686789
 21
76.563200258875753
 31
0.0
 70
     0
 13
97.482314558797199
 23
79.563200258875725
 33
0.0
 14
97.982314558797199
 24
73.563200258875725
 34
0.0
 50
90.0
  0
DIMENSION
  5
359
  8
2
  2
*D3
 10
86.075433855378179
 20
74.363200258875722
 30
0.0
 11
85.137933855378165
 21
78.321533592209065
 31
0.0
 70
     0
 13
90.982314558797185
 23
73.563200258875725
 33
0.0
 14
91.982314558797185
 24
74.363200258875722
 34
0.0
 50
90.0
  0
DIMENSION
  5
368
  8
2
  2
*D4
 10
95.232314558797199
 20
70.706129380799382
 30
0.0
 11
99.711481225463885
 21
70.706129380799382
 31
0.0
 70
   128
  1
%%c<>
 13
93.732314558797199
 23
74.363200258875722
 33
0.0
 14
95.232314558797199
 24
74.363200258875722
 34
0.0
  0
DIMENSION
  5
377
  8
2
  2
*D5
 10
97.982314558797199
 20
67.739199897857219
 30
0.0
 11
94.482314558797185
 21
68.676699897857219
 31
0.0
 70
     0
 13
90.982314558797185
 23
64.375156093908657
 33
0.0
 14
97.982314558797199
 24
64.375156093908657
 34
0.0
  0
DIMENSION
  5
38F
  8
2
  2
*D6
 10
103.5830615180935
 20
62.625156093908657
 30
0.0
 11
102.6455615180935
 21
64.375156093908686
 31
0.0
 70
     0
 13
96.232314558797199
 23
66.125156093908643
 33
0.0
 14
96.232314558797199
 24
62.625156093908657
 34
0.0
 50
90.0
  0
DIMENSION
  5
39D
  8
2
  2
*D7
 10
95.782314558797196
 20
83.536094623675183
 30
0.0
 11
100.4698145587971
 21
84.473594623675183
 31
0.0
 70
     0
  1
%%c<>
 13
93.182314558797202
 23
79.563200258875725
 33
0.0
 14
95.782314558797196
 24
79.563200258875725
 34
0.0
  0
DIMENSION
  5
3AC
  8
2
  2
*D8
 10
97.482314558797199
 20
86.102087717551584
 30
0.0
 11
94.482314558797185
 21
87.039587717551584
 31
0.0
 70
     0
  1
%%c<>
 13
91.482314558797199
 23
79.563200258875725
 33
0.0
 14
97.482314558797199
 24
79.563200258875725
 34
0.0
  0
ENDSEC
  0
EOF
