  0
SECTION
  2
HEADER
  9
$ACADVER
  1
AC1009
  9
$INSBASE
 10
0.0
 20
0.0
 30
0.0
  9
$EXTMIN
 10
44.486392537369717
 20
32.856769503049222
 30
0.0
  9
$EXTMAX
 10
74.900231974101885
 20
75.475573527169018
 30
3.1956735499999991
  9
$LIMMIN
 10
0.0
 20
0.0
  9
$LIMMAX
 10
420.0
 20
297.0
  9
$ORTHOMODE
 70
     0
  9
$REGENMODE
 70
     1
  9
$FILLMODE
 70
     1
  9
$QTEXTMODE
 70
     0
  9
$MIRRTEXT
 70
     1
  9
$DRAGMODE
 70
     2
  9
$LTSCALE
 40
0.3
  9
$OSMODE
 70
    37
  9
$ATTMODE
 70
     1
  9
$TEXTSIZE
 40
2.5
  9
$TRACEWID
 40
1.0
  9
$TEXTSTYLE
  7
STANDARD
  9
$CLAYER
  8
2
  9
$CELTYPE
  6
BYLAYER
  9
$CECOLOR
 62
   256
  9
$DIMSCALE
 40
0.5
  9
$DIMASZ
 40
2.5
  9
$DIMEXO
 40
0.625
  9
$DIMDLI
 40
3.75
  9
$DIMRND
 40
0.0
  9
$DIMDLE
 40
0.0
  9
$DIMEXE
 40
1.25
  9
$DIMTP
 40
0.0
  9
$DIMTM
 40
0.0
  9
$DIMTXT
 40
2.5
  9
$DIMCEN
 40
2.5
  9
$DIMTSZ
 40
0.0
  9
$DIMTOL
 70
     0
  9
$DIMLIM
 70
     0
  9
$DIMTIH
 70
     0
  9
$DIMTOH
 70
     0
  9
$DIMSE1
 70
     0
  9
$DIMSE2
 70
     0
  9
$DIMTAD
 70
     1
  9
$DIMZIN
 70
     8
  9
$DIMBLK
  1

  9
$DIMASO
 70
     1
  9
$DIMSHO
 70
     1
  9
$DIMPOST
  1

  9
$DIMAPOST
  1

  9
$DIMALT
 70
     0
  9
$DIMALTD
 70
     3
  9
$DIMALTF
 40
0.03937007874016
  9
$DIMLFAC
 40
1.0
  9
$DIMTOFL
 70
     1
  9
$DIMTVP
 40
0.0
  9
$DIMTIX
 70
     0
  9
$DIMSOXD
 70
     0
  9
$DIMSAH
 70
     0
  9
$DIMBLK1
  1

  9
$DIMBLK2
  1

  9
$DIMSTYLE
  2
ISO-25
  9
$DIMCLRD
 70
     0
  9
$DIMCLRE
 70
     0
  9
$DIMCLRT
 70
     0
  9
$DIMTFAC
 40
1.0
  9
$DIMGAP
 40
0.625
  9
$LUNITS
 70
     2
  9
$LUPREC
 70
     4
  9
$SKETCHINC
 40
1.0
  9
$FILLETRAD
 40
10.0
  9
$AUNITS
 70
     0
  9
$AUPREC
 70
     0
  9
$MENU
  1
.
  9
$ELEVATION
 40
0.0
  9
$PELEVATION
 40
0.0
  9
$THICKNESS
 40
0.0
  9
$LIMCHECK
 70
     0
  9
$BLIPMODE
 70
     0
  9
$CHAMFERA
 40
10.0
  9
$CHAMFERB
 40
10.0
  9
$SKPOLY
 70
     0
  9
$TDCREATE
 40
2453445.433413391
  9
$TDUPDATE
 40
2453551.9163043629
  9
$TDINDWG
 40
0.0691040856
  9
$TDUSRTIMER
 40
0.0691040856
  9
$USRTIMER
 70
     1
  9
$ANGBASE
 50
0.0
  9
$ANGDIR
 70
     0
  9
$PDMODE
 70
     0
  9
$PDSIZE
 40
0.0
  9
$PLINEWID
 40
0.0
  9
$COORDS
 70
     1
  9
$SPLFRAME
 70
     0
  9
$SPLINETYPE
 70
     6
  9
$SPLINESEGS
 70
     8
  9
$ATTDIA
 70
     0
  9
$ATTREQ
 70
     1
  9
$HANDLING
 70
-16383
  9
$HANDSEED
  5
8F9
  9
$SURFTAB1
 70
     6
  9
$SURFTAB2
 70
     6
  9
$SURFTYPE
 70
     6
  9
$SURFU
 70
     6
  9
$SURFV
 70
     6
  9
$UCSNAME
  2

  9
$UCSORG
 10
0.0
 20
0.0
 30
0.0
  9
$UCSXDIR
 10
1.0
 20
0.0
 30
0.0
  9
$UCSYDIR
 10
0.0
 20
1.0
 30
0.0
  9
$PUCSNAME
  2

  9
$PUCSORG
 10
0.0
 20
0.0
 30
0.0
  9
$PUCSXDIR
 10
1.0
 20
0.0
 30
0.0
  9
$PUCSYDIR
 10
0.0
 20
1.0
 30
0.0
  9
$USERI1
 70
     0
  9
$USERI2
 70
     0
  9
$USERI3
 70
     0
  9
$USERI4
 70
     0
  9
$USERI5
 70
     0
  9
$USERR1
 40
0.0
  9
$USERR2
 40
0.0
  9
$USERR3
 40
0.0
  9
$USERR4
 40
0.0
  9
$USERR5
 40
0.0
  9
$WORLDVIEW
 70
     1
  9
$SHADEDGE
 70
     3
  9
$SHADEDIF
 70
    70
  9
$TILEMODE
 70
     1
  9
$MAXACTVP
 70
    64
  9
$PLIMCHECK
 70
     0
  9
$PEXTMIN
 10
1.0000000000000000E+020
 20
1.0000000000000000E+020
 30
1.0000000000000000E+020
  9
$PEXTMAX
 10
-1.0000000000000000E+020
 20
-1.0000000000000000E+020
 30
-1.0000000000000000E+020
  9
$PLIMMIN
 10
0.0
 20
0.0
  9
$PLIMMAX
 10
420.0
 20
297.0
  9
$UNITMODE
 70
     0
  9
$VISRETAIN
 70
     1
  9
$PLINEGEN
 70
     0
  9
$PSLTSCALE
 70
     1
  0
ENDSEC
  0
SECTION
  2
TABLES
  0
TABLE
  2
VPORT
 70
     2
  0
VPORT
  2
*ACTIVE
 70
     0
 10
0.0
 20
0.0
 11
1.0
 21
1.0
 12
67.502928298088889
 22
50.714216102454081
 13
0.0
 23
0.0
 14
10.0
 24
10.0
 15
10.0
 25
10.0
 16
0.0
 26
0.0
 36
1.0
 17
0.0
 27
0.0
 37
0.0
 40
58.185555280261561
 41
2.5392405063291141
 42
50.0
 43
0.0
 44
0.0
 50
0.0
 51
0.0
 71
     0
 72
   100
 73
     1
 74
     3
 75
     0
 76
     0
 77
     0
 78
     0
  0
ENDTAB
  0
TABLE
  2
LTYPE
 70
     2
  0
LTYPE
  2
CONTINUOUS
 70
     0
  3
Solid line
 72
    65
 73
     0
 40
0.0
  0
LTYPE
  2
CENTER
 70
     0
  3
Center ____ _ ____ _ ____ _ ____ _ ____ _ ____
 72
    65
 73
     4
 40
50.799999999999997
 49
31.75
 49
-6.3499999999999988
 49
6.3499999999999988
 49
-6.3499999999999988
  0
ENDTAB
  0
TABLE
  2
LAYER
 70
     4
  0
LAYER
  2
0
 70
     0
 62
     7
  6
CONTINUOUS
  0
LAYER
  2
1
 70
     0
 62
     7
  6
CENTER
  0
LAYER
  2
2
 70
     0
 62
     7
  6
CONTINUOUS
  0
LAYER
  2
DEFPOINTS
 70
     0
 62
     7
  6
CONTINUOUS
  0
ENDTAB
  0
TABLE
  2
STYLE
 70
     3
  0
STYLE
  2
STANDARD
 70
     0
 40
0.0
 41
1.0
 50
0.0
 71
     0
 42
2.5
  3
txt
  4

  0
STYLE
  2
\U+00C9L\U+00C9R_\U+00C2S\U+00C2V\U+00C2B\U+00C2N
 70
     0
 40
1.0
 41
1.0
 50
0.0
 71
     0
 42
1.0
  3
\U+00E9l\U+00E9r \U+00E2S\U+00E2V\U+00E2b\U+00E2N
  4

  0
STYLE
  2

 70
     1
 40
0.0
 41
1.0
 50
0.0
 71
     0
 42
2.5
  3
ltypeshp.shx
  4

  0
ENDTAB
  0
TABLE
  2
VIEW
 70
     0
  0
ENDTAB
  0
TABLE
  2
UCS
 70
     0
  0
ENDTAB
  0
TABLE
  2
APPID
 70
     1
  0
APPID
  2
ACAD
 70
     0
  0
ENDTAB
  0
TABLE
  2
DIMSTYLE
 70
     2
  0
DIMSTYLE
  2
ISO-25
 70
     0
  3

  4

  5

  6

  7

 40
0.5
 41
2.5
 42
0.625
 43
3.75
 44
1.25
 45
0.0
 46
0.0
 47
0.0
 48
0.0
140
2.5
141
2.5
142
0.0
143
0.03937007874016
144
1.0
145
0.0
146
1.0
147
0.625
 71
     0
 72
     0
 73
     0
 74
     0
 75
     0
 76
     0
 77
     1
 78
     8
170
     0
171
     3
172
     1
173
     0
174
     0
175
     0
176
     0
177
     0
178
     0
  0
DIMSTYLE
  2
STANDARD
 70
     0
  3

  4

  5

  6

  7

 40
1.0
 41
0.18
 42
0.0625
 43
0.38
 44
0.18
 45
0.0
 46
0.0
 47
0.0
 48
0.0
140
0.18
141
0.09
142
0.0
143
25.399999999999999
144
1.0
145
0.0
146
1.0
147
0.09
 71
     0
 72
     0
 73
     1
 74
     1
 75
     0
 76
     0
 77
     0
 78
     0
170
     0
171
     2
172
     0
173
     0
174
     0
175
     0
176
     0
177
     0
178
     0
  0
ENDTAB
  0
ENDSEC
  0
SECTION
  2
BLOCKS
  0
BLOCK
  8
0
  2
$MODEL_SPACE
 70
     0
 10
0.0
 20
0.0
 30
0.0
  3
$MODEL_SPACE
  1

  0
ENDBLK
  5
21
  8
0
  0
BLOCK
 67
     1
  8
0
  2
$PAPER_SPACE
 70
     0
 10
0.0
 20
0.0
 30
0.0
  3
$PAPER_SPACE
  1

  0
ENDBLK
  5
1D
 67
     1
  8
0
  0
BLOCK
  8
0
  2
*D1
 70
     1
 10
0.0
 20
0.0
 30
0.0
  3
*D1
  1

  0
LINE
  5
7D4
  8
2
 62
     0
 10
56.589410411677939
 20
61.325994440256927
 30
0.0
 11
56.589410411677939
 21
65.686320772185923
 31
0.0
  0
LINE
  5
7D5
  8
2
 62
     0
 10
61.189410411677947
 20
61.325994440256927
 30
0.0
 11
61.189410411677947
 21
65.686320772185923
 31
0.0
  0
LINE
  5
7D6
  8
2
 62
     0
 10
57.839410411677939
 20
65.061320772185923
 30
0.0
 11
59.939410411677947
 21
65.061320772185923
 31
0.0
  0
SOLID
  5
7D7
  8
2
 62
     0
 10
57.839410411677939
 20
65.269654105519251
 30
0.0
 11
57.839410411677939
 21
64.852987438852594
 31
0.0
 12
56.589410411677939
 22
65.061320772185923
 32
0.0
 13
56.589410411677939
 23
65.061320772185923
 33
0.0
  0
SOLID
  5
7D8
  8
2
 62
     0
 10
59.939410411677947
 20
65.269654105519251
 30
0.0
 11
59.939410411677947
 21
64.852987438852594
 31
0.0
 12
61.189410411677947
 22
65.061320772185923
 32
0.0
 13
61.189410411677947
 23
65.061320772185923
 33
0.0
  0
INSERT
  5
7D9
  8
2
  2
*U19
 10
0.0
 20
0.0
 30
0.0
  0
POINT
  5
7DA
  8
DEFPOINTS
 62
     0
 10
56.589410411677939
 20
61.013494440256927
 30
0.0
  0
POINT
  5
7DB
  8
DEFPOINTS
 62
     0
 10
61.189410411677947
 20
61.013494440256927
 30
0.0
  0
POINT
  5
7DC
  8
DEFPOINTS
 62
     0
 10
61.189410411677947
 20
65.061320772185923
 30
0.0
  0
ENDBLK
  5
6AC
  8
0
  0
BLOCK
  8
0
  2
*D2
 70
     1
 10
0.0
 20
0.0
 30
0.0
  3
*D2
  1

  0
LINE
  5
7B5
  8
2
 62
     0
 10
54.489410411677952
 20
61.625994440256932
 30
0.0
 11
54.489410411677952
 21
72.25548200270643
 31
0.0
  0
LINE
  5
7B6
  8
2
 62
     0
 10
63.289410411677942
 20
61.625994440256932
 30
0.0
 11
63.289410411677942
 21
72.25548200270643
 31
0.0
  0
LINE
  5
7B7
  8
2
 62
     0
 10
55.739410411677952
 20
71.63048200270643
 30
0.0
 11
62.039410411677942
 21
71.63048200270643
 31
0.0
  0
SOLID
  5
7B8
  8
2
 62
     0
 10
55.739410411677952
 20
71.838815336039758
 30
0.0
 11
55.739410411677952
 21
71.422148669373101
 31
0.0
 12
54.489410411677952
 22
71.63048200270643
 32
0.0
 13
54.489410411677952
 23
71.63048200270643
 33
0.0
  0
SOLID
  5
7B9
  8
2
 62
     0
 10
62.039410411677942
 20
71.838815336039758
 30
0.0
 11
62.039410411677942
 21
71.422148669373101
 31
0.0
 12
63.289410411677942
 22
71.63048200270643
 32
0.0
 13
63.289410411677942
 23
71.63048200270643
 33
0.0
  0
INSERT
  5
7BA
  8
2
  2
*U16
 10
0.0
 20
0.0
 30
0.0
  0
POINT
  5
7BB
  8
DEFPOINTS
 62
     0
 10
54.489410411677952
 20
61.313494440256932
 30
0.0
  0
POINT
  5
7BC
  8
DEFPOINTS
 62
     0
 10
63.289410411677942
 20
61.313494440256932
 30
0.0
  0
POINT
  5
7BD
  8
DEFPOINTS
 62
     0
 10
63.289410411677942
 20
71.63048200270643
 30
0.0
  0
ENDBLK
  5
6BA
  8
0
  0
BLOCK
  8
0
  2
*D3
 70
     1
 10
0.0
 20
0.0
 30
0.0
  3
*D3
  1

  0
LINE
  5
7C9
  8
2
 62
     0
 10
53.539410411677949
 20
61.325994440256927
 30
0.0
 11
53.539410411677949
 21
68.031022861667154
 31
0.0
  0
LINE
  5
7CA
  8
2
 62
     0
 10
55.439410411677947
 20
61.325994440256927
 30
0.0
 11
55.439410411677947
 21
68.031022861667154
 31
0.0
  0
LINE
  5
7CB
  8
2
 62
     0
 10
52.289410411677949
 20
67.406022861667154
 30
0.0
 11
51.039410411677949
 21
67.406022861667154
 31
0.0
  0
LINE
  5
7CC
  8
2
 62
     0
 10
56.689410411677947
 20
67.406022861667154
 30
0.0
 11
61.89774374501129
 21
67.406022861667154
 31
0.0
  0
LINE
  5
7CD
  8
2
 62
     0
 10
53.539410411677949
 20
67.406022861667154
 30
0.0
 11
55.439410411677947
 21
67.406022861667154
 31
0.0
  0
SOLID
  5
7CE
  8
2
 62
     0
 10
52.289410411677949
 20
67.614356195000497
 30
0.0
 11
52.289410411677949
 21
67.197689528333825
 31
0.0
 12
53.539410411677949
 22
67.406022861667154
 32
0.0
 13
53.539410411677949
 23
67.406022861667154
 33
0.0
  0
SOLID
  5
7CF
  8
2
 62
     0
 10
56.689410411677947
 20
67.614356195000497
 30
0.0
 11
56.689410411677947
 21
67.197689528333825
 31
0.0
 12
55.439410411677947
 22
67.406022861667154
 32
0.0
 13
55.439410411677947
 23
67.406022861667154
 33
0.0
  0
INSERT
  5
7D0
  8
2
  2
*U18
 10
0.0
 20
0.0
 30
0.0
  0
POINT
  5
7D1
  8
DEFPOINTS
 62
     0
 10
53.539410411677949
 20
61.013494440256927
 30
0.0
  0
POINT
  5
7D2
  8
DEFPOINTS
 62
     0
 10
55.439410411677947
 20
61.013494440256927
 30
0.0
  0
POINT
  5
7D3
  8
DEFPOINTS
 62
     0
 10
55.439410411677947
 20
67.406022861667154
 30
0.0
  0
ENDBLK
  5
6C9
  8
0
  0
BLOCK
  8
0
  2
*D4
 70
     1
 10
0.0
 20
0.0
 30
0.0
  3
*D4
  1

  0
LINE
  5
7BE
  8
2
 62
     0
 10
53.13941041167795
 20
59.825994440256927
 30
0.0
 11
53.13941041167795
 21
70.183105739262174
 31
0.0
  0
LINE
  5
7BF
  8
2
 62
     0
 10
55.839410411677953
 20
59.825994440256927
 30
0.0
 11
55.839410411677953
 21
70.183105739262174
 31
0.0
  0
LINE
  5
7C0
  8
2
 62
     0
 10
51.88941041167795
 20
69.558105739262174
 30
0.0
 11
50.63941041167795
 21
69.558105739262174
 31
0.0
  0
LINE
  5
7C1
  8
2
 62
     0
 10
57.089410411677953
 20
69.558105739262174
 30
0.0
 11
62.714410411677953
 21
69.558105739262174
 31
0.0
  0
LINE
  5
7C2
  8
2
 62
     0
 10
53.13941041167795
 20
69.558105739262174
 30
0.0
 11
55.839410411677953
 21
69.558105739262174
 31
0.0
  0
SOLID
  5
7C3
  8
2
 62
     0
 10
51.88941041167795
 20
69.766439072595503
 30
0.0
 11
51.88941041167795
 21
69.349772405928846
 31
0.0
 12
53.13941041167795
 22
69.558105739262174
 32
0.0
 13
53.13941041167795
 23
69.558105739262174
 33
0.0
  0
SOLID
  5
7C4
  8
2
 62
     0
 10
57.089410411677953
 20
69.766439072595503
 30
0.0
 11
57.089410411677953
 21
69.349772405928846
 31
0.0
 12
55.839410411677953
 22
69.558105739262174
 32
0.0
 13
55.839410411677953
 23
69.558105739262174
 33
0.0
  0
INSERT
  5
7C5
  8
2
  2
*U17
 10
0.0
 20
0.0
 30
0.0
  0
POINT
  5
7C6
  8
DEFPOINTS
 62
     0
 10
53.13941041167795
 20
59.513494440256927
 30
0.0
  0
POINT
  5
7C7
  8
DEFPOINTS
 62
     0
 10
55.839410411677953
 20
59.513494440256927
 30
0.0
  0
POINT
  5
7C8
  8
DEFPOINTS
 62
     0
 10
55.839410411677953
 20
69.558105739262174
 30
0.0
  0
ENDBLK
  5
6EC
  8
0
  0
BLOCK
  8
0
  2
*D5
 70
     1
 10
0.0
 20
0.0
 30
0.0
  3
*D5
  1

  0
LINE
  5
7AC
  8
2
 62
     0
 10
52.38941041167795
 20
61.325994440256927
 30
0.0
 11
52.38941041167795
 21
74.538073527169018
 31
0.0
  0
LINE
  5
7AD
  8
2
 62
     0
 10
65.389410411677943
 20
61.325994440256927
 30
0.0
 11
65.389410411677943
 21
74.538073527169018
 31
0.0
  0
LINE
  5
7AE
  8
2
 62
     0
 10
53.63941041167795
 20
73.913073527169018
 30
0.0
 11
64.139410411677943
 21
73.913073527169018
 31
0.0
  0
SOLID
  5
7AF
  8
2
 62
     0
 10
53.63941041167795
 20
74.121406860502347
 30
0.0
 11
53.63941041167795
 21
73.70474019383569
 31
0.0
 12
52.38941041167795
 22
73.913073527169018
 32
0.0
 13
52.38941041167795
 23
73.913073527169018
 33
0.0
  0
SOLID
  5
7B0
  8
2
 62
     0
 10
64.139410411677943
 20
74.121406860502347
 30
0.0
 11
64.139410411677943
 21
73.70474019383569
 31
0.0
 12
65.389410411677943
 22
73.913073527169018
 32
0.0
 13
65.389410411677943
 23
73.913073527169018
 33
0.0
  0
INSERT
  5
7B1
  8
2
  2
*U15
 10
0.0
 20
0.0
 30
0.0
  0
POINT
  5
7B2
  8
DEFPOINTS
 62
     0
 10
52.38941041167795
 20
61.013494440256927
 30
0.0
  0
POINT
  5
7B3
  8
DEFPOINTS
 62
     0
 10
65.389410411677943
 20
61.013494440256927
 30
0.0
  0
POINT
  5
7B4
  8
DEFPOINTS
 62
     0
 10
65.389410411677943
 20
73.913073527169018
 30
0.0
  0
ENDBLK
  5
6FA
  8
0
  0
BLOCK
  8
0
  2
*D6
 70
     1
 10
0.0
 20
0.0
 30
0.0
  3
*D6
  1

  0
LINE
  5
760
  8
2
 62
     0
 10
65.701910411677943
 20
61.013494440256927
 30
0.0
 11
72.255545978940646
 21
61.013494440256927
 31
0.0
  0
LINE
  5
761
  8
2
 62
     0
 10
65.701910411677943
 20
57.813494440256932
 30
0.0
 11
72.255545978940646
 21
57.813494440256932
 31
0.0
  0
LINE
  5
762
  8
2
 62
     0
 10
71.630545978940646
 20
62.263494440256927
 30
0.0
 11
71.630545978940646
 21
63.513494440256927
 31
0.0
  0
LINE
  5
763
  8
2
 62
     0
 10
71.630545978940646
 20
56.563494440256932
 30
0.0
 11
71.630545978940646
 21
55.313494440256932
 31
0.0
  0
LINE
  5
764
  8
2
 62
     0
 10
71.630545978940646
 20
61.013494440256927
 30
0.0
 11
71.630545978940646
 21
57.813494440256932
 31
0.0
  0
SOLID
  5
765
  8
2
 62
     0
 10
71.422212645607317
 20
62.263494440256927
 30
0.0
 11
71.838879312273974
 21
62.263494440256927
 31
0.0
 12
71.630545978940646
 22
61.013494440256927
 32
0.0
 13
71.630545978940646
 23
61.013494440256927
 33
0.0
  0
SOLID
  5
766
  8
2
 62
     0
 10
71.422212645607317
 20
56.563494440256932
 30
0.0
 11
71.838879312273974
 21
56.563494440256932
 31
0.0
 12
71.630545978940646
 22
57.813494440256932
 32
0.0
 13
71.630545978940646
 23
57.813494440256932
 33
0.0
  0
TEXT
  5
767
  8
2
 62
     0
 10
71.318045978940631
 20
58.03563462505474
 30
0.0
 40
1.25
  1
3.2
 50
90.0
  0
POINT
  5
768
  8
DEFPOINTS
 62
     0
 10
65.389410411677943
 20
61.013494440256927
 30
0.0
  0
POINT
  5
769
  8
DEFPOINTS
 62
     0
 10
65.389410411677943
 20
57.813494440256932
 30
0.0
  0
POINT
  5
76A
  8
DEFPOINTS
 62
     0
 10
71.630545978940646
 20
57.813494440256932
 30
0.0
  0
ENDBLK
  5
708
  8
0
  0
BLOCK
  8
0
  2
*D7
 70
     1
 10
0.0
 20
0.0
 30
0.0
  3
*D7
  1

  0
LINE
  5
757
  8
2
 62
     0
 10
65.701910411677943
 20
61.013494440256927
 30
0.0
 11
74.900231974101885
 21
61.013494440256927
 31
0.0
  0
LINE
  5
758
  8
2
 62
     0
 10
65.451910411677943
 20
56.013494440256927
 30
0.0
 11
74.900231974101885
 21
56.013494440256927
 31
0.0
  0
LINE
  5
759
  8
2
 62
     0
 10
74.275231974101885
 20
59.763494440256927
 30
0.0
 11
74.275231974101885
 21
57.263494440256927
 31
0.0
  0
SOLID
  5
75A
  8
2
 62
     0
 10
74.066898640768557
 20
59.763494440256927
 30
0.0
 11
74.483565307435214
 21
59.763494440256927
 31
0.0
 12
74.275231974101885
 22
61.013494440256927
 32
0.0
 13
74.275231974101885
 23
61.013494440256927
 33
0.0
  0
SOLID
  5
75B
  8
2
 62
     0
 10
74.066898640768557
 20
57.263494440256927
 30
0.0
 11
74.483565307435214
 21
57.263494440256927
 31
0.0
 12
74.275231974101885
 22
56.013494440256927
 32
0.0
 13
74.275231974101885
 23
56.013494440256927
 33
0.0
  0
TEXT
  5
75C
  8
2
 62
     0
 10
73.962731974101871
 20
58.153671865143842
 30
0.0
 40
1.25
  1
5
 50
90.0
  0
POINT
  5
75D
  8
DEFPOINTS
 62
     0
 10
65.389410411677943
 20
61.013494440256927
 30
0.0
  0
POINT
  5
75E
  8
DEFPOINTS
 62
     0
 10
65.139410411677943
 20
56.013494440256927
 30
0.0
  0
POINT
  5
75F
  8
DEFPOINTS
 62
     0
 10
74.275231974101885
 20
56.013494440256927
 30
0.0
  0
ENDBLK
  5
715
  8
0
  0
BLOCK
  8
0
  2
*D8
 70
     1
 10
0.0
 20
0.0
 30
0.0
  3
*D8
  1

  0
LINE
  5
719
  8
2
 62
     0
 10
52.07691041167795
 20
61.013494440256927
 30
0.0
 11
47.578902741565571
 21
61.013494440256942
 31
0.0
  0
LINE
  5
71A
  8
2
 62
     0
 10
52.82691041167795
 20
59.513494440256927
 30
0.0
 11
47.578902741565571
 21
59.513494440256942
 31
0.0
  0
LINE
  5
71B
  8
2
 62
     0
 10
48.203902741565571
 20
62.263494440256927
 30
0.0
 11
48.203902741565571
 21
63.513494440256927
 31
0.0
  0
LINE
  5
71C
  8
2
 62
     0
 10
48.203902741565571
 20
58.263494440256927
 30
0.0
 11
48.203902741565571
 21
54.305161106923599
 31
0.0
  0
LINE
  5
71D
  8
2
 62
     0
 10
48.203902741565571
 20
61.013494440256927
 30
0.0
 11
48.203902741565571
 21
59.513494440256927
 31
0.0
  0
SOLID
  5
71E
  8
2
 62
     0
 10
47.995569408232228
 20
62.263494440256942
 30
0.0
 11
48.4122360748989
 21
62.263494440256927
 31
0.0
 12
48.203902741565571
 22
61.013494440256927
 32
0.0
 13
48.203902741565571
 23
61.013494440256927
 33
0.0
  0
SOLID
  5
71F
  8
2
 62
     0
 10
47.995569408232228
 20
58.263494440256942
 30
0.0
 11
48.4122360748989
 21
58.263494440256927
 31
0.0
 12
48.203902741565571
 22
59.513494440256927
 32
0.0
 13
48.203902741565571
 23
59.513494440256927
 33
0.0
  0
TEXT
  5
720
  8
2
 62
     0
 10
47.89140274156555
 20
54.61766110692362
 30
0.0
 40
1.25
  1
1.5
 50
90.0
  0
POINT
  5
721
  8
DEFPOINTS
 62
     0
 10
52.38941041167795
 20
61.013494440256927
 30
0.0
  0
POINT
  5
722
  8
DEFPOINTS
 62
     0
 10
53.13941041167795
 20
59.513494440256927
 30
0.0
  0
POINT
  5
723
  8
DEFPOINTS
 62
     0
 10
48.203902741565571
 20
59.513494440256927
 30
0.0
  0
ENDBLK
  5
725
  8
0
  0
BLOCK
  8
0
  2
*D9
 70
     1
 10
0.0
 20
0.0
 30
0.0
  3
*D9
  1

  0
LINE
  5
728
  8
2
 62
     0
 10
51.76441041167795
 20
61.013494440256927
 30
0.0
 11
45.423892537369731
 21
61.013494440256942
 31
0.0
  0
LINE
  5
729
  8
2
 62
     0
 10
52.82691041167795
 20
58.513494440256927
 30
0.0
 11
45.423892537369731
 21
58.513494440256942
 31
0.0
  0
LINE
  5
72A
  8
2
 62
     0
 10
46.048892537369731
 20
62.263494440256942
 30
0.0
 11
46.048892537369731
 21
63.513494440256942
 31
0.0
  0
LINE
  5
72B
  8
2
 62
     0
 10
46.048892537369731
 20
57.263494440256942
 30
0.0
 11
46.048892537369731
 21
52.888494440256942
 31
0.0
  0
LINE
  5
72C
  8
2
 62
     0
 10
46.048892537369731
 20
61.013494440256942
 30
0.0
 11
46.048892537369731
 21
58.513494440256942
 31
0.0
  0
SOLID
  5
72D
  8
2
 62
     0
 10
45.840559204036403
 20
62.263494440256942
 30
0.0
 11
46.257225870703067
 21
62.263494440256942
 31
0.0
 12
46.048892537369731
 22
61.013494440256942
 32
0.0
 13
46.048892537369731
 23
61.013494440256942
 33
0.0
  0
SOLID
  5
72E
  8
2
 62
     0
 10
45.840559204036403
 20
57.263494440256942
 30
0.0
 11
46.257225870703067
 21
57.263494440256942
 31
0.0
 12
46.048892537369731
 22
58.513494440256942
 32
0.0
 13
46.048892537369731
 23
58.513494440256942
 33
0.0
  0
TEXT
  5
72F
  8
2
 62
     0
 10
45.736392537369717
 20
53.200994440256949
 30
0.0
 40
1.25
  1
2.5
 50
90.0
  0
POINT
  5
730
  8
DEFPOINTS
 62
     0
 10
52.07691041167795
 20
61.013494440256927
 30
0.0
  0
POINT
  5
731
  8
DEFPOINTS
 62
     0
 10
53.13941041167795
 20
58.513494440256927
 30
0.0
  0
POINT
  5
732
  8
DEFPOINTS
 62
     0
 10
46.048892537369731
 20
58.513494440256942
 30
0.0
  0
ENDBLK
  5
734
  8
0
  0
BLOCK
  8
0
  2
*D10
 70
     1
 10
0.0
 20
0.0
 30
0.0
  3
*D10
  1

  0
LINE
  5
76B
  8
2
 62
     0
 10
65.451910411677943
 20
56.013494440256927
 30
0.0
 11
69.665958009784291
 21
56.013494440256927
 31
0.0
  0
LINE
  5
76C
  8
2
 62
     0
 10
64.332005561358827
 20
56.71349444025693
 30
0.0
 11
69.665958009784291
 21
56.71349444025693
 31
0.0
  0
LINE
  5
76D
  8
2
 62
     0
 10
69.040958009784291
 20
57.96349444025693
 30
0.0
 11
69.040958009784291
 21
59.21349444025693
 31
0.0
  0
LINE
  5
76E
  8
2
 62
     0
 10
69.040958009784291
 20
54.763494440256927
 30
0.0
 11
69.040958009784291
 21
50.59682777359027
 31
0.0
  0
LINE
  5
76F
  8
2
 62
     0
 10
69.040958009784291
 20
56.71349444025693
 30
0.0
 11
69.040958009784291
 21
56.013494440256927
 31
0.0
  0
SOLID
  5
770
  8
2
 62
     0
 10
68.832624676450962
 20
57.96349444025693
 30
0.0
 11
69.249291343117619
 21
57.96349444025693
 31
0.0
 12
69.040958009784291
 22
56.71349444025693
 32
0.0
 13
69.040958009784291
 23
56.71349444025693
 33
0.0
  0
SOLID
  5
771
  8
2
 62
     0
 10
68.832624676450962
 20
54.763494440256927
 30
0.0
 11
69.249291343117619
 21
54.763494440256927
 31
0.0
 12
69.040958009784291
 22
56.013494440256927
 32
0.0
 13
69.040958009784291
 23
56.013494440256927
 33
0.0
  0
TEXT
  5
772
  8
2
 62
     0
 10
68.728458009784276
 20
50.90932777359027
 30
0.0
 40
1.25
  1
0.7
 50
90.0
  0
POINT
  5
773
  8
DEFPOINTS
 62
     0
 10
65.139410411677943
 20
56.013494440256927
 30
0.0
  0
POINT
  5
774
  8
DEFPOINTS
 62
     0
 10
64.019505561358827
 20
56.71349444025693
 30
0.0
  0
POINT
  5
775
  8
DEFPOINTS
 62
     0
 10
69.040958009784291
 20
56.71349444025693
 30
0.0
  0
ENDBLK
  5
74B
  8
0
  0
BLOCK
  8
0
  2
*D11
 70
     1
 10
0.0
 20
0.0
 30
0.0
  3
*D11
  1

  0
LINE
  5
7DD
  8
2
 62
     0
 10
56.344339247677951
 20
55.700994440256927
 30
0.0
 11
56.344339247677951
 21
52.24280742030998
 31
0.0
  0
LINE
  5
7DE
  8
2
 62
     0
 10
61.439410411677947
 20
55.700994440256927
 30
0.0
 11
61.439410411677947
 21
52.24280742030998
 31
0.0
  0
LINE
  5
7DF
  8
2
 62
     0
 10
57.594339247677951
 20
52.86780742030998
 30
0.0
 11
60.189410411677947
 21
52.86780742030998
 31
0.0
  0
SOLID
  5
7E0
  8
2
 62
     0
 10
57.594339247677951
 20
53.076140753643323
 30
0.0
 11
57.594339247677951
 21
52.659474086976651
 31
0.0
 12
56.344339247677951
 22
52.86780742030998
 32
0.0
 13
56.344339247677951
 23
52.86780742030998
 33
0.0
  0
SOLID
  5
7E1
  8
2
 62
     0
 10
60.189410411677947
 20
53.076140753643323
 30
0.0
 11
60.189410411677947
 21
52.659474086976651
 31
0.0
 12
61.439410411677947
 22
52.86780742030998
 32
0.0
 13
61.439410411677947
 23
52.86780742030998
 33
0.0
  0
INSERT
  5
7E2
  8
2
  2
*U20
 10
0.0
 20
0.0
 30
0.0
  0
POINT
  5
7E3
  8
DEFPOINTS
 62
     0
 10
56.344339247677951
 20
56.013494440256927
 30
0.0
  0
POINT
  5
7E4
  8
DEFPOINTS
 62
     0
 10
61.439410411677947
 20
56.013494440256927
 30
0.0
  0
POINT
  5
7E5
  8
DEFPOINTS
 62
     0
 10
61.439410411677947
 20
52.86780742030998
 30
0.0
  0
ENDBLK
  5
783
  8
0
  0
BLOCK
  8
0
  2
*D12
 70
     1
 10
0.0
 20
0.0
 30
0.0
  3
*D12
  1

  0
LINE
  5
7E6
  8
2
 62
     0
 10
55.539410411677949
 20
56.436269077756933
 30
0.0
 11
55.539410411677949
 21
49.951141940380232
 31
0.0
  0
LINE
  5
7E7
  8
2
 62
     0
 10
62.239410411677952
 20
56.436269077756933
 30
0.0
 11
62.239410411677952
 21
49.951141940380232
 31
0.0
  0
LINE
  5
7E8
  8
2
 62
     0
 10
56.789410411677949
 20
50.576141940380232
 30
0.0
 11
60.989410411677952
 21
50.576141940380232
 31
0.0
  0
SOLID
  5
7E9
  8
2
 62
     0
 10
56.789410411677949
 20
50.784475273713568
 30
0.0
 11
56.789410411677949
 21
50.367808607046904
 31
0.0
 12
55.539410411677949
 22
50.576141940380232
 32
0.0
 13
55.539410411677949
 23
50.576141940380232
 33
0.0
  0
SOLID
  5
7EA
  8
2
 62
     0
 10
60.989410411677952
 20
50.784475273713568
 30
0.0
 11
60.989410411677952
 21
50.367808607046904
 31
0.0
 12
62.239410411677952
 22
50.576141940380232
 32
0.0
 13
62.239410411677952
 23
50.576141940380232
 33
0.0
  0
INSERT
  5
7EB
  8
2
  2
*U21
 10
0.0
 20
0.0
 30
0.0
  0
POINT
  5
7EC
  8
DEFPOINTS
 62
     0
 10
55.539410411677949
 20
56.748769077756933
 30
0.0
  0
POINT
  5
7ED
  8
DEFPOINTS
 62
     0
 10
62.239410411677952
 20
56.748769077756933
 30
0.0
  0
POINT
  5
7EE
  8
DEFPOINTS
 62
     0
 10
62.239410411677952
 20
50.576141940380232
 30
0.0
  0
ENDBLK
  5
790
  8
0
  0
BLOCK
  8
0
  2
*D13
 70
     1
 10
0.0
 20
0.0
 30
0.0
  3
*D13
  1

  0
LINE
  5
7EF
  8
2
 62
     0
 10
53.38941041167795
 20
56.390314412913177
 30
0.0
 11
53.38941041167795
 21
47.719225165473972
 31
0.0
  0
LINE
  5
7F0
  8
2
 62
     0
 10
64.389410411677943
 20
56.390314412913177
 30
0.0
 11
64.389410411677943
 21
47.719225165473972
 31
0.0
  0
LINE
  5
7F1
  8
2
 62
     0
 10
54.63941041167795
 20
48.344225165473972
 30
0.0
 11
63.139410411677943
 21
48.344225165473972
 31
0.0
  0
SOLID
  5
7F2
  8
2
 62
     0
 10
54.63941041167795
 20
48.552558498807301
 30
0.0
 11
54.63941041167795
 21
48.135891832140629
 31
0.0
 12
53.38941041167795
 22
48.344225165473972
 32
0.0
 13
53.38941041167795
 23
48.344225165473972
 33
0.0
  0
SOLID
  5
7F3
  8
2
 62
     0
 10
63.139410411677943
 20
48.552558498807301
 30
0.0
 11
63.139410411677943
 21
48.135891832140629
 31
0.0
 12
64.389410411677943
 22
48.344225165473972
 32
0.0
 13
64.389410411677943
 23
48.344225165473972
 33
0.0
  0
INSERT
  5
7F4
  8
2
  2
*U22
 10
0.0
 20
0.0
 30
0.0
  0
POINT
  5
7F5
  8
DEFPOINTS
 62
     0
 10
53.38941041167795
 20
56.702814412913177
 30
0.0
  0
POINT
  5
7F6
  8
DEFPOINTS
 62
     0
 10
64.389410411677943
 20
56.702814412913177
 30
0.0
  0
POINT
  5
7F7
  8
DEFPOINTS
 62
     0
 10
64.389410411677943
 20
48.344225165473972
 30
0.0
  0
ENDBLK
  5
79D
  8
0
  0
BLOCK
  8
0
  2
*D14
 70
     1
 10
0.0
 20
0.0
 30
0.0
  3
*D14
  1

  0
LINE
  5
7F8
  8
2
 62
     0
 10
52.63941041167795
 20
55.700994440256927
 30
0.0
 11
52.63941041167795
 21
45.668340087168019
 31
0.0
  0
LINE
  5
7F9
  8
2
 62
     0
 10
65.139410411677943
 20
55.700994440256927
 30
0.0
 11
65.139410411677943
 21
45.668340087168019
 31
0.0
  0
LINE
  5
7FA
  8
2
 62
     0
 10
53.88941041167795
 20
46.293340087168019
 30
0.0
 11
63.889410411677943
 21
46.293340087168019
 31
0.0
  0
SOLID
  5
7FB
  8
2
 62
     0
 10
53.88941041167795
 20
46.501673420501348
 30
0.0
 11
53.88941041167795
 21
46.085006753834683
 31
0.0
 12
52.63941041167795
 22
46.293340087168019
 32
0.0
 13
52.63941041167795
 23
46.293340087168019
 33
0.0
  0
SOLID
  5
7FC
  8
2
 62
     0
 10
63.889410411677943
 20
46.501673420501348
 30
0.0
 11
63.889410411677943
 21
46.085006753834683
 31
0.0
 12
65.139410411677943
 22
46.293340087168019
 32
0.0
 13
65.139410411677943
 23
46.293340087168019
 33
0.0
  0
INSERT
  5
7FD
  8
2
  2
*U23
 10
0.0
 20
0.0
 30
0.0
  0
POINT
  5
7FE
  8
DEFPOINTS
 62
     0
 10
52.63941041167795
 20
56.013494440256927
 30
0.0
  0
POINT
  5
7FF
  8
DEFPOINTS
 62
     0
 10
65.139410411677943
 20
56.013494440256927
 30
0.0
  0
POINT
  5
800
  8
DEFPOINTS
 62
     0
 10
65.139410411677943
 20
46.293340087168019
 30
0.0
  0
ENDBLK
  5
7AA
  8
0
  0
BLOCK
  8
0
  2
*U15
 70
     1
 10
0.0
 20
0.0
 30
0.0
  3
*U15
  1

  0
TEXT
  5
8CD
  8
2
 62
     0
 10
57.431077078344607
 20
74.225573527169018
 30
0.0
 40
1.25
  1
\U+2205
  0
TEXT
  5
8CE
  8
2
 62
     0
 10
58.681077078344607
 20
74.225573527169018
 30
0.0
 40
1.25
  1
13
  0
ENDBLK
  5
8D0
  8
0
  0
BLOCK
  8
0
  2
*U16
 70
     1
 10
0.0
 20
0.0
 30
0.0
  3
*U16
  1

  0
TEXT
  5
8D2
  8
2
 62
     0
 10
57.103953227737293
 20
71.94298200270643
 30
0.0
 40
1.25
  1
\U+2205
  0
TEXT
  5
8D3
  8
2
 62
     0
 10
58.353953227737293
 20
71.94298200270643
 30
0.0
 40
1.25
  1
8.8
  0
ENDBLK
  5
8D5
  8
0
  0
BLOCK
  8
0
  2
*U17
 70
     1
 10
0.0
 20
0.0
 30
0.0
  3
*U17
  1

  0
TEXT
  5
8D7
  8
2
 62
     0
 10
58.651910411677953
 20
69.870605739262174
 30
0.0
 40
1.25
  1
\U+2205
  0
TEXT
  5
8D8
  8
2
 62
     0
 10
59.901910411677953
 20
69.870605739262174
 30
0.0
 40
1.25
  1
2.7
  0
ENDBLK
  5
8DA
  8
0
  0
BLOCK
  8
0
  2
*U18
 70
     1
 10
0.0
 20
0.0
 30
0.0
  3
*U18
  1

  0
TEXT
  5
8DC
  8
2
 62
     0
 10
58.251910411677947
 20
67.718522861667154
 30
0.0
 40
1.25
  1
\U+2205
  0
TEXT
  5
8DD
  8
2
 62
     0
 10
59.501910411677947
 20
67.718522861667154
 30
0.0
 40
1.25
  1
1.9
  0
ENDBLK
  5
8DF
  8
0
  0
BLOCK
  8
0
  2
*U19
 70
     1
 10
0.0
 20
0.0
 30
0.0
  3
*U19
  1

  0
TEXT
  5
8E1
  8
2
 62
     0
 10
57.01441041167795
 20
65.373820772185923
 30
0.0
 40
1.25
  1
\U+2205
  0
TEXT
  5
8E2
  8
2
 62
     0
 10
58.26441041167795
 20
65.373820772185923
 30
0.0
 40
1.25
  1
4.6
  0
ENDBLK
  5
8E4
  8
0
  0
BLOCK
  8
0
  2
*U20
 70
     1
 10
0.0
 20
0.0
 30
0.0
  3
*U20
  1

  0
TEXT
  5
8E6
  8
2
 62
     0
 10
57.225208163011281
 20
53.18030742030998
 30
0.0
 40
1.25
  1
\U+2205
  0
TEXT
  5
8E7
  8
2
 62
     0
 10
58.475208163011281
 20
53.18030742030998
 30
0.0
 40
1.25
  1
5.1
  0
ENDBLK
  5
8E9
  8
0
  0
BLOCK
  8
0
  2
*U21
 70
     1
 10
0.0
 20
0.0
 30
0.0
  3
*U21
  1

  0
TEXT
  5
8EB
  8
2
 62
     0
 10
57.01441041167795
 20
50.888641940380232
 30
0.0
 40
1.25
  1
\U+2205
  0
TEXT
  5
8EC
  8
2
 62
     0
 10
58.26441041167795
 20
50.888641940380232
 30
0.0
 40
1.25
  1
6.7
  0
ENDBLK
  5
8EE
  8
0
  0
BLOCK
  8
0
  2
*U22
 70
     1
 10
0.0
 20
0.0
 30
0.0
  3
*U22
  1

  0
TEXT
  5
8F0
  8
2
 62
     0
 10
57.639410411677943
 20
48.656725165473972
 30
0.0
 40
1.25
  1
\U+2205
  0
TEXT
  5
8F1
  8
2
 62
     0
 10
58.889410411677943
 20
48.656725165473972
 30
0.0
 40
1.25
  1
11
  0
ENDBLK
  5
8F3
  8
0
  0
BLOCK
  8
0
  2
*U23
 70
     1
 10
0.0
 20
0.0
 30
0.0
  3
*U23
  1

  0
TEXT
  5
8F5
  8
2
 62
     0
 10
56.597743745011279
 20
46.605840087168019
 30
0.0
 40
1.25
  1
\U+2205
  0
TEXT
  5
8F6
  8
2
 62
     0
 10
57.847743745011279
 20
46.605840087168019
 30
0.0
 40
1.25
  1
12.5
  0
ENDBLK
  5
8F8
  8
0
  0
ENDSEC
  0
SECTION
  2
ENTITIES
  0
TEXT
  5
EC
  8
2
 10
50.704223063852112
 20
32.856769503049222
 30
0.0
 40
1.2699720000000001
  1
No. 107.013.095.2
 51
-0.0000015352344868
  7
\U+00C9L\U+00C9R_\U+00C2S\U+00C2V\U+00C2B\U+00C2N
  0
LINE
  5
1A8
  8
0
 39
3.0572749999999989
 10
56.589410411677939
 20
61.013494440256927
 30
0.0
 11
56.589410411677939
 21
57.813494440256932
 31
0.0
  0
LINE
  5
1B1
  8
0
 39
3.0572749999999989
 10
55.219505561358837
 20
56.71349444025693
 30
0.0
 11
56.252376415677936
 21
56.013494440256927
 31
0.0
  0
LINE
  5
1B4
  8
0
 39
3.0572749999999989
 10
55.088166095677963
 20
56.71349444025693
 30
0.0
 11
55.088166095677948
 21
58.513494440256927
 31
0.0
  0
LINE
  5
24D
  8
0
 10
52.38941041167795
 20
61.013494440256927
 30
0.0
 11
56.589410411677939
 21
61.013494440256927
 31
0.0
  0
LINE
  5
268
  8
0
 10
56.589410411677939
 20
61.013494440256927
 30
0.0
 11
58.88941041167795
 21
61.013494440256927
 31
0.0
  0
LINE
  5
26A
  8
0
 10
55.539410411677949
 20
56.748769077756933
 30
0.0
 11
58.88941041167795
 21
56.748769077756933
 31
0.0
  0
LINE
  5
26B
  8
0
 10
56.344339247677951
 20
56.013494440256927
 30
0.0
 11
58.88941041167795
 21
56.013494440256927
 31
0.0
  0
POLYLINE
  5
5B0
  8
0
 66
     1
 10
0.0
 20
0.0
 30
0.0
 39
3.1956735499999991
  0
VERTEX
  5
81E
  8
0
 10
52.668073144537949
 20
43.32415084427938
 30
0.0
  0
VERTEX
  5
81F
  8
0
 10
52.668073144537949
 20
43.32415084427938
 30
0.0
  0
VERTEX
  5
820
  8
0
 10
52.696386812190951
 20
42.746181326026381
 30
0.0
  0
VERTEX
  5
821
  8
0
 10
52.77851562242595
 20
42.175050549170379
 30
0.0
  0
VERTEX
  5
822
  8
0
 10
52.913181305822953
 20
41.614785062384378
 30
0.0
  0
VERTEX
  5
823
  8
0
 10
53.099361246845952
 20
41.069411414341381
 30
0.0
  0
VERTEX
  5
824
  8
0
 10
53.33558543566194
 20
40.542764413301391
 30
0.0
  0
VERTEX
  5
825
  8
0
 10
53.620959083676937
 20
40.039126261821373
 30
0.0
  0
VERTEX
  5
826
  8
0
 10
53.954140007999953
 20
39.562331768161371
 30
0.0
  0
VERTEX
  5
827
  8
0
 10
54.334169506565949
 20
39.116471394465378
 30
0.0
  0
VERTEX
  5
828
  8
0
 10
54.759513656070951
 20
38.70531603552238
 30
0.0
  0
VERTEX
  5
829
  8
0
 10
55.229341581391949
 20
38.333147893889382
 30
0.0
  0
VERTEX
  5
82A
  8
0
 10
55.742311099637938
 20
38.003801777826382
 30
0.0
  0
VERTEX
  5
82B
  8
0
 10
56.297335681801947
 20
37.721432062948381
 30
0.0
  0
VERTEX
  5
82C
  8
0
 10
56.893073144992947
 20
37.489873557515381
 30
0.0
  0
VERTEX
  5
82D
  8
0
 10
57.528564787145939
 20
37.313280637142377
 30
0.0
  0
VERTEX
  5
82E
  8
0
 10
58.20246842536995
 20
37.195552023560381
 30
0.0
  0
VERTEX
  5
82F
  8
0
 10
58.91382535759994
 20
37.140842092384382
 30
0.0
  0
VERTEX
  5
830
  8
0
 10
58.91382535759994
 20
37.140842092384382
 30
0.0
  0
VERTEX
  5
831
  8
0
 10
59.564592319321939
 20
37.19165330182939
 30
0.0
  0
VERTEX
  5
832
  8
0
 10
60.19311739313595
 20
37.296215740385371
 30
0.0
  0
VERTEX
  5
833
  8
0
 10
60.796396645904942
 20
37.452356350038379
 30
0.0
  0
VERTEX
  5
834
  8
0
 10
61.37187353878894
 20
37.658285553600379
 30
0.0
  0
VERTEX
  5
835
  8
0
 10
61.916544138650941
 20
37.91189420652838
 30
0.0
  0
VERTEX
  5
836
  8
0
 10
62.427915820121953
 20
38.211328818163381
 30
0.0
  0
VERTEX
  5
837
  8
0
 10
62.902984650064958
 20
38.554544157433376
 30
0.0
  0
VERTEX
  5
838
  8
0
 10
63.339194089639939
 20
38.93968673367938
 30
0.0
  0
VERTEX
  5
839
  8
0
 10
63.733540205709929
 20
39.364583488887391
 30
0.0
  0
VERTEX
  5
83A
  8
0
 10
64.083466459434945
 20
39.82750875934039
 30
0.0
  0
VERTEX
  5
83B
  8
0
 10
64.386160658090944
 20
40.326289487024368
 30
0.0
  0
VERTEX
  5
83C
  8
0
 10
64.638938435895938
 20
40.859263921693369
 30
0.0
  0
VERTEX
  5
83D
  8
0
 10
64.838795859712945
 20
41.424131178391377
 30
0.0
  0
VERTEX
  5
83E
  8
0
 10
64.983240304172924
 20
42.019165593401382
 30
0.0
  0
VERTEX
  5
83F
  8
0
 10
65.06939566308094
 20
42.642321935651381
 30
0.0
  0
VERTEX
  5
840
  8
0
 10
65.094577570654934
 20
43.29161888754038
 30
0.0
  0
VERTEX
  5
841
  8
0
 10
65.094577570654934
 20
43.29161888754038
 30
0.0
  0
VERTEX
  5
842
  8
0
 10
65.044852890216958
 20
43.72316264373238
 30
0.0
  0
VERTEX
  5
843
  8
0
 10
64.925142959033963
 20
44.09852645891538
 30
0.0
  0
VERTEX
  5
844
  8
0
 10
64.745226538168936
 20
44.417326852263379
 30
0.0
  0
VERTEX
  5
845
  8
0
 10
64.515138042568935
 20
44.679563823776377
 30
0.0
  0
VERTEX
  5
846
  8
0
 10
64.244720146767946
 20
44.88472606568638
 30
0.0
  0
VERTEX
  5
847
  8
0
 10
63.944135092654932
 20
45.032877491464383
 30
0.0
  0
VERTEX
  5
848
  8
0
 10
63.623289468234951
 20
45.123570706813382
 30
0.0
  0
VERTEX
  5
849
  8
0
 10
63.292153774983952
 20
45.156805711733391
 30
0.0
  0
VERTEX
  5
84A
  8
0
 10
62.96057068743594
 20
45.13213511192739
 30
0.0
  0
VERTEX
  5
84B
  8
0
 10
62.638638534008948
 20
45.049558907395387
 30
0.0
  0
VERTEX
  5
84C
  8
0
 10
62.336327816178937
 20
44.908757530782367
 30
0.0
  0
VERTEX
  5
84D
  8
0
 10
62.06367294889295
 20
44.709603155146382
 30
0.0
  0
VERTEX
  5
84E
  8
0
 10
61.830516606684938
 20
44.451648386190378
 30
0.0
  0
VERTEX
  5
84F
  8
0
 10
61.646957117972939
 20
44.134957137385378
 30
0.0
  0
VERTEX
  5
850
  8
0
 10
61.522837157290937
 20
43.759145927905386
 30
0.0
  0
VERTEX
  5
851
  8
0
 10
61.468318966527953
 20
43.32415084427938
 30
0.0
  0
VERTEX
  5
852
  8
0
 10
61.468318966527953
 20
43.32415084427938
 30
0.0
  0
VERTEX
  5
853
  8
0
 10
61.379734895721938
 20
42.729435996624382
 30
0.0
  0
VERTEX
  5
854
  8
0
 10
61.195919753125942
 20
42.213462545241377
 30
0.0
  0
VERTEX
  5
855
  8
0
 10
60.930487108062948
 20
41.776294403601383
 30
0.0
  0
VERTEX
  5
856
  8
0
 10
60.597370097210948
 20
41.41812331211738
 30
0.0
  0
VERTEX
  5
857
  8
0
 10
60.210182289892941
 20
41.138885357318372
 30
0.0
  0
VERTEX
  5
858
  8
0
 10
59.782984649728952
 20
40.938964020030383
 30
0.0
  0
VERTEX
  5
859
  8
0
 10
59.329390746041952
 20
40.818295386782367
 30
0.0
  0
VERTEX
  5
85A
  8
0
 10
58.863333715509938
 20
40.777199024929381
 30
0.0
  0
VERTEX
  5
85B
  8
0
 10
58.398427127455939
 20
40.815547107529383
 30
0.0
  0
VERTEX
  5
85C
  8
0
 10
57.948668032028948
 20
40.933659201937367
 30
0.0
  0
VERTEX
  5
85D
  8
0
 10
57.527733912022939
 20
41.131599221624377
 30
0.0
  0
VERTEX
  5
85E
  8
0
 10
57.149493990644949
 20
41.409622820474382
 30
0.0
  0
VERTEX
  5
85F
  8
0
 10
56.827689664159948
 20
41.76766608501638
 30
0.0
  0
VERTEX
  5
860
  8
0
 10
56.57612624230395
 20
42.206112496076379
 30
0.0
  0
VERTEX
  5
861
  8
0
 10
56.40867294828395
 20
42.724834226712382
 30
0.0
  0
VERTEX
  5
862
  8
0
 10
56.339135091835949
 20
43.32415084427938
 30
0.0
  0
VERTEX
  5
863
  8
0
 10
56.339135091835949
 20
43.32415084427938
 30
0.0
  0
VERTEX
  5
864
  8
0
 10
56.278800775211948
 20
43.743423214039382
 30
0.0
  0
VERTEX
  5
865
  8
0
 10
56.150782092798948
 20
44.11086175881838
 30
0.0
  0
VERTEX
  5
866
  8
0
 10
55.964666065246952
 20
44.425507776551378
 30
0.0
  0
VERTEX
  5
867
  8
0
 10
55.730295367089951
 20
44.686530392115372
 30
0.0
  0
VERTEX
  5
868
  8
0
 10
55.457129192035943
 20
44.892906989974392
 30
0.0
  0
VERTEX
  5
869
  8
0
 10
55.15507412808995
 20
45.044126262360379
 30
0.0
  0
VERTEX
  5
86A
  8
0
 10
54.833589368959949
 20
45.139037766795383
 30
0.0
  0
VERTEX
  5
86B
  8
0
 10
54.502581502650948
 20
45.17700236856939
 30
0.0
  0
VERTEX
  5
86C
  8
0
 10
54.171445809399948
 20
45.156869625204379
 30
0.0
  0
VERTEX
  5
86D
  8
0
 10
53.850088877211952
 20
45.078128228932378
 30
0.0
  0
VERTEX
  5
86E
  8
0
 10
53.548033813265953
 20
44.939755564217371
 30
0.0
  0
VERTEX
  5
86F
  8
0
 10
53.275251119037947
 20
44.740984669407382
 30
0.0
  0
VERTEX
  5
870
  8
0
 10
53.041072161293947
 20
44.48079292896638
 30
0.0
  0
VERTEX
  5
871
  8
0
 10
52.855403528038948
 20
44.158541208184388
 30
0.0
  0
VERTEX
  5
872
  8
0
 10
52.727768326451937
 20
43.773270804996393
 30
0.0
  0
VERTEX
  5
873
  8
0
 10
52.668073144537949
 20
43.32415084427938
 30
0.0
  0
SEQEND
  5
874
  8
0
  0
POLYLINE
  5
5B1
  8
0
 66
     1
 10
0.0
 20
0.0
 30
0.0
 39
3.1956735499999991
  0
VERTEX
  5
875
  8
0
 10
52.37407117793795
 20
43.346712299542382
 30
0.0
  0
VERTEX
  5
876
  8
0
 10
52.37407117793795
 20
43.346712299542382
 30
0.0
  0
VERTEX
  5
877
  8
0
 10
52.402768326416947
 20
42.72298073605338
 30
0.0
  0
VERTEX
  5
878
  8
0
 10
52.486239319542953
 20
42.112159693706388
 30
0.0
  0
VERTEX
  5
879
  8
0
 10
52.623333714837941
 20
41.517764413406383
 30
0.0
  0
VERTEX
  5
87A
  8
0
 10
52.813284550649939
 20
40.943437963000378
 30
0.0
  0
VERTEX
  5
87B
  8
0
 10
53.055005297971952
 20
40.392631669922373
 30
0.0
  0
VERTEX
  5
87C
  8
0
 10
53.347792908622949
 20
39.869052515490388
 30
0.0
  0
VERTEX
  5
87D
  8
0
 10
53.690496940124952
 20
39.376151827138372
 30
0.0
  0
VERTEX
  5
87E
  8
0
 10
54.08241434429695
 20
38.917636586184379
 30
0.0
  0
VERTEX
  5
87F
  8
0
 10
54.522266851718953
 20
38.496894206591378
 30
0.0
  0
VERTEX
  5
880
  8
0
 10
55.009543154622939
 20
38.11763166967738
 30
0.0
  0
VERTEX
  5
881
  8
0
 10
55.543028897059941
 20
37.783364216347387
 30
0.0
  0
VERTEX
  5
882
  8
0
 10
56.122021030848948
 20
37.49773491444838
 30
0.0
  0
VERTEX
  5
883
  8
0
 10
56.745369113511948
 20
37.264195091414379
 30
0.0
  0
VERTEX
  5
884
  8
0
 10
57.41230618339695
 20
37.086515642034378
 30
0.0
  0
VERTEX
  5
885
  8
0
 10
58.121809624967952
 20
36.968083980271381
 30
0.0
  0
VERTEX
  5
886
  8
0
 10
58.873176390043952
 20
36.912607087443369
 30
0.0
  0
VERTEX
  5
887
  8
0
 10
58.873176390043952
 20
36.912607087443369
 30
0.0
  0
VERTEX
  5
888
  8
0
 10
59.551106576940953
 20
36.965847008786383
 30
0.0
  0
VERTEX
  5
889
  8
0
 10
60.207306183697952
 20
37.075714265435373
 30
0.0
  0
VERTEX
  5
88A
  8
0
 10
60.838387796351952
 20
37.239844058963378
 30
0.0
  0
VERTEX
  5
88B
  8
0
 10
61.44153922217896
 20
37.45631898524038
 30
0.0
  0
VERTEX
  5
88C
  8
0
 10
62.013373047215943
 20
37.722774245839382
 30
0.0
  0
VERTEX
  5
88D
  8
0
 10
62.55120490568094
 20
38.037228523159378
 30
0.0
  0
VERTEX
  5
88E
  8
0
 10
63.051647383610948
 20
38.397444845715377
 30
0.0
  0
VERTEX
  5
88F
  8
0
 10
63.511888288281952
 20
38.801377982435383
 30
0.0
  0
VERTEX
  5
890
  8
0
 10
63.92847629225993
 20
39.24666313489238
 30
0.0
  0
VERTEX
  5
891
  8
0
 10
64.298790943233939
 20
39.731382898956383
 30
0.0
  0
VERTEX
  5
892
  8
0
 10
64.619444827240955
 20
40.253300303142389
 30
0.0
  0
VERTEX
  5
893
  8
0
 10
64.887561838085958
 20
40.810434029849382
 30
0.0
  0
VERTEX
  5
894
  8
0
 10
65.099882388747943
 20
41.40035536717938
 30
0.0
  0
VERTEX
  5
895
  8
0
 10
65.253530373031964
 20
42.021210824473378
 30
0.0
  0
VERTEX
  5
896
  8
0
 10
65.345246203916957
 20
42.670635603304383
 30
0.0
  0
VERTEX
  5
897
  8
0
 10
65.372281602149926
 20
43.346712299542382
 30
0.0
  0
VERTEX
  5
898
  8
0
 10
65.372281602149926
 20
43.346712299542382
 30
0.0
  0
VERTEX
  5
899
  8
0
 10
65.321917787001951
 20
43.820247206181371
 30
0.0
  0
VERTEX
  5
89A
  8
0
 10
65.189616902031943
 20
44.23344779619638
 30
0.0
  0
VERTEX
  5
89B
  8
0
 10
64.986755545077955
 20
44.585483194464381
 30
0.0
  0
VERTEX
  5
89C
  8
0
 10
64.724965967861948
 20
44.875969920159378
 30
0.0
  0
VERTEX
  5
89D
  8
0
 10
64.41562476822196
 20
45.104204925100383
 30
0.0
  0
VERTEX
  5
89E
  8
0
 10
64.070555938292955
 20
45.269740814990371
 30
0.0
  0
VERTEX
  5
89F
  8
0
 10
63.701136075912949
 20
45.371874541648381
 30
0.0
  0
VERTEX
  5
8A0
  8
0
 10
63.319189173216941
 20
45.410158710777381
 30
0.0
  0
VERTEX
  5
8A1
  8
0
 10
62.935900087629932
 20
45.383826360725386
 30
0.0
  0
VERTEX
  5
8A2
  8
0
 10
62.563092811286943
 20
45.292557924137377
 30
0.0
  0
VERTEX
  5
8A3
  8
0
 10
62.212271768967938
 20
45.135586439361383
 30
0.0
  0
VERTEX
  5
8A4
  8
0
 10
61.895069212394937
 20
44.912528425571381
 30
0.0
  0
VERTEX
  5
8A5
  8
0
 10
61.622861739405941
 20
44.622553007644377
 30
0.0
  0
VERTEX
  5
8A6
  8
0
 10
61.407537255606947
 20
44.265404531696383
 30
0.0
  0
VERTEX
  5
8A7
  8
0
 10
61.260344531893949
 20
43.840252122604383
 30
0.0
  0
VERTEX
  5
8A8
  8
0
 10
61.193107560401948
 20
43.346712299542382
 30
0.0
  0
VERTEX
  5
8A9
  8
0
 10
61.193107560401948
 20
43.346712299542382
 30
0.0
  0
VERTEX
  5
8AA
  8
0
 10
61.116858789498949
 20
42.814696566938387
 30
0.0
  0
VERTEX
  5
8AB
  8
0
 10
60.954965967455941
 20
42.352346517724378
 30
0.0
  0
VERTEX
  5
8AC
  8
0
 10
60.719572653762938
 20
41.959853892313383
 30
0.0
  0
VERTEX
  5
8AD
  8
0
 10
60.42314197526494
 20
41.637602171531377
 30
0.0
  0
VERTEX
  5
8AE
  8
0
 10
60.077689664509947
 20
41.385655268849384
 30
0.0
  0
VERTEX
  5
8AF
  8
0
 10
59.695806675284949
 20
41.204524492035368
 30
0.0
  0
VERTEX
  5
8B0
  8
0
 10
59.289508740137947
 20
41.094401581502368
 30
0.0
  0
VERTEX
  5
8B1
  8
0
 10
58.87132289938495
 20
41.055733931547373
 30
0.0
  0
VERTEX
  5
8B2
  8
0
 10
58.453200972102941
 20
41.088457628699388
 30
0.0
  0
VERTEX
  5
8B3
  8
0
 10
58.047733912078947
 20
41.193083980726378
 30
0.0
  0
VERTEX
  5
8B4
  8
0
 10
57.667065278802951
 20
41.369932554983379
 30
0.0
  0
VERTEX
  5
8B5
  8
0
 10
57.323594285648937
 20
41.619259005354387
 30
0.0
  0
VERTEX
  5
8B6
  8
0
 10
57.029336665164948
 20
41.941255072252382
 30
0.0
  0
VERTEX
  5
8B7
  8
0
 10
56.796883371137952
 20
42.336304236503381
 30
0.0
  0
VERTEX
  5
8B8
  8
0
 10
56.63825013611595
 20
42.80466215199138
 30
0.0
  0
VERTEX
  5
8B9
  8
0
 10
56.565964000414951
 20
43.346712299542382
 30
0.0
  0
VERTEX
  5
8BA
  8
0
 10
56.565964000414951
 20
43.346712299542382
 30
0.0
  0
VERTEX
  5
8BB
  8
0
 10
56.494508739836952
 20
43.828683784353387
 30
0.0
  0
VERTEX
  5
8BC
  8
0
 10
56.348466458601948
 20
44.247125278990382
 30
0.0
  0
VERTEX
  5
8BD
  8
0
 10
56.138127225540948
 20
44.601845043040377
 30
0.0
  0
VERTEX
  5
8BE
  8
0
 10
55.874356330723948
 20
44.89271524956137
 30
0.0
  0
VERTEX
  5
8BF
  8
0
 10
55.567379929510949
 20
45.11941633119838
 30
0.0
  0
VERTEX
  5
8C0
  8
0
 10
55.228063311971951
 20
45.282076114893378
 30
0.0
  0
VERTEX
  5
8C1
  8
0
 10
54.86682437387995
 20
45.380311119820377
 30
0.0
  0
VERTEX
  5
8C2
  8
0
 10
54.494336664891946
 20
45.41418525945037
 30
0.0
  0
VERTEX
  5
8C3
  8
0
 10
54.120890253838951
 20
45.383315052957379
 30
0.0
  0
VERTEX
  5
8C4
  8
0
 10
53.75741434426196
 20
45.287828327283378
 30
0.0
  0
VERTEX
  5
8C5
  8
0
 10
53.414262918462939
 20
45.127341601602367
 30
0.0
  0
VERTEX
  5
8C6
  8
0
 10
53.10210952609895
 20
44.901854875914381
 30
0.0
  0
VERTEX
  5
8C7
  8
0
 10
52.831308149471937
 20
44.61111249633538
 30
0.0
  0
VERTEX
  5
8C8
  8
0
 10
52.612724078651937
 20
44.255178376336367
 30
0.0
  0
VERTEX
  5
8C9
  8
0
 10
52.456711295940963
 20
43.833732948562378
 30
0.0
  0
VERTEX
  5
8CA
  8
0
 10
52.37407117793795
 20
43.346712299542382
 30
0.0
  0
SEQEND
  5
8CB
  8
0
  0
ARC
  5
5B3
  8
1
 10
58.88941041167795
 20
43.340896173681379
 30
0.0
 40
4.4000000000000004
 50
180.0
 51
0.0
  0
CIRCLE
  5
5D0
  8
0
 10
54.489410411677937
 20
43.340896173681379
 30
0.0
 40
0.475
  0
CIRCLE
  5
5D1
  8
0
 10
63.289410411677942
 20
43.340896173681379
 30
0.0
 40
0.475
  0
CIRCLE
  5
5D2
  8
0
 10
58.88941041167795
 20
38.940896173681381
 30
0.0
 40
0.475
  0
LINE
  5
5D4
  8
1
 10
65.639410411677943
 20
43.340896173681379
 30
0.0
 11
52.13941041167795
 21
43.340896173681379
 31
0.0
  0
ARC
  5
5E5
  8
0
 10
54.489410411677937
 20
43.340896173681379
 30
0.0
 40
0.65
 50
0.0
 51
180.0
  0
ARC
  5
5E6
  8
0
 10
63.289410411677942
 20
43.340896173681379
 30
0.0
 40
0.65
 50
0.0
 51
180.0
  0
LINE
  5
5E8
  8
1
 10
58.88941041167795
 20
43.590896173681372
 30
0.0
 11
58.88941041167795
 21
36.590896173681379
 31
0.0
  0
ARC
  5
606
  8
0
 10
58.88941041167795
 20
43.340896173681379
 30
0.0
 40
3.75
 50
180.0
 51
0.0
  0
ARC
  5
607
  8
0
 10
58.88941041167795
 20
43.340896173681379
 30
0.0
 40
5.0499999999999989
 50
180.0
 51
0.0
  0
LINE
  5
623
  8
1
 10
58.88941041167795
 20
61.313494440256932
 30
0.0
 11
58.88941041167795
 21
55.713494440256937
 31
0.0
  0
LINE
  5
633
  8
1
 10
54.489410411677952
 20
55.713494440256937
 30
0.0
 11
54.489410411677952
 21
61.313494440256932
 31
0.0
  0
LINE
  5
636
  8
0
 10
53.539410411677949
 20
61.013494440256927
 30
0.0
 11
53.539410411677949
 21
59.513494440256927
 31
0.0
  0
LINE
  5
637
  8
0
 10
55.439410411677947
 20
61.013494440256927
 30
0.0
 11
55.439410411677947
 21
59.513494440256927
 31
0.0
  0
LINE
  5
63D
  8
0
 10
53.13941041167795
 20
59.513494440256927
 30
0.0
 11
53.13941041167795
 21
58.513494440256927
 31
0.0
  0
LINE
  5
63E
  8
0
 10
55.839410411677953
 20
59.513494440256927
 30
0.0
 11
55.839410411677953
 21
58.513494440256927
 31
0.0
  0
LINE
  5
642
  8
0
 10
53.13941041167795
 20
59.513494440256927
 30
0.0
 11
55.839410411677953
 21
59.513494440256927
 31
0.0
  0
LINE
  5
643
  8
0
 10
53.13941041167795
 20
58.513494440256927
 30
0.0
 11
55.839410411677953
 21
58.513494440256927
 31
0.0
  0
LINE
  5
64B
  8
0
 10
52.38941041167795
 20
61.013494440256927
 30
0.0
 11
52.38941041167795
 21
57.813494440256932
 31
0.0
  0
LINE
  5
64E
  8
0
 10
52.38941041167795
 20
57.813494440256932
 30
0.0
 11
53.38941041167795
 21
57.813494440256939
 31
0.0
  0
LINE
  5
64F
  8
0
 10
55.539410411677949
 20
57.813494440256932
 30
0.0
 11
58.88941041167795
 21
57.813494440256932
 31
0.0
  0
LINE
  5
65C
  8
0
 10
53.38941041167795
 20
57.813494440256939
 30
0.0
 11
53.38941041167795
 21
56.702814412913177
 31
0.0
  0
LINE
  5
65D
  8
0
 10
55.539410411677949
 20
56.748769077756933
 30
0.0
 11
55.539410411677949
 21
57.813494440256932
 31
0.0
  0
LINE
  5
65E
  8
0
 10
55.539410411677949
 20
56.748769077756933
 30
0.0
 11
56.339410411677953
 21
56.013494440256927
 31
0.0
  0
LINE
  5
663
  8
0
 39
3.0572749999999989
 10
53.75931526199706
 20
56.71349444025693
 30
0.0
 11
52.72644440767796
 21
56.013494440256927
 31
0.0
  0
LINE
  5
664
  8
0
 10
53.38941041167795
 20
56.702814412913177
 30
0.0
 11
52.63941041167795
 21
56.013494440256927
 31
0.0
  0
LINE
  5
666
  8
0
 39
3.0572749999999989
 10
52.639410411677972
 20
56.013494440256942
 30
0.0
 11
56.344339247677951
 21
56.013494440256927
 31
0.0
  0
LINE
  5
678
  8
0
 39
3.0572749999999989
 10
53.890654727677962
 20
56.71349444025693
 30
0.0
 11
53.890654727677948
 21
58.513494440256927
 31
0.0
  0
LINE
  5
67B
  8
0
 39
3.0572749999999989
 10
63.888166095677931
 20
56.71349444025693
 30
0.0
 11
63.888166095677953
 21
58.513494440256927
 31
0.0
  0
LINE
  5
67D
  8
0
 39
3.0572749999999989
 10
65.139410411677943
 20
56.013494440256942
 30
0.0
 11
61.43448157567795
 21
56.013494440256927
 31
0.0
  0
LINE
  5
67F
  8
0
 39
3.0572749999999989
 10
64.019505561358827
 20
56.71349444025693
 30
0.0
 11
65.052376415677941
 21
56.013494440256927
 31
0.0
  0
LINE
  5
680
  8
0
 39
3.0572749999999989
 10
61.189410411677947
 20
61.013494440256927
 30
0.0
 11
61.189410411677947
 21
57.813494440256932
 31
0.0
  0
LINE
  5
681
  8
0
 39
3.0572749999999989
 10
62.690654727677952
 20
56.71349444025693
 30
0.0
 11
62.690654727677952
 21
58.513494440256927
 31
0.0
  0
LINE
  5
682
  8
0
 39
3.0572749999999989
 10
62.559315261997057
 20
56.71349444025693
 30
0.0
 11
61.526444407677957
 21
56.013494440256927
 31
0.0
  0
LINE
  5
684
  8
0
 10
62.239410411677952
 20
56.748769077756933
 30
0.0
 11
61.439410411677947
 21
56.013494440256927
 31
0.0
  0
LINE
  5
685
  8
0
 10
62.239410411677952
 20
57.813494440256932
 30
0.0
 11
58.88941041167795
 21
57.813494440256932
 31
0.0
  0
LINE
  5
686
  8
0
 10
62.239410411677952
 20
56.748769077756933
 30
0.0
 11
58.88941041167795
 21
56.748769077756933
 31
0.0
  0
LINE
  5
687
  8
0
 10
65.389410411677943
 20
61.013494440256927
 30
0.0
 11
61.189410411677947
 21
61.013494440256927
 31
0.0
  0
LINE
  5
688
  8
0
 10
64.389410411677943
 20
57.813494440256939
 30
0.0
 11
64.389410411677943
 21
56.702814412913177
 31
0.0
  0
LINE
  5
689
  8
0
 10
64.389410411677943
 20
56.702814412913177
 30
0.0
 11
65.139410411677943
 21
56.013494440256927
 31
0.0
  0
LINE
  5
68A
  8
0
 10
65.389410411677943
 20
57.813494440256932
 30
0.0
 11
64.389410411677943
 21
57.813494440256939
 31
0.0
  0
LINE
  5
68B
  8
0
 10
62.239410411677952
 20
56.748769077756933
 30
0.0
 11
62.239410411677952
 21
57.813494440256932
 31
0.0
  0
LINE
  5
68C
  8
0
 10
65.389410411677943
 20
61.013494440256927
 30
0.0
 11
65.389410411677943
 21
57.813494440256932
 31
0.0
  0
LINE
  5
68D
  8
0
 10
62.339410411677953
 20
61.013494440256927
 30
0.0
 11
62.339410411677953
 21
59.513494440256927
 31
0.0
  0
LINE
  5
68E
  8
0
 10
64.239410411677952
 20
61.013494440256927
 30
0.0
 11
64.239410411677952
 21
59.513494440256927
 31
0.0
  0
LINE
  5
68F
  8
0
 10
64.639410411677943
 20
58.513494440256927
 30
0.0
 11
61.939410411677947
 21
58.513494440256927
 31
0.0
  0
LINE
  5
690
  8
0
 10
61.939410411677947
 20
59.513494440256927
 30
0.0
 11
61.939410411677947
 21
58.513494440256927
 31
0.0
  0
LINE
  5
691
  8
0
 10
64.639410411677943
 20
59.513494440256927
 30
0.0
 11
61.939410411677947
 21
59.513494440256927
 31
0.0
  0
LINE
  5
692
  8
0
 10
64.639410411677943
 20
59.513494440256927
 30
0.0
 11
64.639410411677943
 21
58.513494440256927
 31
0.0
  0
LINE
  5
693
  8
0
 10
61.189410411677947
 20
61.013494440256927
 30
0.0
 11
58.88941041167795
 21
61.013494440256927
 31
0.0
  0
LINE
  5
694
  8
0
 10
61.43448157567795
 20
56.013494440256927
 30
0.0
 11
58.88941041167795
 21
56.013494440256927
 31
0.0
  0
DIMENSION
  5
6A0
  8
2
  2
*D1
 10
61.189410411677947
 20
65.061320772185923
 30
0.0
 11
58.88941041167795
 21
65.998820772185923
 31
0.0
 70
     0
  1
%%c<>
 13
56.589410411677939
 23
61.013494440256927
 33
0.0
 14
61.189410411677947
 24
61.013494440256927
 34
0.0
  0
LINE
  5
6AD
  8
1
 10
63.289410411677942
 20
55.713494440256937
 30
0.0
 11
63.289410411677942
 21
61.313494440256932
 31
0.0
  0
DIMENSION
  5
6AE
  8
2
  2
*D2
 10
63.289410411677942
 20
71.63048200270643
 30
0.0
 11
58.978953227737293
 21
71.63048200270643
 31
0.0
 70
   128
  1
%%c<>
 13
54.489410411677952
 23
61.313494440256932
 33
0.0
 14
63.289410411677942
 24
61.313494440256932
 34
0.0
  0
DIMENSION
  5
6BB
  8
2
  2
*D3
 10
55.439410411677947
 20
67.406022861667154
 30
0.0
 11
59.918577078344619
 21
67.406022861667154
 31
0.0
 70
   128
  1
%%c<>
 13
53.539410411677949
 23
61.013494440256927
 33
0.0
 14
55.439410411677947
 24
61.013494440256927
 34
0.0
  0
DIMENSION
  5
6DE
  8
2
  2
*D4
 10
55.839410411677953
 20
69.558105739262174
 30
0.0
 11
60.526910411677953
 21
70.495605739262174
 31
0.0
 70
     0
  1
%%c<>
 13
53.13941041167795
 23
59.513494440256927
 33
0.0
 14
55.839410411677953
 24
59.513494440256927
 34
0.0
  0
DIMENSION
  5
6EE
  8
2
  2
*D5
 10
65.389410411677943
 20
73.913073527169018
 30
0.0
 11
58.889410411677943
 21
74.850573527169018
 31
0.0
 70
     0
  1
%%c<>
 13
52.38941041167795
 23
61.013494440256927
 33
0.0
 14
65.389410411677943
 24
61.013494440256927
 34
0.0
  0
DIMENSION
  5
6FC
  8
2
  2
*D6
 10
71.630545978940646
 20
57.813494440256932
 30
0.0
 11
71.630545978940631
 21
59.28563462505474
 31
0.0
 70
   128
 13
65.389410411677943
 23
61.013494440256927
 33
0.0
 14
65.389410411677943
 24
57.813494440256932
 34
0.0
 50
90.0
  0
DIMENSION
  5
709
  8
2
  2
*D7
 10
74.275231974101885
 20
56.013494440256927
 30
0.0
 11
74.275231974101871
 21
58.570338531810499
 31
0.0
 70
   128
 13
65.389410411677943
 23
61.013494440256927
 33
0.0
 14
65.139410411677943
 24
56.013494440256927
 34
0.0
 50
90.0
  0
DIMENSION
  5
717
  8
2
  2
*D8
 10
48.203902741565571
 20
59.513494440256927
 30
0.0
 11
47.26640274156555
 21
55.659327773590277
 31
0.0
 70
     0
 13
52.38941041167795
 23
61.013494440256927
 33
0.0
 14
53.13941041167795
 24
59.513494440256927
 34
0.0
 50
90.0
  0
DIMENSION
  5
726
  8
2
  2
*D9
 10
46.048892537369731
 20
58.513494440256942
 30
0.0
 11
45.111392537369717
 21
54.450994440256949
 31
0.0
 70
     0
 13
52.07691041167795
 23
61.013494440256927
 33
0.0
 14
53.13941041167795
 24
58.513494440256927
 34
0.0
 50
90.0
  0
LINE
  5
737
  8
2
 10
53.75931526199706
 20
56.71349444025693
 30
0.0
 11
55.219505561358837
 21
56.71349444025693
 31
0.0
  0
LINE
  5
739
  8
2
 10
62.559315261997057
 20
56.71349444025693
 30
0.0
 11
64.019505561358827
 21
56.71349444025693
 31
0.0
  0
DIMENSION
  5
73D
  8
2
  2
*D10
 10
69.040958009784291
 20
56.71349444025693
 30
0.0
 11
69.040958009784276
 21
52.055161106923613
 31
0.0
 70
   128
 13
65.139410411677943
 23
56.013494440256927
 33
0.0
 14
64.019505561358827
 24
56.71349444025693
 34
0.0
 50
90.0
  0
DIMENSION
  5
777
  8
2
  2
*D11
 10
61.439410411677947
 20
52.86780742030998
 30
0.0
 11
58.891874829677953
 21
53.80530742030998
 31
0.0
 70
     0
  1
%%c<>
 13
56.344339247677951
 23
56.013494440256927
 33
0.0
 14
61.439410411677947
 24
56.013494440256927
 34
0.0
  0
DIMENSION
  5
784
  8
2
  2
*D12
 10
62.239410411677952
 20
50.576141940380232
 30
0.0
 11
58.88941041167795
 21
51.513641940380232
 31
0.0
 70
     0
  1
%%c<>
 13
55.539410411677949
 23
56.748769077756933
 33
0.0
 14
62.239410411677952
 24
56.748769077756933
 34
0.0
  0
DIMENSION
  5
791
  8
2
  2
*D13
 10
64.389410411677943
 20
48.344225165473972
 30
0.0
 11
58.889410411677943
 21
49.281725165473972
 31
0.0
 70
     0
  1
%%c<>
 13
53.38941041167795
 23
56.702814412913177
 33
0.0
 14
64.389410411677943
 24
56.702814412913177
 34
0.0
  0
DIMENSION
  5
79E
  8
2
  2
*D14
 10
65.139410411677943
 20
46.293340087168019
 30
0.0
 11
58.889410411677943
 21
47.230840087168019
 31
0.0
 70
     0
  1
%%c<>
 13
52.63941041167795
 23
56.013494440256927
 33
0.0
 14
65.139410411677943
 24
56.013494440256927
 34
0.0
  0
ENDSEC
  0
EOF
