  0
SECTION
  2
HEADER
  9
$ACADVER
  1
AC1009
  9
$INSBASE
 10
0.0
 20
0.0
 30
0.0
  9
$EXTMIN
 10
115.36239760606711
 20
-7.1115829717814476
 30
0.0
  9
$EXTMAX
 10
170.52780014321451
 20
115.6608011891371
 30
3.8542890717299989
  9
$LIMMIN
 10
0.0
 20
0.0
  9
$LIMMAX
 10
420.0
 20
297.0
  9
$ORTHOMODE
 70
     0
  9
$REGENMODE
 70
     1
  9
$FILLMODE
 70
     1
  9
$QTEXTMODE
 70
     0
  9
$MIRRTEXT
 70
     1
  9
$DRAGMODE
 70
     2
  9
$LTSCALE
 40
0.3
  9
$OSMODE
 70
    37
  9
$ATTMODE
 70
     1
  9
$TEXTSIZE
 40
2.5
  9
$TRACEWID
 40
1.0
  9
$TEXTSTYLE
  7
STANDARD
  9
$CLAYER
  8
2
  9
$CELTYPE
  6
BYLAYER
  9
$CECOLOR
 62
   256
  9
$DIMSCALE
 40
1.0
  9
$DIMASZ
 40
2.5
  9
$DIMEXO
 40
0.625
  9
$DIMDLI
 40
3.75
  9
$DIMRND
 40
0.0
  9
$DIMDLE
 40
0.0
  9
$DIMEXE
 40
1.25
  9
$DIMTP
 40
0.0
  9
$DIMTM
 40
0.0
  9
$DIMTXT
 40
2.5
  9
$DIMCEN
 40
2.5
  9
$DIMTSZ
 40
0.0
  9
$DIMTOL
 70
     0
  9
$DIMLIM
 70
     0
  9
$DIMTIH
 70
     0
  9
$DIMTOH
 70
     0
  9
$DIMSE1
 70
     0
  9
$DIMSE2
 70
     0
  9
$DIMTAD
 70
     1
  9
$DIMZIN
 70
     8
  9
$DIMBLK
  1

  9
$DIMASO
 70
     1
  9
$DIMSHO
 70
     1
  9
$DIMPOST
  1

  9
$DIMAPOST
  1

  9
$DIMALT
 70
     0
  9
$DIMALTD
 70
     3
  9
$DIMALTF
 40
0.03937007874016
  9
$DIMLFAC
 40
1.0
  9
$DIMTOFL
 70
     1
  9
$DIMTVP
 40
0.0
  9
$DIMTIX
 70
     0
  9
$DIMSOXD
 70
     0
  9
$DIMSAH
 70
     0
  9
$DIMBLK1
  1

  9
$DIMBLK2
  1

  9
$DIMSTYLE
  2
ISO-25
  9
$DIMCLRD
 70
     0
  9
$DIMCLRE
 70
     0
  9
$DIMCLRT
 70
     0
  9
$DIMTFAC
 40
1.0
  9
$DIMGAP
 40
0.625
  9
$LUNITS
 70
     2
  9
$LUPREC
 70
     4
  9
$SKETCHINC
 40
1.0
  9
$FILLETRAD
 40
10.0
  9
$AUNITS
 70
     0
  9
$AUPREC
 70
     0
  9
$MENU
  1
.
  9
$ELEVATION
 40
0.0
  9
$PELEVATION
 40
0.0
  9
$THICKNESS
 40
0.0
  9
$LIMCHECK
 70
     0
  9
$BLIPMODE
 70
     0
  9
$CHAMFERA
 40
10.0
  9
$CHAMFERB
 40
10.0
  9
$SKPOLY
 70
     0
  9
$TDCREATE
 40
2453445.4386439458
  9
$TDUPDATE
 40
2453551.9176871409
  9
$TDINDWG
 40
0.0994798727
  9
$TDUSRTIMER
 40
0.0994797569
  9
$USRTIMER
 70
     1
  9
$ANGBASE
 50
0.0
  9
$ANGDIR
 70
     0
  9
$PDMODE
 70
     0
  9
$PDSIZE
 40
0.0
  9
$PLINEWID
 40
0.0
  9
$COORDS
 70
     1
  9
$SPLFRAME
 70
     0
  9
$SPLINETYPE
 70
     6
  9
$SPLINESEGS
 70
     8
  9
$ATTDIA
 70
     0
  9
$ATTREQ
 70
     1
  9
$HANDLING
 70
-16383
  9
$HANDSEED
  5
D49
  9
$SURFTAB1
 70
     6
  9
$SURFTAB2
 70
     6
  9
$SURFTYPE
 70
     6
  9
$SURFU
 70
     6
  9
$SURFV
 70
     6
  9
$UCSNAME
  2

  9
$UCSORG
 10
0.0
 20
0.0
 30
0.0
  9
$UCSXDIR
 10
1.0
 20
0.0
 30
0.0
  9
$UCSYDIR
 10
0.0
 20
1.0
 30
0.0
  9
$PUCSNAME
  2

  9
$PUCSORG
 10
0.0
 20
0.0
 30
0.0
  9
$PUCSXDIR
 10
1.0
 20
0.0
 30
0.0
  9
$PUCSYDIR
 10
0.0
 20
1.0
 30
0.0
  9
$USERI1
 70
     0
  9
$USERI2
 70
     0
  9
$USERI3
 70
     0
  9
$USERI4
 70
     0
  9
$USERI5
 70
     0
  9
$USERR1
 40
0.0
  9
$USERR2
 40
0.0
  9
$USERR3
 40
0.0
  9
$USERR4
 40
0.0
  9
$USERR5
 40
0.0
  9
$WORLDVIEW
 70
     1
  9
$SHADEDGE
 70
     3
  9
$SHADEDIF
 70
    70
  9
$TILEMODE
 70
     1
  9
$MAXACTVP
 70
    64
  9
$PLIMCHECK
 70
     0
  9
$PEXTMIN
 10
1.0000000000000000E+020
 20
1.0000000000000000E+020
 30
1.0000000000000000E+020
  9
$PEXTMAX
 10
-1.0000000000000000E+020
 20
-1.0000000000000000E+020
 30
-1.0000000000000000E+020
  9
$PLIMMIN
 10
0.0
 20
0.0
  9
$PLIMMAX
 10
420.0
 20
297.0
  9
$UNITMODE
 70
     0
  9
$VISRETAIN
 70
     1
  9
$PLINEGEN
 70
     0
  9
$PSLTSCALE
 70
     1
  0
ENDSEC
  0
SECTION
  2
TABLES
  0
TABLE
  2
VPORT
 70
     2
  0
VPORT
  2
*ACTIVE
 70
     0
 10
0.0
 20
0.0
 11
1.0
 21
1.0
 12
174.24720823708881
 22
53.727899297048282
 13
0.0
 23
0.0
 14
10.0
 24
10.0
 15
10.0
 25
10.0
 16
0.0
 26
0.0
 36
1.0
 17
0.0
 27
0.0
 37
0.0
 40
134.07522903854809
 41
2.5392405063291141
 42
50.0
 43
0.0
 44
0.0
 50
0.0
 51
0.0
 71
     0
 72
   100
 73
     1
 74
     3
 75
     0
 76
     0
 77
     0
 78
     0
  0
ENDTAB
  0
TABLE
  2
LTYPE
 70
     2
  0
LTYPE
  2
CONTINUOUS
 70
     0
  3
Solid line
 72
    65
 73
     0
 40
0.0
  0
LTYPE
  2
CENTER
 70
     0
  3
Center ____ _ ____ _ ____ _ ____ _ ____ _ ____
 72
    65
 73
     4
 40
50.799999999999997
 49
31.75
 49
-6.3499999999999988
 49
6.3499999999999988
 49
-6.3499999999999988
  0
ENDTAB
  0
TABLE
  2
LAYER
 70
     4
  0
LAYER
  2
0
 70
     0
 62
     7
  6
CONTINUOUS
  0
LAYER
  2
DEFPOINTS
 70
     0
 62
     7
  6
CONTINUOUS
  0
LAYER
  2
1
 70
     0
 62
     7
  6
CENTER
  0
LAYER
  2
2
 70
     0
 62
     7
  6
CONTINUOUS
  0
ENDTAB
  0
TABLE
  2
STYLE
 70
     4
  0
STYLE
  2
STANDARD
 70
     0
 40
0.0
 41
1.0
 50
0.0
 71
     0
 42
2.5
  3
txt
  4

  0
STYLE
  2
\U+00C9L\U+00C9R_\U+00C2S\U+00C2V\U+00C2B\U+00C2N
 70
     0
 40
1.0
 41
1.0
 50
0.0
 71
     0
 42
1.0
  3
\U+00E9l\U+00E9r \U+00E2S\U+00E2V\U+00E2b\U+00E2N
  4

  0
STYLE
  2
SWIS721_CN_BT
 70
     0
 40
1.0
 41
1.0
 50
0.0
 71
     0
 42
1.0
  3
Swis721 Cn BT
  4

  0
STYLE
  2

 70
     1
 40
0.0
 41
1.0
 50
0.0
 71
     0
 42
2.5
  3
ltypeshp.shx
  4

  0
ENDTAB
  0
TABLE
  2
VIEW
 70
     0
  0
ENDTAB
  0
TABLE
  2
UCS
 70
     0
  0
ENDTAB
  0
TABLE
  2
APPID
 70
     1
  0
APPID
  2
ACAD
 70
     0
  0
ENDTAB
  0
TABLE
  2
DIMSTYLE
 70
     2
  0
DIMSTYLE
  2
ISO-25
 70
     0
  3

  4

  5

  6

  7

 40
1.0
 41
2.5
 42
0.625
 43
3.75
 44
1.25
 45
0.0
 46
0.0
 47
0.0
 48
0.0
140
2.5
141
2.5
142
0.0
143
0.03937007874016
144
1.0
145
0.0
146
1.0
147
0.625
 71
     0
 72
     0
 73
     0
 74
     0
 75
     0
 76
     0
 77
     1
 78
     8
170
     0
171
     3
172
     1
173
     0
174
     0
175
     0
176
     0
177
     0
178
     0
  0
DIMSTYLE
  2
STANDARD
 70
     0
  3

  4

  5

  6

  7

 40
1.0
 41
0.18
 42
0.0625
 43
0.38
 44
0.18
 45
0.0
 46
0.0
 47
0.0
 48
0.0
140
0.18
141
0.09
142
0.0
143
25.399999999999999
144
1.0
145
0.0
146
1.0
147
0.09
 71
     0
 72
     0
 73
     1
 74
     1
 75
     0
 76
     0
 77
     0
 78
     0
170
     0
171
     2
172
     0
173
     0
174
     0
175
     0
176
     0
177
     0
178
     0
  0
ENDTAB
  0
ENDSEC
  0
SECTION
  2
BLOCKS
  0
BLOCK
  8
0
  2
$MODEL_SPACE
 70
     0
 10
0.0
 20
0.0
 30
0.0
  3
$MODEL_SPACE
  1

  0
ENDBLK
  5
21
  8
0
  0
BLOCK
 67
     1
  8
0
  2
$PAPER_SPACE
 70
     0
 10
0.0
 20
0.0
 30
0.0
  3
$PAPER_SPACE
  1

  0
ENDBLK
  5
1D
 67
     1
  8
0
  0
BLOCK
  8
0
  2
*D1
 70
     1
 10
0.0
 20
0.0
 30
0.0
  3
*D1
  1

  0
LINE
  5
C8F
  8
2
 62
     0
 10
151.57470914525439
 20
83.059099036939671
 30
0.0
 11
151.57470914525439
 21
101.6266868210262
 31
0.0
  0
LINE
  5
C90
  8
2
 62
     0
 10
152.77470914525441
 20
83.059099036939671
 30
0.0
 11
152.77470914525441
 21
101.6266868210262
 31
0.0
  0
LINE
  5
C91
  8
2
 62
     0
 10
149.07470914525439
 20
100.3766868210262
 30
0.0
 11
146.57470914525439
 21
100.3766868210262
 31
0.0
  0
LINE
  5
C92
  8
2
 62
     0
 10
155.27470914525441
 20
100.3766868210262
 30
0.0
 11
165.69137581192109
 21
100.3766868210262
 31
0.0
  0
LINE
  5
C93
  8
2
 62
     0
 10
151.57470914525439
 20
100.3766868210262
 30
0.0
 11
152.77470914525441
 21
100.3766868210262
 31
0.0
  0
SOLID
  5
C94
  8
2
 62
     0
 10
149.07470914525439
 20
100.7933534876928
 30
0.0
 11
149.07470914525439
 21
99.960020154359555
 31
0.0
 12
151.57470914525439
 22
100.3766868210262
 32
0.0
 13
151.57470914525439
 23
100.3766868210262
 33
0.0
  0
SOLID
  5
C95
  8
2
 62
     0
 10
155.27470914525441
 20
100.7933534876928
 30
0.0
 11
155.27470914525441
 21
99.960020154359555
 31
0.0
 12
152.77470914525441
 22
100.3766868210262
 32
0.0
 13
152.77470914525441
 23
100.3766868210262
 33
0.0
  0
INSERT
  5
C96
  8
2
  2
*U18
 10
0.0
 20
0.0
 30
0.0
  0
POINT
  5
C97
  8
DEFPOINTS
 62
     0
 10
151.57470914525439
 20
82.434099036939671
 30
0.0
  0
POINT
  5
C98
  8
DEFPOINTS
 62
     0
 10
152.77470914525441
 20
82.434099036939671
 30
0.0
  0
POINT
  5
C99
  8
DEFPOINTS
 62
     0
 10
152.77470914525441
 20
100.3766868210262
 30
0.0
  0
ENDBLK
  5
BA8
  8
0
  0
BLOCK
  8
0
  2
*D2
 70
     1
 10
0.0
 20
0.0
 30
0.0
  3
*D2
  1

  0
LINE
  5
C84
  8
2
 62
     0
 10
150.17470914525441
 20
94.751084936032626
 30
0.0
 11
150.17470914525441
 21
106.24700266224001
 31
0.0
  0
LINE
  5
C85
  8
2
 62
     0
 10
154.17470914525441
 20
94.751084936032626
 30
0.0
 11
154.17470914525441
 21
106.24700266224001
 31
0.0
  0
LINE
  5
C86
  8
2
 62
     0
 10
147.67470914525441
 20
104.99700266224001
 30
0.0
 11
145.17470914525441
 21
104.99700266224001
 31
0.0
  0
LINE
  5
C87
  8
2
 62
     0
 10
156.67470914525441
 20
104.99700266224001
 30
0.0
 11
164.5913758119211
 21
104.99700266224001
 31
0.0
  0
LINE
  5
C88
  8
2
 62
     0
 10
150.17470914525441
 20
104.99700266224001
 30
0.0
 11
154.17470914525441
 21
104.99700266224001
 31
0.0
  0
SOLID
  5
C89
  8
2
 62
     0
 10
147.67470914525441
 20
105.41366932890671
 30
0.0
 11
147.67470914525441
 21
104.58033599557329
 31
0.0
 12
150.17470914525441
 22
104.99700266224001
 32
0.0
 13
150.17470914525441
 23
104.99700266224001
 33
0.0
  0
SOLID
  5
C8A
  8
2
 62
     0
 10
156.67470914525441
 20
105.41366932890671
 30
0.0
 11
156.67470914525441
 21
104.58033599557329
 31
0.0
 12
154.17470914525441
 22
104.99700266224001
 32
0.0
 13
154.17470914525441
 23
104.99700266224001
 33
0.0
  0
INSERT
  5
C8B
  8
2
  2
*U17
 10
0.0
 20
0.0
 30
0.0
  0
POINT
  5
C8C
  8
DEFPOINTS
 62
     0
 10
150.17470914525441
 20
94.126084936032626
 30
0.0
  0
POINT
  5
C8D
  8
DEFPOINTS
 62
     0
 10
154.17470914525441
 20
94.126084936032626
 30
0.0
  0
POINT
  5
C8E
  8
DEFPOINTS
 62
     0
 10
154.17470914525441
 20
104.99700266224001
 30
0.0
  0
ENDBLK
  5
BB7
  8
0
  0
BLOCK
  8
0
  2
*D3
 70
     1
 10
0.0
 20
0.0
 30
0.0
  3
*D3
  1

  0
LINE
  5
C79
  8
2
 62
     0
 10
149.17470914525441
 20
94.751084936032626
 30
0.0
 11
149.17470914525441
 21
110.0404081536915
 31
0.0
  0
LINE
  5
C7A
  8
2
 62
     0
 10
155.17470914525441
 20
94.751084936032626
 30
0.0
 11
155.17470914525441
 21
110.0404081536915
 31
0.0
  0
LINE
  5
C7B
  8
2
 62
     0
 10
146.67470914525441
 20
108.7904081536915
 30
0.0
 11
144.17470914525441
 21
108.7904081536915
 31
0.0
  0
LINE
  5
C7C
  8
2
 62
     0
 10
157.67470914525441
 20
108.7904081536915
 30
0.0
 11
160.17470914525441
 21
108.7904081536915
 31
0.0
  0
LINE
  5
C7D
  8
2
 62
     0
 10
149.17470914525441
 20
108.7904081536915
 30
0.0
 11
155.17470914525441
 21
108.7904081536915
 31
0.0
  0
SOLID
  5
C7E
  8
2
 62
     0
 10
146.67470914525441
 20
109.2070748203582
 30
0.0
 11
146.67470914525441
 21
108.3737414870248
 31
0.0
 12
149.17470914525441
 22
108.7904081536915
 32
0.0
 13
149.17470914525441
 23
108.7904081536915
 33
0.0
  0
SOLID
  5
C7F
  8
2
 62
     0
 10
157.67470914525441
 20
109.2070748203582
 30
0.0
 11
157.67470914525441
 21
108.3737414870248
 31
0.0
 12
155.17470914525441
 22
108.7904081536915
 32
0.0
 13
155.17470914525441
 23
108.7904081536915
 33
0.0
  0
INSERT
  5
C80
  8
2
  2
*U16
 10
0.0
 20
0.0
 30
0.0
  0
POINT
  5
C81
  8
DEFPOINTS
 62
     0
 10
149.17470914525441
 20
94.126084936032626
 30
0.0
  0
POINT
  5
C82
  8
DEFPOINTS
 62
     0
 10
155.17470914525441
 20
94.126084936032626
 30
0.0
  0
POINT
  5
C83
  8
DEFPOINTS
 62
     0
 10
155.17470914525441
 20
108.7904081536915
 30
0.0
  0
ENDBLK
  5
BC6
  8
0
  0
BLOCK
  8
0
  2
*D4
 70
     1
 10
0.0
 20
0.0
 30
0.0
  3
*D4
  1

  0
LINE
  5
C70
  8
2
 62
     0
 10
146.67470914525441
 20
88.809467074616535
 30
0.0
 11
146.67470914525441
 21
113.7858011891372
 31
0.0
  0
LINE
  5
C71
  8
2
 62
     0
 10
157.67470914525441
 20
88.809467074616535
 30
0.0
 11
157.67470914525441
 21
113.7858011891372
 31
0.0
  0
LINE
  5
C72
  8
2
 62
     0
 10
149.17470914525441
 20
112.5358011891371
 30
0.0
 11
155.17470914525441
 21
112.5358011891371
 31
0.0
  0
SOLID
  5
C73
  8
2
 62
     0
 10
149.17470914525441
 20
112.9524678558038
 30
0.0
 11
149.17470914525441
 21
112.1191345224705
 31
0.0
 12
146.67470914525441
 22
112.5358011891371
 32
0.0
 13
146.67470914525441
 23
112.5358011891371
 33
0.0
  0
SOLID
  5
C74
  8
2
 62
     0
 10
155.17470914525441
 20
112.9524678558038
 30
0.0
 11
155.17470914525441
 21
112.1191345224705
 31
0.0
 12
157.67470914525441
 22
112.5358011891371
 32
0.0
 13
157.67470914525441
 23
112.5358011891371
 33
0.0
  0
INSERT
  5
C75
  8
2
  2
*U15
 10
0.0
 20
0.0
 30
0.0
  0
POINT
  5
C76
  8
DEFPOINTS
 62
     0
 10
146.67470914525441
 20
88.184467074616535
 30
0.0
  0
POINT
  5
C77
  8
DEFPOINTS
 62
     0
 10
157.67470914525441
 20
88.184467074616535
 30
0.0
  0
POINT
  5
C78
  8
DEFPOINTS
 62
     0
 10
157.67470914525441
 20
112.5358011891371
 30
0.0
  0
ENDBLK
  5
BD3
  8
0
  0
BLOCK
  8
0
  2
*D5
 70
     1
 10
0.0
 20
0.0
 30
0.0
  3
*D5
  1

  0
LINE
  5
CE6
  8
2
 62
     0
 10
152.17470914525441
 20
95.051084936032638
 30
0.0
 11
152.17470914525441
 21
97.862434160598184
 31
0.0
  0
LINE
  5
CE7
  8
2
 62
     0
 10
131.67470914525441
 20
95.051084936032638
 30
0.0
 11
131.67470914525441
 21
97.862434160598184
 31
0.0
  0
LINE
  5
CE8
  8
2
 62
     0
 10
149.67470914525441
 20
96.612434160598184
 30
0.0
 11
134.17470914525441
 21
96.612434160598184
 31
0.0
  0
LINE
  5
CE9
  8
2
 62
     0
 10
131.67470914525441
 20
96.612434160598184
 30
0.0
 11
118.3413758119211
 21
96.612434160598184
 31
0.0
  0
SOLID
  5
CEA
  8
2
 62
     0
 10
149.67470914525441
 20
97.029100827264855
 30
0.0
 11
149.67470914525441
 21
96.195767493931527
 31
0.0
 12
152.17470914525441
 22
96.612434160598184
 32
0.0
 13
152.17470914525441
 23
96.612434160598184
 33
0.0
  0
SOLID
  5
CEB
  8
2
 62
     0
 10
134.17470914525441
 20
97.029100827264855
 30
0.0
 11
134.17470914525441
 21
96.195767493931527
 31
0.0
 12
131.67470914525441
 22
96.612434160598184
 32
0.0
 13
131.67470914525441
 23
96.612434160598184
 33
0.0
  0
INSERT
  5
CEC
  8
2
  2
*U25
 10
0.0
 20
0.0
 30
0.0
  0
POINT
  5
CED
  8
DEFPOINTS
 62
     0
 10
152.17470914525441
 20
94.426084936032638
 30
0.0
  0
POINT
  5
CEE
  8
DEFPOINTS
 62
     0
 10
131.67470914525441
 20
94.426084936032638
 30
0.0
  0
POINT
  5
CEF
  8
DEFPOINTS
 62
     0
 10
131.67470914525441
 20
96.612434160598184
 30
0.0
  0
ENDBLK
  5
BE0
  8
0
  0
BLOCK
  8
0
  2
*D6
 70
     1
 10
0.0
 20
0.0
 30
0.0
  3
*D6
  1

  0
LINE
  5
BE4
  8
2
 62
     0
 10
129.29970914525441
 20
74.62608493603264
 30
0.0
 11
117.23739760606711
 21
74.62608493603264
 31
0.0
  0
LINE
  5
BE5
  8
2
 62
     0
 10
130.44970914525439
 20
75.426084936032638
 30
0.0
 11
117.23739760606711
 21
75.426084936032638
 31
0.0
  0
LINE
  5
BE6
  8
2
 62
     0
 10
118.48739760606711
 20
72.12608493603264
 30
0.0
 11
118.48739760606711
 21
69.62608493603264
 31
0.0
  0
LINE
  5
BE7
  8
2
 62
     0
 10
118.48739760606711
 20
77.926084936032638
 30
0.0
 11
118.48739760606711
 21
86.259418269365966
 31
0.0
  0
LINE
  5
BE8
  8
2
 62
     0
 10
118.48739760606711
 20
74.62608493603264
 30
0.0
 11
118.48739760606711
 21
75.426084936032638
 31
0.0
  0
SOLID
  5
BE9
  8
2
 62
     0
 10
118.07073093940041
 20
72.12608493603264
 30
0.0
 11
118.90406427273381
 21
72.12608493603264
 31
0.0
 12
118.48739760606711
 22
74.62608493603264
 32
0.0
 13
118.48739760606711
 23
74.62608493603264
 33
0.0
  0
SOLID
  5
BEA
  8
2
 62
     0
 10
118.07073093940041
 20
77.926084936032638
 30
0.0
 11
118.90406427273381
 21
77.926084936032638
 31
0.0
 12
118.48739760606711
 22
75.426084936032638
 32
0.0
 13
118.48739760606711
 23
75.426084936032638
 33
0.0
  0
TEXT
  5
BEB
  8
2
 62
     0
 10
117.86239760606711
 20
81.051084936032666
 30
0.0
 40
2.5
  1
0.8
 50
90.0
  0
POINT
  5
BEC
  8
DEFPOINTS
 62
     0
 10
129.92470914525441
 20
74.62608493603264
 30
0.0
  0
POINT
  5
BED
  8
DEFPOINTS
 62
     0
 10
131.07470914525439
 20
75.426084936032638
 30
0.0
  0
POINT
  5
BEE
  8
DEFPOINTS
 62
     0
 10
118.48739760606711
 20
75.426084936032638
 30
0.0
  0
ENDBLK
  5
BF0
  8
0
  0
BLOCK
  8
0
  2
*D7
 70
     1
 10
0.0
 20
0.0
 30
0.0
  3
*D7
  1

  0
LINE
  5
BFA
  8
2
 62
     0
 10
155.79970914525441
 20
94.126084936032626
 30
0.0
 11
165.49918837467371
 21
94.126084936032626
 31
0.0
  0
LINE
  5
BFB
  8
2
 62
     0
 10
149.79970914525441
 20
80.626084936032626
 30
0.0
 11
165.49918837467371
 21
80.626084936032598
 31
0.0
  0
LINE
  5
BFC
  8
2
 62
     0
 10
164.24918837467371
 20
91.626084936032626
 30
0.0
 11
164.24918837467371
 21
83.126084936032598
 31
0.0
  0
SOLID
  5
BFD
  8
2
 62
     0
 10
163.83252170800699
 20
91.626084936032626
 30
0.0
 11
164.66585504134031
 21
91.626084936032626
 31
0.0
 12
164.24918837467371
 22
94.126084936032626
 32
0.0
 13
164.24918837467371
 23
94.126084936032626
 33
0.0
  0
SOLID
  5
BFE
  8
2
 62
     0
 10
163.83252170800699
 20
83.126084936032598
 30
0.0
 11
164.66585504134031
 21
83.126084936032598
 31
0.0
 12
164.24918837467371
 22
80.626084936032598
 32
0.0
 13
164.24918837467371
 23
80.626084936032598
 33
0.0
  0
TEXT
  5
BFF
  8
2
 62
     0
 10
163.62418837467371
 20
84.042751602699298
 30
0.0
 40
2.5
  1
13.5
 50
90.0
  0
POINT
  5
C00
  8
DEFPOINTS
 62
     0
 10
155.17470914525441
 20
94.126084936032626
 30
0.0
  0
POINT
  5
C01
  8
DEFPOINTS
 62
     0
 10
149.17470914525441
 20
80.626084936032626
 30
0.0
  0
POINT
  5
C02
  8
DEFPOINTS
 62
     0
 10
164.24918837467371
 20
80.626084936032598
 30
0.0
  0
ENDBLK
  5
C04
  8
0
  0
BLOCK
  8
0
  2
*D8
 70
     1
 10
0.0
 20
0.0
 30
0.0
  3
*D8
  1

  0
LINE
  5
C07
  8
2
 62
     0
 10
155.67801513824099
 20
94.126084936032626
 30
0.0
 11
170.52780014321451
 21
94.126084936032626
 31
0.0
  0
LINE
  5
C08
  8
2
 62
     0
 10
154.54970914525441
 20
74.62608493603264
 30
0.0
 11
170.52780014321451
 21
74.626084936032626
 31
0.0
  0
LINE
  5
C09
  8
2
 62
     0
 10
169.27780014321451
 20
91.626084936032626
 30
0.0
 11
169.27780014321451
 21
77.126084936032626
 31
0.0
  0
SOLID
  5
C0A
  8
2
 62
     0
 10
168.86113347654791
 20
91.626084936032626
 30
0.0
 11
169.69446680988119
 21
91.626084936032626
 31
0.0
 12
169.27780014321451
 22
94.126084936032626
 32
0.0
 13
169.27780014321451
 23
94.126084936032626
 33
0.0
  0
SOLID
  5
C0B
  8
2
 62
     0
 10
168.86113347654791
 20
77.126084936032626
 30
0.0
 11
169.69446680988119
 21
77.126084936032626
 31
0.0
 12
169.27780014321451
 22
74.626084936032626
 32
0.0
 13
169.27780014321451
 23
74.626084936032626
 33
0.0
  0
TEXT
  5
C0C
  8
2
 62
     0
 10
168.65280014321451
 20
81.042751602699326
 30
0.0
 40
2.5
  1
19.5
 50
90.0
  0
POINT
  5
C0D
  8
DEFPOINTS
 62
     0
 10
155.05301513824099
 20
94.126084936032626
 30
0.0
  0
POINT
  5
C0E
  8
DEFPOINTS
 62
     0
 10
153.92470914525441
 20
74.62608493603264
 30
0.0
  0
POINT
  5
C0F
  8
DEFPOINTS
 62
     0
 10
169.27780014321451
 20
74.626084936032626
 30
0.0
  0
ENDBLK
  5
C11
  8
0
  0
BLOCK
  8
0
  2
*D9
 70
     1
 10
0.0
 20
0.0
 30
0.0
  3
*D9
  1

  0
LINE
  5
CA3
  8
2
 62
     0
 10
134.67470914525441
 20
79.247865601735796
 30
0.0
 11
134.67470914525441
 21
64.255115717558169
 31
0.0
  0
LINE
  5
CA4
  8
2
 62
     0
 10
149.1747091452545
 20
79.247865601735796
 30
0.0
 11
149.1747091452545
 21
64.255115717558169
 31
0.0
  0
LINE
  5
CA5
  8
2
 62
     0
 10
137.17470914525441
 20
65.505115717558169
 30
0.0
 11
146.67470914525441
 21
65.505115717558169
 31
0.0
  0
SOLID
  5
CA6
  8
2
 62
     0
 10
137.17470914525441
 20
65.921782384224841
 30
0.0
 11
137.17470914525441
 21
65.088449050891498
 31
0.0
 12
134.67470914525441
 22
65.505115717558169
 32
0.0
 13
134.67470914525441
 23
65.505115717558169
 33
0.0
  0
SOLID
  5
CA7
  8
2
 62
     0
 10
146.67470914525441
 20
65.921782384224841
 30
0.0
 11
146.67470914525441
 21
65.088449050891498
 31
0.0
 12
149.1747091452545
 22
65.505115717558169
 32
0.0
 13
149.1747091452545
 23
65.505115717558169
 33
0.0
  0
INSERT
  5
CA8
  8
2
  2
*U19
 10
0.0
 20
0.0
 30
0.0
  0
POINT
  5
CA9
  8
DEFPOINTS
 62
     0
 10
134.67470914525441
 20
79.872865601735796
 30
0.0
  0
POINT
  5
CAA
  8
DEFPOINTS
 62
     0
 10
149.1747091452545
 20
79.872865601735796
 30
0.0
  0
POINT
  5
CAB
  8
DEFPOINTS
 62
     0
 10
149.1747091452545
 20
65.505115717558169
 30
0.0
  0
ENDBLK
  5
C20
  8
0
  0
BLOCK
  8
0
  2
*D10
 70
     1
 10
0.0
 20
0.0
 30
0.0
  3
*D10
  1

  0
LINE
  5
CAC
  8
2
 62
     0
 10
133.42470914525441
 20
74.00108493603264
 30
0.0
 11
133.42470914525441
 21
59.707087603603782
 31
0.0
  0
LINE
  5
CAD
  8
2
 62
     0
 10
150.42470914525441
 20
74.00108493603264
 30
0.0
 11
150.42470914525441
 21
59.707087603603782
 31
0.0
  0
LINE
  5
CAE
  8
2
 62
     0
 10
135.92470914525441
 20
60.957087603603782
 30
0.0
 11
147.92470914525441
 21
60.957087603603782
 31
0.0
  0
SOLID
  5
CAF
  8
2
 62
     0
 10
135.92470914525441
 20
61.373754270270453
 30
0.0
 11
135.92470914525441
 21
60.540420936937117
 31
0.0
 12
133.42470914525441
 22
60.957087603603782
 32
0.0
 13
133.42470914525441
 23
60.957087603603782
 33
0.0
  0
SOLID
  5
CB0
  8
2
 62
     0
 10
147.92470914525441
 20
61.373754270270453
 30
0.0
 11
147.92470914525441
 21
60.540420936937117
 31
0.0
 12
150.42470914525441
 22
60.957087603603782
 32
0.0
 13
150.42470914525441
 23
60.957087603603782
 33
0.0
  0
INSERT
  5
CB1
  8
2
  2
*U20
 10
0.0
 20
0.0
 30
0.0
  0
POINT
  5
CB2
  8
DEFPOINTS
 62
     0
 10
133.42470914525441
 20
74.62608493603264
 30
0.0
  0
POINT
  5
CB3
  8
DEFPOINTS
 62
     0
 10
150.42470914525441
 20
74.62608493603264
 30
0.0
  0
POINT
  5
CB4
  8
DEFPOINTS
 62
     0
 10
150.42470914525441
 20
60.957087603603782
 30
0.0
  0
ENDBLK
  5
C2D
  8
0
  0
BLOCK
  8
0
  2
*D11
 70
     1
 10
0.0
 20
0.0
 30
0.0
  3
*D11
  1

  0
LINE
  5
CB5
  8
2
 62
     0
 10
132.67470914525441
 20
74.00108493603264
 30
0.0
 11
132.67470914525441
 21
54.920301652888163
 31
0.0
  0
LINE
  5
CB6
  8
2
 62
     0
 10
151.17470914525441
 20
74.00108493603264
 30
0.0
 11
151.17470914525441
 21
54.920301652888163
 31
0.0
  0
LINE
  5
CB7
  8
2
 62
     0
 10
135.17470914525441
 20
56.170301652888163
 30
0.0
 11
148.67470914525441
 21
56.170301652888163
 31
0.0
  0
SOLID
  5
CB8
  8
2
 62
     0
 10
135.17470914525441
 20
56.586968319554821
 30
0.0
 11
135.17470914525441
 21
55.753634986221492
 31
0.0
 12
132.67470914525441
 22
56.170301652888163
 32
0.0
 13
132.67470914525441
 23
56.170301652888163
 33
0.0
  0
SOLID
  5
CB9
  8
2
 62
     0
 10
148.67470914525441
 20
56.586968319554821
 30
0.0
 11
148.67470914525441
 21
55.753634986221492
 31
0.0
 12
151.17470914525441
 22
56.170301652888163
 32
0.0
 13
151.17470914525441
 23
56.170301652888163
 33
0.0
  0
INSERT
  5
CBA
  8
2
  2
*U21
 10
0.0
 20
0.0
 30
0.0
  0
POINT
  5
CBB
  8
DEFPOINTS
 62
     0
 10
132.67470914525441
 20
74.62608493603264
 30
0.0
  0
POINT
  5
CBC
  8
DEFPOINTS
 62
     0
 10
151.17470914525441
 20
74.62608493603264
 30
0.0
  0
POINT
  5
CBD
  8
DEFPOINTS
 62
     0
 10
151.17470914525441
 20
56.170301652888163
 30
0.0
  0
ENDBLK
  5
C47
  8
0
  0
BLOCK
  8
0
  2
*D12
 70
     1
 10
0.0
 20
0.0
 30
0.0
  3
*D12
  1

  0
LINE
  5
CBE
  8
2
 62
     0
 10
130.67470914525441
 20
74.00108493603264
 30
0.0
 11
130.67470914525441
 21
50.307410002452912
 31
0.0
  0
LINE
  5
CBF
  8
2
 62
     0
 10
153.17470914525441
 20
74.00108493603264
 30
0.0
 11
153.17470914525441
 21
50.307410002452912
 31
0.0
  0
LINE
  5
CC0
  8
2
 62
     0
 10
133.17470914525441
 20
51.557410002452912
 30
0.0
 11
150.67470914525441
 21
51.557410002452912
 31
0.0
  0
SOLID
  5
CC1
  8
2
 62
     0
 10
133.17470914525441
 20
51.974076669119569
 30
0.0
 11
133.17470914525441
 21
51.14074333578624
 31
0.0
 12
130.67470914525441
 22
51.557410002452912
 32
0.0
 13
130.67470914525441
 23
51.557410002452912
 33
0.0
  0
SOLID
  5
CC2
  8
2
 62
     0
 10
150.67470914525441
 20
51.974076669119569
 30
0.0
 11
150.67470914525441
 21
51.14074333578624
 31
0.0
 12
153.17470914525441
 22
51.557410002452912
 32
0.0
 13
153.17470914525441
 23
51.557410002452912
 33
0.0
  0
INSERT
  5
CC3
  8
2
  2
*U22
 10
0.0
 20
0.0
 30
0.0
  0
POINT
  5
CC4
  8
DEFPOINTS
 62
     0
 10
130.67470914525441
 20
74.62608493603264
 30
0.0
  0
POINT
  5
CC5
  8
DEFPOINTS
 62
     0
 10
153.17470914525441
 20
74.62608493603264
 30
0.0
  0
POINT
  5
CC6
  8
DEFPOINTS
 62
     0
 10
153.17470914525441
 20
51.557410002452912
 30
0.0
  0
ENDBLK
  5
C54
  8
0
  0
BLOCK
  8
0
  2
*D13
 70
     1
 10
0.0
 20
0.0
 30
0.0
  3
*D13
  1

  0
LINE
  5
CC7
  8
2
 62
     0
 10
129.92470914525441
 20
74.00108493603264
 30
0.0
 11
129.92470914525441
 21
46.054896013844193
 31
0.0
  0
LINE
  5
CC8
  8
2
 62
     0
 10
153.92470914525441
 20
74.00108493603264
 30
0.0
 11
153.92470914525441
 21
46.054896013844193
 31
0.0
  0
LINE
  5
CC9
  8
2
 62
     0
 10
132.42470914525441
 20
47.304896013844193
 30
0.0
 11
151.42470914525441
 21
47.304896013844193
 31
0.0
  0
SOLID
  5
CCA
  8
2
 62
     0
 10
132.42470914525441
 20
47.721562680510857
 30
0.0
 11
132.42470914525441
 21
46.888229347177528
 31
0.0
 12
129.92470914525441
 22
47.304896013844193
 32
0.0
 13
129.92470914525441
 23
47.304896013844193
 33
0.0
  0
SOLID
  5
CCB
  8
2
 62
     0
 10
151.42470914525441
 20
47.721562680510857
 30
0.0
 11
151.42470914525441
 21
46.888229347177528
 31
0.0
 12
153.92470914525441
 22
47.304896013844193
 32
0.0
 13
153.92470914525441
 23
47.304896013844193
 33
0.0
  0
INSERT
  5
CCC
  8
2
  2
*U23
 10
0.0
 20
0.0
 30
0.0
  0
POINT
  5
CCD
  8
DEFPOINTS
 62
     0
 10
129.92470914525441
 20
74.62608493603264
 30
0.0
  0
POINT
  5
CCE
  8
DEFPOINTS
 62
     0
 10
153.92470914525441
 20
74.62608493603264
 30
0.0
  0
POINT
  5
CCF
  8
DEFPOINTS
 62
     0
 10
153.92470914525441
 20
47.304896013844193
 30
0.0
  0
ENDBLK
  5
C61
  8
0
  0
BLOCK
  8
0
  2
*D14
 70
     1
 10
0.0
 20
0.0
 30
0.0
  3
*D14
  1

  0
LINE
  5
CD0
  8
2
 62
     0
 10
128.67470914525441
 20
79.247865601735796
 30
0.0
 11
128.67470914525441
 21
41.372857763597153
 31
0.0
  0
LINE
  5
CD1
  8
2
 62
     0
 10
155.17470914525441
 20
79.247865601735796
 30
0.0
 11
155.17470914525441
 21
41.372857763597153
 31
0.0
  0
LINE
  5
CD2
  8
2
 62
     0
 10
131.1747091452545
 20
42.622857763597153
 30
0.0
 11
152.67470914525441
 21
42.622857763597153
 31
0.0
  0
SOLID
  5
CD3
  8
2
 62
     0
 10
131.1747091452545
 20
43.03952443026381
 30
0.0
 11
131.1747091452545
 21
42.206191096930489
 31
0.0
 12
128.67470914525441
 22
42.622857763597153
 32
0.0
 13
128.67470914525441
 23
42.622857763597153
 33
0.0
  0
SOLID
  5
CD4
  8
2
 62
     0
 10
152.67470914525441
 20
43.03952443026381
 30
0.0
 11
152.67470914525441
 21
42.206191096930489
 31
0.0
 12
155.17470914525441
 22
42.622857763597153
 32
0.0
 13
155.17470914525441
 23
42.622857763597153
 33
0.0
  0
INSERT
  5
CD5
  8
2
  2
*U24
 10
0.0
 20
0.0
 30
0.0
  0
POINT
  5
CD6
  8
DEFPOINTS
 62
     0
 10
128.67470914525441
 20
79.872865601735796
 30
0.0
  0
POINT
  5
CD7
  8
DEFPOINTS
 62
     0
 10
155.17470914525441
 20
79.872865601735796
 30
0.0
  0
POINT
  5
CD8
  8
DEFPOINTS
 62
     0
 10
155.17470914525441
 20
42.622857763597153
 30
0.0
  0
ENDBLK
  5
C6E
  8
0
  0
BLOCK
  8
0
  2
*U15
 70
     1
 10
0.0
 20
0.0
 30
0.0
  3
*U15
  1

  0
TEXT
  5
D13
  8
2
 62
     0
 10
149.67470914525441
 20
113.1608011891372
 30
0.0
 40
2.5
  1
\U+2205
  0
TEXT
  5
D14
  8
2
 62
     0
 10
152.17470914525441
 20
113.1608011891372
 30
0.0
 40
2.5
  1
11
  0
ENDBLK
  5
D16
  8
0
  0
BLOCK
  8
0
  2
*U16
 70
     1
 10
0.0
 20
0.0
 30
0.0
  3
*U16
  1

  0
TEXT
  5
D18
  8
2
 62
     0
 10
150.0913758119211
 20
109.4154081536915
 30
0.0
 40
2.5
  1
\U+2205
  0
TEXT
  5
D19
  8
2
 62
     0
 10
152.5913758119211
 20
109.4154081536915
 30
0.0
 40
2.5
  1
6
  0
ENDBLK
  5
D1B
  8
0
  0
BLOCK
  8
0
  2
*U17
 70
     1
 10
0.0
 20
0.0
 30
0.0
  3
*U17
  1

  0
TEXT
  5
D1D
  8
2
 62
     0
 10
159.79970914525441
 20
105.62200266224001
 30
0.0
 40
2.5
  1
\U+2205
  0
TEXT
  5
D1E
  8
2
 62
     0
 10
162.29970914525441
 20
105.62200266224001
 30
0.0
 40
2.5
  1
4
  0
ENDBLK
  5
D20
  8
0
  0
BLOCK
  8
0
  2
*U18
 70
     1
 10
0.0
 20
0.0
 30
0.0
  3
*U18
  1

  0
TEXT
  5
D22
  8
2
 62
     0
 10
158.39970914525441
 20
101.0016868210262
 30
0.0
 40
2.5
  1
\U+2205
  0
TEXT
  5
D23
  8
2
 62
     0
 10
160.89970914525441
 20
101.0016868210262
 30
0.0
 40
2.5
  1
1.2
  0
ENDBLK
  5
D25
  8
0
  0
BLOCK
  8
0
  2
*U19
 70
     1
 10
0.0
 20
0.0
 30
0.0
  3
*U19
  1

  0
TEXT
  5
D27
  8
2
 62
     0
 10
137.3413758119211
 20
66.130115717558169
 30
0.0
 40
2.5
  1
\U+2205
  0
TEXT
  5
D28
  8
2
 62
     0
 10
139.8413758119211
 20
66.130115717558169
 30
0.0
 40
2.5
  1
14.5
  0
ENDBLK
  5
D2A
  8
0
  0
BLOCK
  8
0
  2
*U20
 70
     1
 10
0.0
 20
0.0
 30
0.0
  3
*U20
  1

  0
TEXT
  5
D2C
  8
2
 62
     0
 10
139.00804247858781
 20
61.582087603603782
 30
0.0
 40
2.5
  1
\U+2205
  0
TEXT
  5
D2D
  8
2
 62
     0
 10
141.50804247858781
 20
61.582087603603782
 30
0.0
 40
2.5
  1
17
  0
ENDBLK
  5
D2F
  8
0
  0
BLOCK
  8
0
  2
*U21
 70
     1
 10
0.0
 20
0.0
 30
0.0
  3
*U21
  1

  0
TEXT
  5
D31
  8
2
 62
     0
 10
137.3413758119211
 20
56.795301652888163
 30
0.0
 40
2.5
  1
\U+2205
  0
TEXT
  5
D32
  8
2
 62
     0
 10
139.8413758119211
 20
56.795301652888163
 30
0.0
 40
2.5
  1
18.5
  0
ENDBLK
  5
D34
  8
0
  0
BLOCK
  8
0
  2
*U22
 70
     1
 10
0.0
 20
0.0
 30
0.0
  3
*U22
  1

  0
TEXT
  5
D36
  8
2
 62
     0
 10
136.92470914525441
 20
52.182410002452912
 30
0.0
 40
2.5
  1
\U+2205
  0
TEXT
  5
D37
  8
2
 62
     0
 10
139.42470914525441
 20
52.182410002452912
 30
0.0
 40
2.5
  1
22.5
  0
ENDBLK
  5
D39
  8
0
  0
BLOCK
  8
0
  2
*U23
 70
     1
 10
0.0
 20
0.0
 30
0.0
  3
*U23
  1

  0
TEXT
  5
D3B
  8
2
 62
     0
 10
138.5913758119211
 20
47.929896013844193
 30
0.0
 40
2.5
  1
\U+2205
  0
TEXT
  5
D3C
  8
2
 62
     0
 10
141.0913758119211
 20
47.929896013844193
 30
0.0
 40
2.5
  1
24
  0
ENDBLK
  5
D3E
  8
0
  0
BLOCK
  8
0
  2
*U24
 70
     1
 10
0.0
 20
0.0
 30
0.0
  3
*U24
  1

  0
TEXT
  5
D40
  8
2
 62
     0
 10
136.92470914525441
 20
43.247857763597153
 30
0.0
 40
2.5
  1
\U+2205
  0
TEXT
  5
D41
  8
2
 62
     0
 10
139.42470914525441
 20
43.247857763597153
 30
0.0
 40
2.5
  1
26.5
  0
ENDBLK
  5
D43
  8
0
  0
BLOCK
  8
0
  2
*U25
 70
     1
 10
0.0
 20
0.0
 30
0.0
  3
*U25
  1

  0
TEXT
  5
D45
  8
2
 62
     0
 10
118.9663758119211
 20
97.237434160598184
 30
0.0
 40
2.5
  1
\U+2205
  0
TEXT
  5
D46
  8
2
 62
     0
 10
121.4663758119211
 20
97.237434160598184
 30
0.0
 40
2.5
  1
20.5
  0
ENDBLK
  5
D48
  8
0
  0
ENDSEC
  0
SECTION
  2
ENTITIES
  0
TEXT
  5
253
  8
2
 10
127.0708449818832
 20
-7.1115829717814441
 30
0.0
 40
2.5399440000000002
  1
No. 107.024.060.2
 51
-0.0000015352344868
  7
\U+00C9L\U+00C9R_\U+00C2S\U+00C2V\U+00C2B\U+00C2N
  0
LINE
  5
51B
  8
1
 10
141.92470914525441
 20
34.687079530776579
 30
0.0
 11
141.92470914525441
 21
2.6870795307765891
 31
0.0
  0
LINE
  5
603
  8
0
 39
3.8542890717299989
 10
130.06130373982819
 20
82.434099036939671
 30
0.0
 11
131.67470914525441
 21
82.434099036939671
 31
0.0
  0
LINE
  5
613
  8
0
 39
3.8542890717299989
 10
130.06130373982819
 20
82.434099036939671
 30
0.0
 11
130.06130373982819
 21
88.759064489430045
 31
0.0
  0
LINE
  5
620
  8
0
 39
3.8542890717299989
 10
130.3747091452544
 20
76.319614283633996
 30
0.0
 11
128.67470914525441
 21
79.872865601735796
 31
0.0
  0
LINE
  5
62E
  8
0
 10
128.67470914525441
 20
88.759064489430045
 30
0.0
 11
131.67470914525441
 21
88.759064489430045
 31
0.0
  0
LINE
  5
632
  8
1
 10
157.92470914525441
 20
18.687079530776579
 30
0.0
 11
125.9247091452544
 21
18.687079530776579
 31
0.0
  0
CIRCLE
  5
633
  8
0
 10
141.92470914525441
 20
18.687079530776579
 30
0.0
 40
13.25
  0
CIRCLE
  5
635
  8
0
 10
141.92470914525441
 20
18.687079530776579
 30
0.0
 40
12.0
  0
CIRCLE
  5
636
  8
0
 10
141.92470914525441
 20
18.687079530776579
 30
0.0
 40
11.25
  0
CIRCLE
  5
637
  8
1
 10
141.92470914525441
 20
18.687079530776579
 30
0.0
 40
10.25
  0
CIRCLE
  5
638
  8
0
 10
141.92470914525441
 20
18.687079530776579
 30
0.0
 40
9.25
  0
CIRCLE
  5
63B
  8
0
 10
141.92470914525441
 20
18.687079530776579
 30
0.0
 40
8.5
  0
CIRCLE
  5
63C
  8
0
 10
141.92470914525441
 20
18.687079530776579
 30
0.0
 40
7.2000000000000002
  0
CIRCLE
  5
63F
  8
0
 10
152.17470914525441
 20
18.687079530776579
 30
0.0
 40
0.6
  0
CIRCLE
  5
640
  8
0
 10
141.92470914525441
 20
28.937079530776579
 30
0.0
 40
0.6
  0
CIRCLE
  5
641
  8
0
 10
131.67470914525441
 20
18.687079530776579
 30
0.0
 40
0.6
  0
CIRCLE
  5
642
  8
0
 10
141.92470914525441
 20
8.437079530776586
 30
0.0
 40
0.6
  0
ARC
  5
648
  8
0
 10
131.67470914525441
 20
18.687079530776579
 30
0.0
 40
5.5
 50
110.9151176254996
 51
249.0848823745003
  0
ARC
  5
64B
  8
0
 10
152.17470914525441
 20
18.687079530776579
 30
0.0
 40
5.5
 50
290.91511762549959
 51
69.084882374500339
  0
ARC
  5
64C
  8
0
 10
141.92470914525441
 20
8.437079530776586
 30
0.0
 40
5.5
 50
200.91511762549959
 51
339.08488237450041
  0
ARC
  5
64E
  8
0
 10
141.92470914525441
 20
28.937079530776579
 30
0.0
 40
5.5
 50
20.915117625499601
 51
159.0848823745003
  0
ARC
  5
64F
  8
0
 10
152.17470914525441
 20
18.687079530776579
 30
0.0
 40
5.5
 50
137.7597552054165
 51
222.24024479458339
  0
ARC
  5
651
  8
0
 10
141.92470914525441
 20
8.437079530776586
 30
0.0
 40
5.5
 50
47.759755205416702
 51
132.2402447945833
  0
ARC
  5
653
  8
0
 10
131.67470914525441
 20
18.687079530776579
 30
0.0
 40
5.5
 50
317.75975520541652
 51
42.240244794583411
  0
ARC
  5
655
  8
0
 10
141.92470914525441
 20
28.937079530776579
 30
0.0
 40
5.5
 50
227.75975520541661
 51
312.24024479458319
  0
LINE
  5
A8F
  8
1
 10
141.92470914525441
 20
94.62608493603264
 30
0.0
 11
141.92470914525441
 21
74.12608493603264
 31
0.0
  0
LINE
  5
A93
  8
1
 10
131.67470914525441
 20
94.426084936032638
 30
0.0
 11
131.67470914525441
 21
74.326084936032643
 31
0.0
  0
LINE
  5
A9B
  8
0
 10
129.67470914525441
 20
94.126084936032626
 30
0.0
 11
129.67470914525441
 21
91.214085453923872
 31
0.0
  0
LINE
  5
A9D
  8
0
 10
128.67470914525441
 20
94.126084936032626
 30
0.0
 11
128.67470914525441
 21
91.086567190977775
 31
0.0
  0
LINE
  5
AA4
  8
0
 10
128.67470914525441
 20
94.126084936032626
 30
0.0
 11
128.67470914525441
 21
91.086567190977775
 31
0.0
  0
LINE
  5
AA5
  8
0
 10
128.67470914525441
 20
94.126084936032626
 30
0.0
 11
134.67470914525441
 21
94.126084936032626
 31
0.0
  0
LINE
  5
AA9
  8
0
 10
128.67470914525441
 20
88.759064489430045
 30
0.0
 11
128.67470914525441
 21
88.184467074616535
 31
0.0
  0
LINE
  5
AAA
  8
0
 10
128.67470914525441
 20
88.759064489430045
 30
0.0
 11
128.67470914525441
 21
88.184467074616535
 31
0.0
  0
LINE
  5
AAB
  8
0
 10
128.67470914525441
 20
85.511222164812466
 30
0.0
 11
128.67470914525441
 21
79.872865601735839
 31
0.0
  0
LINE
  5
AAC
  8
0
 10
128.67470914525441
 20
85.511222164812466
 30
0.0
 11
128.67470914525441
 21
79.872865601735839
 31
0.0
  0
LINE
  5
AB4
  8
0
 10
131.67470914525441
 20
75.426084936032638
 30
0.0
 11
131.07470914525439
 21
75.426084936032638
 31
0.0
  0
LINE
  5
AB7
  8
0
 10
130.3747091452544
 20
75.426084936032638
 30
0.0
 11
130.3747091452544
 21
76.319614283633996
 31
0.0
  0
LINE
  5
ABA
  8
0
 10
130.3747091452544
 20
75.426084936032638
 30
0.0
 11
129.92470914525441
 21
74.62608493603264
 31
0.0
  0
LINE
  5
ABB
  8
0
 10
129.92470914525441
 20
74.62608493603264
 30
0.0
 11
141.92470914525441
 21
74.62608493603264
 31
0.0
  0
LINE
  5
AC0
  8
0
 10
131.07470914525439
 20
75.426084936032638
 30
0.0
 11
130.67470914525441
 21
74.62608493603264
 31
0.0
  0
LINE
  5
AC1
  8
0
 10
131.07470914525439
 20
75.426084936032638
 30
0.0
 11
131.07470914525439
 21
82.434099036939671
 31
0.0
  0
LINE
  5
AE9
  8
0
 10
128.67470914525441
 20
91.086567190977775
 30
0.0
 11
126.1747091452544
 21
88.184467074616535
 31
0.0
  0
LINE
  5
AEA
  8
0
 10
126.1747091452544
 20
88.184467074616535
 30
0.0
 11
128.67470914525441
 21
85.511222164812466
 31
0.0
  0
LINE
  5
AEB
  8
0
 10
129.67470914525441
 20
91.214085453923872
 30
0.0
 11
126.7513173708079
 21
88.184467074616535
 31
0.0
  0
LINE
  5
AEC
  8
0
 10
126.7513173708079
 20
88.184467074616535
 30
0.0
 11
128.67470914525441
 21
88.184467074616535
 31
0.0
  0
LINE
  5
B25
  8
0
 10
136.79970914525441
 20
87.783480338145935
 30
0.0
 11
138.92470914525441
 21
85.511222164812466
 31
0.0
  0
LINE
  5
B26
  8
0
 10
138.92470914525441
 20
91.086567190977775
 30
0.0
 11
136.79970914525441
 21
88.619782092070707
 31
0.0
  0
LINE
  5
B27
  8
0
 10
138.92470914525441
 20
85.511222164812466
 30
0.0
 11
138.92470914525441
 21
82.434099036939671
 31
0.0
  0
LINE
  5
B28
  8
0
 10
138.92470914525441
 20
85.511222164812466
 30
0.0
 11
138.92470914525441
 21
80.626084936032655
 31
0.0
  0
LINE
  5
B2C
  8
0
 10
138.92470914525441
 20
94.126084936032626
 30
0.0
 11
138.92470914525441
 21
91.086567190977775
 31
0.0
  0
LINE
  5
B2D
  8
0
 10
138.92470914525441
 20
94.126084936032626
 30
0.0
 11
138.92470914525441
 21
91.086567190977775
 31
0.0
  0
LINE
  5
B33
  8
0
 39
3.8542890717299989
 10
132.97470914525439
 20
76.319614283633996
 30
0.0
 11
134.67470914525441
 21
79.872865601735796
 31
0.0
  0
LINE
  5
B34
  8
0
 39
3.8542890717299989
 10
133.2881145506806
 20
82.434099036939671
 30
0.0
 11
133.2881145506806
 21
88.759064489430045
 31
0.0
  0
LINE
  5
B36
  8
0
 39
3.8542890717299989
 10
133.2881145506806
 20
82.434099036939671
 30
0.0
 11
131.67470914525441
 21
82.434099036939671
 31
0.0
  0
LINE
  5
B37
  8
0
 10
132.27470914525441
 20
75.426084936032638
 30
0.0
 11
132.27470914525441
 21
82.434099036939671
 31
0.0
  0
LINE
  5
B38
  8
0
 10
132.27470914525441
 20
75.426084936032638
 30
0.0
 11
132.67470914525441
 21
74.62608493603264
 31
0.0
  0
LINE
  5
B39
  8
0
 10
132.97470914525439
 20
75.426084936032638
 30
0.0
 11
133.42470914525441
 21
74.62608493603264
 31
0.0
  0
LINE
  5
B3A
  8
0
 10
132.97470914525439
 20
75.426084936032638
 30
0.0
 11
132.97470914525439
 21
76.319614283633996
 31
0.0
  0
LINE
  5
B3B
  8
0
 10
131.67470914525441
 20
75.426084936032638
 30
0.0
 11
132.27470914525441
 21
75.426084936032638
 31
0.0
  0
LINE
  5
B3C
  8
0
 10
136.5981009197009
 20
88.184467074616535
 30
0.0
 11
134.67470914525441
 21
88.184467074616535
 31
0.0
  0
LINE
  5
B3D
  8
0
 10
133.67470914525441
 20
91.214085453923872
 30
0.0
 11
136.5981009197009
 21
88.184467074616535
 31
0.0
  0
LINE
  5
B3E
  8
0
 10
137.17470914525441
 20
88.184467074616535
 30
0.0
 11
134.67470914525441
 21
85.511222164812466
 31
0.0
  0
LINE
  5
B3F
  8
0
 10
134.67470914525441
 20
91.086567190977775
 30
0.0
 11
137.17470914525441
 21
88.184467074616535
 31
0.0
  0
LINE
  5
B40
  8
0
 10
134.67470914525441
 20
85.511222164812466
 30
0.0
 11
134.67470914525441
 21
79.872865601735839
 31
0.0
  0
LINE
  5
B41
  8
0
 10
134.67470914525441
 20
85.511222164812466
 30
0.0
 11
134.67470914525441
 21
79.872865601735839
 31
0.0
  0
LINE
  5
B42
  8
0
 10
134.67470914525441
 20
88.759064489430045
 30
0.0
 11
134.67470914525441
 21
88.184467074616535
 31
0.0
  0
LINE
  5
B43
  8
0
 10
134.67470914525441
 20
88.759064489430045
 30
0.0
 11
134.67470914525441
 21
88.184467074616535
 31
0.0
  0
LINE
  5
B44
  8
0
 10
134.67470914525441
 20
88.759064489430045
 30
0.0
 11
131.67470914525441
 21
88.759064489430045
 31
0.0
  0
LINE
  5
B45
  8
0
 10
134.67470914525441
 20
94.126084936032626
 30
0.0
 11
134.67470914525441
 21
91.086567190977775
 31
0.0
  0
LINE
  5
B46
  8
0
 10
134.67470914525441
 20
94.126084936032626
 30
0.0
 11
134.67470914525441
 21
91.086567190977775
 31
0.0
  0
LINE
  5
B47
  8
0
 10
133.67470914525441
 20
94.126084936032626
 30
0.0
 11
133.67470914525441
 21
91.214085453923872
 31
0.0
  0
LINE
  5
B49
  8
0
 10
141.92470914525441
 20
88.184467074616535
 30
0.0
 11
137.17470914525441
 21
88.184467074616535
 31
0.0
  0
LINE
  5
B4C
  8
0
 10
141.92470914525441
 20
91.086567190977775
 30
0.0
 11
138.92470914525441
 21
91.086567190977775
 31
0.0
  0
LINE
  5
B4D
  8
0
 10
141.92470914525441
 20
85.511222164812466
 30
0.0
 11
138.92470914525441
 21
85.511222164812466
 31
0.0
  0
LINE
  5
B51
  8
0
 10
138.92470914525441
 20
94.126084936032626
 30
0.0
 11
141.92470914525441
 21
94.126084936032626
 31
0.0
  0
LINE
  5
B59
  8
0
 39
3.8542890717299989
 10
150.56130373982819
 20
82.434099036939671
 30
0.0
 11
152.17470914525441
 21
82.434099036939671
 31
0.0
  0
LINE
  5
B5B
  8
0
 39
3.8542890717299989
 10
150.56130373982819
 20
82.434099036939671
 30
0.0
 11
150.56130373982819
 21
88.759064489430045
 31
0.0
  0
LINE
  5
B5C
  8
0
 39
3.8542890717299989
 10
150.8747091452544
 20
76.319614283633996
 30
0.0
 11
149.1747091452545
 21
79.872865601735796
 31
0.0
  0
LINE
  5
B5E
  8
0
 39
3.8542890717299989
 10
153.47470914525439
 20
76.319614283633996
 30
0.0
 11
155.17470914525441
 21
79.872865601735796
 31
0.0
  0
LINE
  5
B60
  8
0
 39
3.8542890717299989
 10
153.7881145506806
 20
82.434099036939671
 30
0.0
 11
153.7881145506806
 21
88.759064489430045
 31
0.0
  0
LINE
  5
B63
  8
0
 39
3.8542890717299989
 10
153.7881145506806
 20
82.434099036939671
 30
0.0
 11
152.17470914525441
 21
82.434099036939671
 31
0.0
  0
LINE
  5
B66
  8
1
 10
152.17470914525441
 20
94.426084936032638
 30
0.0
 11
152.17470914525441
 21
74.326084936032643
 31
0.0
  0
LINE
  5
B67
  8
0
 10
151.57470914525439
 20
75.426084936032638
 30
0.0
 11
151.57470914525439
 21
82.434099036939671
 31
0.0
  0
LINE
  5
B68
  8
0
 10
152.77470914525441
 20
75.426084936032638
 30
0.0
 11
152.77470914525441
 21
82.434099036939671
 31
0.0
  0
LINE
  5
B69
  8
0
 10
153.92470914525441
 20
74.62608493603264
 30
0.0
 11
141.92470914525441
 21
74.62608493603264
 31
0.0
  0
LINE
  5
B6A
  8
0
 10
152.17470914525441
 20
75.426084936032638
 30
0.0
 11
151.57470914525439
 21
75.426084936032638
 31
0.0
  0
LINE
  5
B6B
  8
0
 10
152.77470914525441
 20
75.426084936032638
 30
0.0
 11
153.17470914525441
 21
74.62608493603264
 31
0.0
  0
LINE
  5
B6C
  8
0
 10
153.47470914525439
 20
75.426084936032638
 30
0.0
 11
153.92470914525441
 21
74.62608493603264
 31
0.0
  0
LINE
  5
B6D
  8
0
 10
153.47470914525439
 20
75.426084936032638
 30
0.0
 11
153.47470914525439
 21
76.319614283633996
 31
0.0
  0
LINE
  5
B6E
  8
0
 10
152.17470914525441
 20
75.426084936032638
 30
0.0
 11
152.77470914525441
 21
75.426084936032638
 31
0.0
  0
LINE
  5
B6F
  8
0
 10
150.8747091452544
 20
75.426084936032638
 30
0.0
 11
150.8747091452544
 21
76.319614283633996
 31
0.0
  0
LINE
  5
B70
  8
0
 10
150.8747091452544
 20
75.426084936032638
 30
0.0
 11
150.42470914525441
 21
74.62608493603264
 31
0.0
  0
LINE
  5
B71
  8
0
 10
151.57470914525439
 20
75.426084936032638
 30
0.0
 11
151.17470914525441
 21
74.62608493603264
 31
0.0
  0
LINE
  5
B72
  8
0
 10
157.0981009197009
 20
88.184467074616535
 30
0.0
 11
155.17470914525441
 21
88.184467074616535
 31
0.0
  0
LINE
  5
B73
  8
0
 10
154.17470914525441
 20
91.214085453923872
 30
0.0
 11
157.0981009197009
 21
88.184467074616535
 31
0.0
  0
LINE
  5
B74
  8
0
 10
157.67470914525441
 20
88.184467074616535
 30
0.0
 11
155.17470914525441
 21
85.511222164812466
 31
0.0
  0
LINE
  5
B75
  8
0
 10
155.17470914525441
 20
91.086567190977775
 30
0.0
 11
157.67470914525441
 21
88.184467074616535
 31
0.0
  0
LINE
  5
B76
  8
0
 10
149.17470914525441
 20
91.086567190977775
 30
0.0
 11
146.67470914525441
 21
88.184467074616535
 31
0.0
  0
LINE
  5
B77
  8
0
 10
150.17470914525441
 20
91.214085453923872
 30
0.0
 11
147.2513173708079
 21
88.184467074616535
 31
0.0
  0
LINE
  5
B78
  8
0
 10
144.92470914525441
 20
91.086567190977775
 30
0.0
 11
147.04970914525441
 21
88.619782092070707
 31
0.0
  0
LINE
  5
B79
  8
0
 10
146.67470914525441
 20
88.184467074616535
 30
0.0
 11
149.17470914525441
 21
85.511222164812466
 31
0.0
  0
LINE
  5
B7A
  8
0
 10
147.2513173708079
 20
88.184467074616535
 30
0.0
 11
149.17470914525441
 21
88.184467074616535
 31
0.0
  0
LINE
  5
B7B
  8
0
 10
149.17470914525441
 20
85.511222164812466
 30
0.0
 11
149.17470914525441
 21
79.872865601735839
 31
0.0
  0
LINE
  5
B7C
  8
0
 10
149.17470914525441
 20
85.511222164812466
 30
0.0
 11
149.17470914525441
 21
79.872865601735839
 31
0.0
  0
LINE
  5
B7D
  8
0
 10
155.17470914525441
 20
85.511222164812466
 30
0.0
 11
155.17470914525441
 21
79.872865601735839
 31
0.0
  0
LINE
  5
B7E
  8
0
 10
155.17470914525441
 20
85.511222164812466
 30
0.0
 11
155.17470914525441
 21
79.872865601735839
 31
0.0
  0
LINE
  5
B7F
  8
0
 10
149.17470914525441
 20
88.759064489430045
 30
0.0
 11
152.17470914525441
 21
88.759064489430045
 31
0.0
  0
LINE
  5
B80
  8
0
 10
155.17470914525441
 20
88.759064489430045
 30
0.0
 11
155.17470914525441
 21
88.184467074616535
 31
0.0
  0
LINE
  5
B81
  8
0
 10
155.17470914525441
 20
88.759064489430045
 30
0.0
 11
155.17470914525441
 21
88.184467074616535
 31
0.0
  0
LINE
  5
B82
  8
0
 10
155.17470914525441
 20
88.759064489430045
 30
0.0
 11
152.17470914525441
 21
88.759064489430045
 31
0.0
  0
LINE
  5
B83
  8
0
 10
149.17470914525441
 20
88.759064489430045
 30
0.0
 11
149.17470914525441
 21
88.184467074616535
 31
0.0
  0
LINE
  5
B84
  8
0
 10
149.17470914525441
 20
88.759064489430045
 30
0.0
 11
149.17470914525441
 21
88.184467074616535
 31
0.0
  0
LINE
  5
B85
  8
0
 10
144.92470914525441
 20
85.511222164812466
 30
0.0
 11
144.92470914525441
 21
82.434099036939671
 31
0.0
  0
LINE
  5
B86
  8
0
 10
144.92470914525441
 20
85.511222164812466
 30
0.0
 11
144.9247091452545
 21
80.626084936032626
 31
0.0
  0
LINE
  5
B87
  8
0
 10
141.92470914525441
 20
85.511222164812466
 30
0.0
 11
144.92470914525441
 21
85.511222164812466
 31
0.0
  0
LINE
  5
B88
  8
0
 10
141.92470914525441
 20
88.184467074616535
 30
0.0
 11
146.67470914525441
 21
88.184467074616535
 31
0.0
  0
LINE
  5
B89
  8
0
 10
147.04970914525441
 20
87.783480338145935
 30
0.0
 11
144.92470914525441
 21
85.511222164812466
 31
0.0
  0
LINE
  5
B8A
  8
0
 10
155.17470914525441
 20
94.126084936032626
 30
0.0
 11
149.1747091452545
 21
94.126084936032626
 31
0.0
  0
LINE
  5
B8B
  8
0
 10
155.17470914525441
 20
94.126084936032626
 30
0.0
 11
155.17470914525441
 21
91.086567190977775
 31
0.0
  0
LINE
  5
B8C
  8
0
 10
155.17470914525441
 20
94.126084936032626
 30
0.0
 11
155.17470914525441
 21
91.086567190977775
 31
0.0
  0
LINE
  5
B8D
  8
0
 10
154.17470914525441
 20
94.126084936032626
 30
0.0
 11
154.17470914525441
 21
91.214085453923872
 31
0.0
  0
LINE
  5
B8E
  8
0
 10
150.17470914525441
 20
94.126084936032626
 30
0.0
 11
150.17470914525441
 21
91.214085453923872
 31
0.0
  0
LINE
  5
B8F
  8
0
 10
149.17470914525441
 20
94.126084936032626
 30
0.0
 11
149.17470914525441
 21
91.086567190977775
 31
0.0
  0
LINE
  5
B90
  8
0
 10
149.17470914525441
 20
94.126084936032626
 30
0.0
 11
149.17470914525441
 21
91.086567190977775
 31
0.0
  0
LINE
  5
B91
  8
0
 10
144.92470914525441
 20
94.126084936032626
 30
0.0
 11
141.92470914525441
 21
94.126084936032626
 31
0.0
  0
LINE
  5
B92
  8
0
 10
141.92470914525441
 20
91.086567190977775
 30
0.0
 11
144.92470914525441
 21
91.086567190977775
 31
0.0
  0
LINE
  5
B93
  8
0
 10
144.92470914525441
 20
94.126084936032626
 30
0.0
 11
144.92470914525441
 21
91.086567190977775
 31
0.0
  0
LINE
  5
B94
  8
0
 10
144.92470914525441
 20
94.126084936032626
 30
0.0
 11
144.92470914525441
 21
91.086567190977775
 31
0.0
  0
DIMENSION
  5
B9A
  8
2
  2
*D1
 10
152.77470914525441
 20
100.3766868210262
 30
0.0
 11
161.73304247858781
 21
102.2516868210262
 31
0.0
 70
     0
  1
%%c<>
 13
151.57470914525439
 23
82.434099036939671
 33
0.0
 14
152.77470914525441
 24
82.434099036939671
 34
0.0
  0
DIMENSION
  5
BA9
  8
2
  2
*D2
 10
154.17470914525441
 20
104.99700266224001
 30
0.0
 11
161.88304247858781
 21
106.87200266224001
 31
0.0
 70
     0
  1
%%c<>
 13
150.17470914525441
 23
94.126084936032626
 33
0.0
 14
154.17470914525441
 24
94.126084936032626
 34
0.0
  0
DIMENSION
  5
BB8
  8
2
  2
*D3
 10
155.17470914525441
 20
108.7904081536915
 30
0.0
 11
152.17470914525441
 21
110.6654081536915
 31
0.0
 70
     0
  1
%%c<>
 13
149.17470914525441
 23
94.126084936032626
 33
0.0
 14
155.17470914525441
 24
94.126084936032626
 34
0.0
  0
DIMENSION
  5
BC7
  8
2
  2
*D4
 10
157.67470914525441
 20
112.5358011891371
 30
0.0
 11
152.17470914525441
 21
114.4108011891372
 31
0.0
 70
     0
  1
%%c<>
 13
146.67470914525441
 23
88.184467074616535
 33
0.0
 14
157.67470914525441
 24
88.184467074616535
 34
0.0
  0
DIMENSION
  5
BD4
  8
2
  2
*D5
 10
131.67470914525441
 20
96.612434160598184
 30
0.0
 11
123.7580424785877
 21
96.612434160598184
 31
0.0
 70
   128
  1
%%c<>
 13
152.17470914525441
 23
94.426084936032638
 33
0.0
 14
131.67470914525441
 24
94.426084936032638
 34
0.0
  0
DIMENSION
  5
BE2
  8
2
  2
*D6
 10
118.48739760606711
 20
75.426084936032638
 30
0.0
 11
116.61239760606711
 21
83.342751602699323
 31
0.0
 70
     0
 13
129.92470914525441
 23
74.62608493603264
 33
0.0
 14
131.07470914525439
 24
75.426084936032638
 34
0.0
 50
90.0
  0
LINE
  5
BF3
  8
0
 10
149.17470914525441
 20
80.626084936032626
 30
0.0
 11
134.67470914525441
 21
80.626084936032683
 31
0.0
  0
DIMENSION
  5
BF8
  8
2
  2
*D7
 10
164.24918837467371
 20
80.626084936032598
 30
0.0
 11
162.37418837467371
 21
87.37608493603264
 31
0.0
 70
     0
 13
155.17470914525441
 23
94.126084936032626
 33
0.0
 14
149.17470914525441
 24
80.626084936032626
 34
0.0
 50
90.0
  0
DIMENSION
  5
C05
  8
2
  2
*D8
 10
169.27780014321451
 20
74.626084936032626
 30
0.0
 11
167.40280014321451
 21
84.376084936032655
 31
0.0
 70
     0
 13
155.05301513824099
 23
94.126084936032626
 33
0.0
 14
153.92470914525441
 24
74.62608493603264
 34
0.0
 50
90.0
  0
DIMENSION
  5
C14
  8
2
  2
*D9
 10
149.1747091452545
 20
65.505115717558169
 30
0.0
 11
141.92470914525441
 21
67.380115717558169
 31
0.0
 70
     0
  1
%%c<>
 13
134.67470914525441
 23
79.872865601735796
 33
0.0
 14
149.1747091452545
 24
79.872865601735796
 34
0.0
  0
DIMENSION
  5
C21
  8
2
  2
*D10
 10
150.42470914525441
 20
60.957087603603782
 30
0.0
 11
141.92470914525441
 21
62.832087603603782
 31
0.0
 70
     0
  1
%%c<>
 13
133.42470914525441
 23
74.62608493603264
 33
0.0
 14
150.42470914525441
 24
74.62608493603264
 34
0.0
  0
LINE
  5
C31
  8
0
 10
132.97470914525439
 20
76.319614283633996
 30
0.0
 11
150.8747091452544
 21
76.319614283633996
 31
0.0
  0
LINE
  5
C32
  8
0
 10
132.97470914525439
 20
75.426084936032638
 30
0.0
 11
150.8747091452544
 21
75.426084936032638
 31
0.0
  0
LINE
  5
C38
  8
0
 10
134.67470914525441
 20
79.872865601735796
 30
0.0
 11
149.1747091452545
 21
79.872865601735796
 31
0.0
  0
DIMENSION
  5
C3B
  8
2
  2
*D11
 10
151.17470914525441
 20
56.170301652888163
 30
0.0
 11
141.92470914525441
 21
58.045301652888163
 31
0.0
 70
     0
  1
%%c<>
 13
132.67470914525441
 23
74.62608493603264
 33
0.0
 14
151.17470914525441
 24
74.62608493603264
 34
0.0
  0
DIMENSION
  5
C48
  8
2
  2
*D12
 10
153.17470914525441
 20
51.557410002452912
 30
0.0
 11
141.92470914525441
 21
53.432410002452912
 31
0.0
 70
     0
  1
%%c<>
 13
130.67470914525441
 23
74.62608493603264
 33
0.0
 14
153.17470914525441
 24
74.62608493603264
 34
0.0
  0
DIMENSION
  5
C55
  8
2
  2
*D13
 10
153.92470914525441
 20
47.304896013844193
 30
0.0
 11
141.92470914525441
 21
49.179896013844193
 31
0.0
 70
     0
  1
%%c<>
 13
129.92470914525441
 23
74.62608493603264
 33
0.0
 14
153.92470914525441
 24
74.62608493603264
 34
0.0
  0
DIMENSION
  5
C62
  8
2
  2
*D14
 10
155.17470914525441
 20
42.622857763597153
 30
0.0
 11
141.92470914525441
 21
44.497857763597153
 31
0.0
 70
     0
  1
%%c<>
 13
128.67470914525441
 23
79.872865601735796
 33
0.0
 14
155.17470914525441
 24
79.872865601735796
 34
0.0
  0
ENDSEC
  0
EOF
