  0
SECTION
  2
HEADER
  9
$ACADVER
  1
AC1009
  9
$INSBASE
 10
0.0
 20
0.0
 30
0.0
  9
$EXTMIN
 10
76.347812924605492
 20
5.1114144817746139
 30
0.0
  9
$EXTMAX
 10
130.52700565511921
 20
80.814039180561025
 30
5.0
  9
$LIMMIN
 10
0.0
 20
0.0
  9
$LIMMAX
 10
420.0
 20
297.0
  9
$ORTHOMODE
 70
     0
  9
$REGENMODE
 70
     1
  9
$FILLMODE
 70
     1
  9
$QTEXTMODE
 70
     0
  9
$MIRRTEXT
 70
     1
  9
$DRAGMODE
 70
     2
  9
$LTSCALE
 40
0.3
  9
$OSMODE
 70
    37
  9
$ATTMODE
 70
     1
  9
$TEXTSIZE
 40
2.5
  9
$TRACEWID
 40
1.0
  9
$TEXTSTYLE
  7
STANDARD
  9
$CLAYER
  8
2
  9
$CELTYPE
  6
BYLAYER
  9
$CECOLOR
 62
   256
  9
$DIMSCALE
 40
1.0
  9
$DIMASZ
 40
2.5
  9
$DIMEXO
 40
0.625
  9
$DIMDLI
 40
3.75
  9
$DIMRND
 40
0.0
  9
$DIMDLE
 40
0.0
  9
$DIMEXE
 40
1.25
  9
$DIMTP
 40
0.0
  9
$DIMTM
 40
0.0
  9
$DIMTXT
 40
2.5
  9
$DIMCEN
 40
2.5
  9
$DIMTSZ
 40
0.0
  9
$DIMTOL
 70
     0
  9
$DIMLIM
 70
     0
  9
$DIMTIH
 70
     0
  9
$DIMTOH
 70
     0
  9
$DIMSE1
 70
     0
  9
$DIMSE2
 70
     0
  9
$DIMTAD
 70
     1
  9
$DIMZIN
 70
     8
  9
$DIMBLK
  1

  9
$DIMASO
 70
     1
  9
$DIMSHO
 70
     1
  9
$DIMPOST
  1

  9
$DIMAPOST
  1

  9
$DIMALT
 70
     0
  9
$DIMALTD
 70
     3
  9
$DIMALTF
 40
0.03937007874016
  9
$DIMLFAC
 40
1.0
  9
$DIMTOFL
 70
     1
  9
$DIMTVP
 40
0.0
  9
$DIMTIX
 70
     0
  9
$DIMSOXD
 70
     0
  9
$DIMSAH
 70
     0
  9
$DIMBLK1
  1

  9
$DIMBLK2
  1

  9
$DIMSTYLE
  2
ISO-25
  9
$DIMCLRD
 70
     0
  9
$DIMCLRE
 70
     0
  9
$DIMCLRT
 70
     0
  9
$DIMTFAC
 40
1.0
  9
$DIMGAP
 40
0.625
  9
$LUNITS
 70
     2
  9
$LUPREC
 70
     4
  9
$SKETCHINC
 40
1.0
  9
$FILLETRAD
 40
10.0
  9
$AUNITS
 70
     0
  9
$AUPREC
 70
     0
  9
$MENU
  1
.
  9
$ELEVATION
 40
0.0
  9
$PELEVATION
 40
0.0
  9
$THICKNESS
 40
0.0
  9
$LIMCHECK
 70
     0
  9
$BLIPMODE
 70
     0
  9
$CHAMFERA
 40
10.0
  9
$CHAMFERB
 40
10.0
  9
$SKPOLY
 70
     0
  9
$TDCREATE
 40
2453445.4318579049
  9
$TDUPDATE
 40
2453551.9149157982
  9
$TDINDWG
 40
0.0526184028
  9
$TDUSRTIMER
 40
0.0526184028
  9
$USRTIMER
 70
     1
  9
$ANGBASE
 50
0.0
  9
$ANGDIR
 70
     0
  9
$PDMODE
 70
     0
  9
$PDSIZE
 40
0.0
  9
$PLINEWID
 40
0.0
  9
$COORDS
 70
     1
  9
$SPLFRAME
 70
     0
  9
$SPLINETYPE
 70
     6
  9
$SPLINESEGS
 70
     8
  9
$ATTDIA
 70
     0
  9
$ATTREQ
 70
     1
  9
$HANDLING
 70
-16383
  9
$HANDSEED
  5
6C0
  9
$SURFTAB1
 70
     6
  9
$SURFTAB2
 70
     6
  9
$SURFTYPE
 70
     6
  9
$SURFU
 70
     6
  9
$SURFV
 70
     6
  9
$UCSNAME
  2

  9
$UCSORG
 10
0.0
 20
0.0
 30
0.0
  9
$UCSXDIR
 10
1.0
 20
0.0
 30
0.0
  9
$UCSYDIR
 10
0.0
 20
1.0
 30
0.0
  9
$PUCSNAME
  2

  9
$PUCSORG
 10
0.0
 20
0.0
 30
0.0
  9
$PUCSXDIR
 10
1.0
 20
0.0
 30
0.0
  9
$PUCSYDIR
 10
0.0
 20
1.0
 30
0.0
  9
$USERI1
 70
     0
  9
$USERI2
 70
     0
  9
$USERI3
 70
     0
  9
$USERI4
 70
     0
  9
$USERI5
 70
     0
  9
$USERR1
 40
0.0
  9
$USERR2
 40
0.0
  9
$USERR3
 40
0.0
  9
$USERR4
 40
0.0
  9
$USERR5
 40
0.0
  9
$WORLDVIEW
 70
     1
  9
$SHADEDGE
 70
     3
  9
$SHADEDIF
 70
    70
  9
$TILEMODE
 70
     1
  9
$MAXACTVP
 70
    64
  9
$PLIMCHECK
 70
     0
  9
$PEXTMIN
 10
1.0000000000000000E+020
 20
1.0000000000000000E+020
 30
1.0000000000000000E+020
  9
$PEXTMAX
 10
-1.0000000000000000E+020
 20
-1.0000000000000000E+020
 30
-1.0000000000000000E+020
  9
$PLIMMIN
 10
0.0
 20
0.0
  9
$PLIMMAX
 10
420.0
 20
297.0
  9
$UNITMODE
 70
     0
  9
$VISRETAIN
 70
     1
  9
$PLINEGEN
 70
     0
  9
$PSLTSCALE
 70
     1
  0
ENDSEC
  0
SECTION
  2
TABLES
  0
TABLE
  2
VPORT
 70
     2
  0
VPORT
  2
*ACTIVE
 70
     0
 10
0.0
 20
0.0
 11
1.0
 21
1.0
 12
100.7587039338067
 22
39.58241367719782
 13
0.0
 23
0.0
 14
10.0
 24
10.0
 15
10.0
 25
10.0
 16
0.0
 26
0.0
 36
1.0
 17
0.0
 27
0.0
 37
0.0
 40
89.077246492155325
 41
2.5392405063291141
 42
50.0
 43
0.0
 44
0.0
 50
0.0
 51
0.0
 71
     0
 72
   100
 73
     1
 74
     3
 75
     0
 76
     0
 77
     0
 78
     0
  0
ENDTAB
  0
TABLE
  2
LTYPE
 70
     2
  0
LTYPE
  2
CONTINUOUS
 70
     0
  3
Solid line
 72
    65
 73
     0
 40
0.0
  0
LTYPE
  2
CENTER
 70
     0
  3
Center ____ _ ____ _ ____ _ ____ _ ____ _ ____
 72
    65
 73
     4
 40
50.799999999999997
 49
31.75
 49
-6.3499999999999988
 49
6.3499999999999988
 49
-6.3499999999999988
  0
ENDTAB
  0
TABLE
  2
LAYER
 70
     4
  0
LAYER
  2
0
 70
     0
 62
     7
  6
CONTINUOUS
  0
LAYER
  2
DEFPOINTS
 70
     0
 62
     7
  6
CONTINUOUS
  0
LAYER
  2
1
 70
     0
 62
     7
  6
CENTER
  0
LAYER
  2
2
 70
     0
 62
     7
  6
CONTINUOUS
  0
ENDTAB
  0
TABLE
  2
STYLE
 70
     3
  0
STYLE
  2
STANDARD
 70
     0
 40
0.0
 41
1.0
 50
0.0
 71
     0
 42
2.5
  3
txt
  4

  0
STYLE
  2
\U+00C9L\U+00C9R_\U+00C2S\U+00C2V\U+00C2B\U+00C2N
 70
     0
 40
1.0
 41
1.0
 50
0.0
 71
     0
 42
1.0
  3
\U+00E9l\U+00E9r \U+00E2S\U+00E2V\U+00E2b\U+00E2N
  4

  0
STYLE
  2

 70
     1
 40
0.0
 41
1.0
 50
0.0
 71
     0
 42
2.5
  3
ltypeshp.shx
  4

  0
ENDTAB
  0
TABLE
  2
VIEW
 70
     0
  0
ENDTAB
  0
TABLE
  2
UCS
 70
     0
  0
ENDTAB
  0
TABLE
  2
APPID
 70
     1
  0
APPID
  2
ACAD
 70
     0
  0
ENDTAB
  0
TABLE
  2
DIMSTYLE
 70
     2
  0
DIMSTYLE
  2
ISO-25
 70
     0
  3

  4

  5

  6

  7

 40
1.0
 41
2.5
 42
0.625
 43
3.75
 44
1.25
 45
0.0
 46
0.0
 47
0.0
 48
0.0
140
2.5
141
2.5
142
0.0
143
0.03937007874016
144
1.0
145
0.0
146
1.0
147
0.625
 71
     0
 72
     0
 73
     0
 74
     0
 75
     0
 76
     0
 77
     1
 78
     8
170
     0
171
     3
172
     1
173
     0
174
     0
175
     0
176
     0
177
     0
178
     0
  0
DIMSTYLE
  2
STANDARD
 70
     0
  3

  4

  5

  6

  7

 40
1.0
 41
0.18
 42
0.0625
 43
0.38
 44
0.18
 45
0.0
 46
0.0
 47
0.0
 48
0.0
140
0.18
141
0.09
142
0.0
143
25.399999999999999
144
1.0
145
0.0
146
1.0
147
0.09
 71
     0
 72
     0
 73
     1
 74
     1
 75
     0
 76
     0
 77
     0
 78
     0
170
     0
171
     2
172
     0
173
     0
174
     0
175
     0
176
     0
177
     0
178
     0
  0
ENDTAB
  0
ENDSEC
  0
SECTION
  2
BLOCKS
  0
BLOCK
  8
0
  2
$MODEL_SPACE
 70
     0
 10
0.0
 20
0.0
 30
0.0
  3
$MODEL_SPACE
  1

  0
ENDBLK
  5
21
  8
0
  0
BLOCK
 67
     1
  8
0
  2
$PAPER_SPACE
 70
     0
 10
0.0
 20
0.0
 30
0.0
  3
$PAPER_SPACE
  1

  0
ENDBLK
  5
1D
 67
     1
  8
0
  0
BLOCK
  8
0
  2
*D1
 70
     1
 10
0.0
 20
0.0
 30
0.0
  3
*D1
  1

  0
LINE
  5
67A
  8
2
 62
     0
 10
91.24359108854479
 20
64.73281243296509
 30
0.0
 11
91.24359108854479
 21
74.684623748869825
 31
0.0
  0
LINE
  5
67B
  8
2
 62
     0
 10
107.2435910885447
 20
64.73281243296509
 30
0.0
 11
107.2435910885447
 21
74.684623748869825
 31
0.0
  0
LINE
  5
67C
  8
2
 62
     0
 10
93.74359108854479
 20
73.434623748869825
 30
0.0
 11
104.7435910885447
 21
73.434623748869825
 31
0.0
  0
SOLID
  5
67D
  8
2
 62
     0
 10
93.74359108854479
 20
73.851290415536496
 30
0.0
 11
93.74359108854479
 21
73.017957082203154
 31
0.0
 12
91.24359108854479
 22
73.434623748869825
 32
0.0
 13
91.24359108854479
 23
73.434623748869825
 33
0.0
  0
SOLID
  5
67E
  8
2
 62
     0
 10
104.7435910885447
 20
73.851290415536496
 30
0.0
 11
104.7435910885447
 21
73.017957082203154
 31
0.0
 12
107.2435910885447
 22
73.434623748869825
 32
0.0
 13
107.2435910885447
 23
73.434623748869825
 33
0.0
  0
INSERT
  5
67F
  8
2
  2
*U16
 10
0.0
 20
0.0
 30
0.0
  0
POINT
  5
680
  8
DEFPOINTS
 62
     0
 10
91.24359108854479
 20
64.10781243296509
 30
0.0
  0
POINT
  5
681
  8
DEFPOINTS
 62
     0
 10
107.2435910885447
 20
64.10781243296509
 30
0.0
  0
POINT
  5
682
  8
DEFPOINTS
 62
     0
 10
107.2435910885447
 20
73.434623748869825
 30
0.0
  0
ENDBLK
  5
569
  8
0
  0
BLOCK
  8
0
  2
*D2
 70
     1
 10
0.0
 20
0.0
 30
0.0
  3
*D2
  1

  0
LINE
  5
628
  8
2
 62
     0
 10
88.99359108854479
 20
65.23281243296509
 30
0.0
 11
88.99359108854479
 21
78.939039180561025
 31
0.0
  0
LINE
  5
629
  8
2
 62
     0
 10
109.4935910885447
 20
65.23281243296509
 30
0.0
 11
109.4935910885447
 21
78.939039180561025
 31
0.0
  0
LINE
  5
62A
  8
2
 62
     0
 10
91.49359108854479
 20
77.689039180561025
 30
0.0
 11
106.9935910885447
 21
77.689039180561025
 31
0.0
  0
SOLID
  5
62B
  8
2
 62
     0
 10
91.49359108854479
 20
78.105705847227696
 30
0.0
 11
91.49359108854479
 21
77.272372513894354
 31
0.0
 12
88.99359108854479
 22
77.689039180561025
 32
0.0
 13
88.99359108854479
 23
77.689039180561025
 33
0.0
  0
SOLID
  5
62C
  8
2
 62
     0
 10
106.9935910885447
 20
78.105705847227696
 30
0.0
 11
106.9935910885447
 21
77.272372513894354
 31
0.0
 12
109.4935910885447
 22
77.689039180561025
 32
0.0
 13
109.4935910885447
 23
77.689039180561025
 33
0.0
  0
INSERT
  5
62D
  8
2
  2
*U11
 10
0.0
 20
0.0
 30
0.0
  0
POINT
  5
62E
  8
DEFPOINTS
 62
     0
 10
88.99359108854479
 20
64.60781243296509
 30
0.0
  0
POINT
  5
62F
  8
DEFPOINTS
 62
     0
 10
109.4935910885447
 20
64.60781243296509
 30
0.0
  0
POINT
  5
630
  8
DEFPOINTS
 62
     0
 10
109.4935910885447
 20
77.689039180561025
 30
0.0
  0
ENDBLK
  5
576
  8
0
  0
BLOCK
  8
0
  2
*D3
 70
     1
 10
0.0
 20
0.0
 30
0.0
  3
*D3
  1

  0
LINE
  5
63A
  8
2
 62
     0
 10
88.393591088544795
 20
64.73281243296509
 30
0.0
 11
88.393591088544795
 21
70.263370054008163
 31
0.0
  0
LINE
  5
63B
  8
2
 62
     0
 10
89.593591088544784
 20
64.73281243296509
 30
0.0
 11
89.593591088544784
 21
70.263370054008163
 31
0.0
  0
LINE
  5
63C
  8
2
 62
     0
 10
85.893591088544795
 20
69.013370054008163
 30
0.0
 11
83.393591088544795
 21
69.013370054008163
 31
0.0
  0
LINE
  5
63D
  8
2
 62
     0
 10
92.093591088544784
 20
69.013370054008163
 30
0.0
 11
102.5102577552114
 21
69.013370054008163
 31
0.0
  0
LINE
  5
63E
  8
2
 62
     0
 10
88.393591088544795
 20
69.013370054008163
 30
0.0
 11
89.593591088544784
 21
69.013370054008163
 31
0.0
  0
SOLID
  5
63F
  8
2
 62
     0
 10
85.893591088544795
 20
69.430036720674835
 30
0.0
 11
85.893591088544795
 21
68.596703387341492
 31
0.0
 12
88.393591088544795
 22
69.013370054008163
 32
0.0
 13
88.393591088544795
 23
69.013370054008163
 33
0.0
  0
SOLID
  5
640
  8
2
 62
     0
 10
92.093591088544784
 20
69.430036720674835
 30
0.0
 11
92.093591088544784
 21
68.596703387341492
 31
0.0
 12
89.593591088544784
 22
69.013370054008163
 32
0.0
 13
89.593591088544784
 23
69.013370054008163
 33
0.0
  0
INSERT
  5
641
  8
2
  2
*U12
 10
0.0
 20
0.0
 30
0.0
  0
POINT
  5
642
  8
DEFPOINTS
 62
     0
 10
88.393591088544795
 20
64.10781243296509
 30
0.0
  0
POINT
  5
643
  8
DEFPOINTS
 62
     0
 10
89.593591088544784
 20
64.10781243296509
 30
0.0
  0
POINT
  5
644
  8
DEFPOINTS
 62
     0
 10
89.593591088544784
 20
69.013370054008163
 30
0.0
  0
ENDBLK
  5
585
  8
0
  0
BLOCK
  8
0
  2
*D4
 70
     1
 10
0.0
 20
0.0
 30
0.0
  3
*D4
  1

  0
LINE
  5
5B2
  8
2
 62
     0
 10
112.8685910885447
 20
64.10781243296509
 30
0.0
 11
125.29674368597949
 21
64.10781243296509
 31
0.0
  0
LINE
  5
5B3
  8
2
 62
     0
 10
112.8685910885447
 20
60.60781243296509
 30
0.0
 11
125.29674368597949
 21
60.60781243296509
 31
0.0
  0
LINE
  5
5B4
  8
2
 62
     0
 10
124.04674368597949
 20
66.60781243296509
 30
0.0
 11
124.04674368597949
 21
69.10781243296509
 31
0.0
  0
LINE
  5
5B5
  8
2
 62
     0
 10
124.04674368597949
 20
58.10781243296509
 30
0.0
 11
124.04674368597949
 21
49.35781243296509
 31
0.0
  0
LINE
  5
5B6
  8
2
 62
     0
 10
124.04674368597949
 20
64.10781243296509
 30
0.0
 11
124.04674368597949
 21
60.60781243296509
 31
0.0
  0
SOLID
  5
5B7
  8
2
 62
     0
 10
123.63007701931279
 20
66.60781243296509
 30
0.0
 11
124.46341035264621
 21
66.60781243296509
 31
0.0
 12
124.04674368597949
 22
64.10781243296509
 32
0.0
 13
124.04674368597949
 23
64.10781243296509
 33
0.0
  0
SOLID
  5
5B8
  8
2
 62
     0
 10
123.63007701931279
 20
58.10781243296509
 30
0.0
 11
124.46341035264621
 21
58.10781243296509
 31
0.0
 12
124.04674368597949
 22
60.60781243296509
 32
0.0
 13
124.04674368597949
 23
60.60781243296509
 33
0.0
  0
TEXT
  5
5B9
  8
2
 62
     0
 10
123.42174368597949
 20
49.982812432965112
 30
0.0
 40
2.5
  1
3.5
 50
90.0
  0
POINT
  5
5BA
  8
DEFPOINTS
 62
     0
 10
112.2435910885448
 20
64.10781243296509
 30
0.0
  0
POINT
  5
5BB
  8
DEFPOINTS
 62
     0
 10
112.2435910885448
 20
60.60781243296509
 30
0.0
  0
POINT
  5
5BC
  8
DEFPOINTS
 62
     0
 10
124.04674368597949
 20
60.60781243296509
 30
0.0
  0
ENDBLK
  5
5BE
  8
0
  0
BLOCK
  8
0
  2
*D5
 70
     1
 10
0.0
 20
0.0
 30
0.0
  3
*D5
  1

  0
LINE
  5
5C1
  8
2
 62
     0
 10
113.4935910885447
 20
64.10781243296509
 30
0.0
 11
130.52700565511921
 21
64.10781243296509
 31
0.0
  0
LINE
  5
5C2
  8
2
 62
     0
 10
111.8685910885447
 20
58.10781243296509
 30
0.0
 11
130.5270056551191
 21
58.107812432965083
 31
0.0
  0
LINE
  5
5C3
  8
2
 62
     0
 10
129.27700565511921
 20
66.60781243296509
 30
0.0
 11
129.27700565511921
 21
69.10781243296509
 31
0.0
  0
LINE
  5
5C4
  8
2
 62
     0
 10
129.2770056551191
 20
55.607812432965083
 30
0.0
 11
129.2770056551191
 21
53.107812432965083
 31
0.0
  0
LINE
  5
5C5
  8
2
 62
     0
 10
129.27700565511921
 20
64.10781243296509
 30
0.0
 11
129.2770056551191
 21
58.107812432965083
 31
0.0
  0
SOLID
  5
5C6
  8
2
 62
     0
 10
128.8603389884525
 20
66.60781243296509
 30
0.0
 11
129.69367232178581
 21
66.60781243296509
 31
0.0
 12
129.27700565511921
 22
64.10781243296509
 32
0.0
 13
129.27700565511921
 23
64.10781243296509
 33
0.0
  0
SOLID
  5
5C7
  8
2
 62
     0
 10
128.8603389884525
 20
55.607812432965083
 30
0.0
 11
129.69367232178581
 21
55.607812432965083
 31
0.0
 12
129.2770056551191
 22
58.107812432965083
 32
0.0
 13
129.2770056551191
 23
58.107812432965083
 33
0.0
  0
TEXT
  5
5C8
  8
2
 62
     0
 10
128.6520056551191
 20
60.274479099631783
 30
0.0
 40
2.5
  1
6
 50
90.0
  0
POINT
  5
5C9
  8
DEFPOINTS
 62
     0
 10
112.8685910885447
 20
64.10781243296509
 30
0.0
  0
POINT
  5
5CA
  8
DEFPOINTS
 62
     0
 10
111.2435910885448
 20
58.10781243296509
 30
0.0
  0
POINT
  5
5CB
  8
DEFPOINTS
 62
     0
 10
129.2770056551191
 20
58.107812432965083
 30
0.0
  0
ENDBLK
  5
5CD
  8
0
  0
BLOCK
  8
0
  2
*D6
 70
     1
 10
0.0
 20
0.0
 30
0.0
  3
*D6
  1

  0
LINE
  5
5E9
  8
2
 62
     0
 10
86.618591088544775
 20
58.10781243296509
 30
0.0
 11
78.222812924605535
 21
58.107812432965098
 31
0.0
  0
LINE
  5
5EA
  8
2
 62
     0
 10
87.768591088544795
 20
58.907812432965081
 30
0.0
 11
78.222812924605535
 21
58.907812432965088
 31
0.0
  0
LINE
  5
5EB
  8
2
 62
     0
 10
79.472812924605535
 20
55.607812432965098
 30
0.0
 11
79.472812924605535
 21
53.107812432965098
 31
0.0
  0
LINE
  5
5EC
  8
2
 62
     0
 10
79.472812924605535
 20
61.407812432965088
 30
0.0
 11
79.472812924605535
 21
69.74114576629843
 31
0.0
  0
LINE
  5
5ED
  8
2
 62
     0
 10
79.472812924605535
 20
58.107812432965098
 30
0.0
 11
79.472812924605535
 21
58.907812432965088
 31
0.0
  0
SOLID
  5
5EE
  8
2
 62
     0
 10
79.056146257938863
 20
55.607812432965098
 30
0.0
 11
79.889479591272206
 21
55.607812432965098
 31
0.0
 12
79.472812924605535
 22
58.107812432965098
 32
0.0
 13
79.472812924605535
 23
58.107812432965098
 33
0.0
  0
SOLID
  5
5EF
  8
2
 62
     0
 10
79.056146257938863
 20
61.407812432965088
 30
0.0
 11
79.889479591272206
 21
61.407812432965088
 31
0.0
 12
79.472812924605535
 22
58.907812432965088
 32
0.0
 13
79.472812924605535
 23
58.907812432965088
 33
0.0
  0
TEXT
  5
5F0
  8
2
 62
     0
 10
78.84781292460552
 20
64.532812432965102
 30
0.0
 40
2.5
  1
0.8
 50
90.0
  0
POINT
  5
5F1
  8
DEFPOINTS
 62
     0
 10
87.243591088544775
 20
58.10781243296509
 30
0.0
  0
POINT
  5
5F2
  8
DEFPOINTS
 62
     0
 10
88.393591088544795
 20
58.907812432965081
 30
0.0
  0
POINT
  5
5F3
  8
DEFPOINTS
 62
     0
 10
79.472812924605535
 20
58.907812432965088
 30
0.0
  0
ENDBLK
  5
5DC
  8
0
  0
BLOCK
  8
0
  2
*D7
 70
     1
 10
0.0
 20
0.0
 30
0.0
  3
*D7
  1

  0
LINE
  5
645
  8
2
 62
     0
 10
90.743591088544775
 20
57.48281243296509
 30
0.0
 11
90.743591088544775
 21
50.749595714384377
 31
0.0
  0
LINE
  5
646
  8
2
 62
     0
 10
107.7435910885447
 20
57.48281243296509
 30
0.0
 11
107.7435910885447
 21
50.749595714384377
 31
0.0
  0
LINE
  5
647
  8
2
 62
     0
 10
93.243591088544775
 20
51.999595714384377
 30
0.0
 11
105.2435910885447
 21
51.999595714384377
 31
0.0
  0
SOLID
  5
648
  8
2
 62
     0
 10
93.243591088544775
 20
52.416262381051048
 30
0.0
 11
93.243591088544775
 21
51.58292904771772
 31
0.0
 12
90.743591088544775
 22
51.999595714384377
 32
0.0
 13
90.743591088544775
 23
51.999595714384377
 33
0.0
  0
SOLID
  5
649
  8
2
 62
     0
 10
105.2435910885447
 20
52.416262381051048
 30
0.0
 11
105.2435910885447
 21
51.58292904771772
 31
0.0
 12
107.7435910885447
 22
51.999595714384377
 32
0.0
 13
107.7435910885447
 23
51.999595714384377
 33
0.0
  0
INSERT
  5
64A
  8
2
  2
*U13
 10
0.0
 20
0.0
 30
0.0
  0
POINT
  5
64B
  8
DEFPOINTS
 62
     0
 10
90.743591088544775
 20
58.10781243296509
 30
0.0
  0
POINT
  5
64C
  8
DEFPOINTS
 62
     0
 10
107.7435910885447
 20
58.10781243296509
 30
0.0
  0
POINT
  5
64D
  8
DEFPOINTS
 62
     0
 10
107.7435910885447
 20
51.999595714384377
 30
0.0
  0
ENDBLK
  5
603
  8
0
  0
BLOCK
  8
0
  2
*D8
 70
     1
 10
0.0
 20
0.0
 30
0.0
  3
*D8
  1

  0
LINE
  5
660
  8
2
 62
     0
 10
87.993591088544804
 20
58.282812432965081
 30
0.0
 11
87.993591088544804
 21
46.357932735243729
 31
0.0
  0
LINE
  5
661
  8
2
 62
     0
 10
110.4935910885447
 20
58.282812432965081
 30
0.0
 11
110.4935910885447
 21
46.357932735243729
 31
0.0
  0
LINE
  5
662
  8
2
 62
     0
 10
90.493591088544804
 20
47.607932735243729
 30
0.0
 11
107.9935910885447
 21
47.607932735243729
 31
0.0
  0
SOLID
  5
663
  8
2
 62
     0
 10
90.493591088544804
 20
48.0245994019104
 30
0.0
 11
90.493591088544804
 21
47.191266068577072
 31
0.0
 12
87.993591088544804
 22
47.607932735243729
 32
0.0
 13
87.993591088544804
 23
47.607932735243729
 33
0.0
  0
SOLID
  5
664
  8
2
 62
     0
 10
107.9935910885447
 20
48.0245994019104
 30
0.0
 11
107.9935910885447
 21
47.191266068577072
 31
0.0
 12
110.4935910885447
 22
47.607932735243729
 32
0.0
 13
110.4935910885447
 23
47.607932735243729
 33
0.0
  0
INSERT
  5
665
  8
2
  2
*U15
 10
0.0
 20
0.0
 30
0.0
  0
POINT
  5
666
  8
DEFPOINTS
 62
     0
 10
87.993591088544804
 20
58.907812432965081
 30
0.0
  0
POINT
  5
667
  8
DEFPOINTS
 62
     0
 10
110.4935910885447
 20
58.907812432965081
 30
0.0
  0
POINT
  5
668
  8
DEFPOINTS
 62
     0
 10
110.4935910885447
 20
47.607932735243729
 30
0.0
  0
ENDBLK
  5
610
  8
0
  0
BLOCK
  8
0
  2
*D9
 70
     1
 10
0.0
 20
0.0
 30
0.0
  3
*D9
  1

  0
LINE
  5
657
  8
2
 62
     0
 10
87.243591088544775
 20
57.48281243296509
 30
0.0
 11
87.243591088544775
 21
42.083203274986488
 31
0.0
  0
LINE
  5
658
  8
2
 62
     0
 10
111.2435910885448
 20
57.48281243296509
 30
0.0
 11
111.2435910885448
 21
42.083203274986488
 31
0.0
  0
LINE
  5
659
  8
2
 62
     0
 10
89.743591088544775
 20
43.333203274986488
 30
0.0
 11
108.7435910885447
 21
43.333203274986488
 31
0.0
  0
SOLID
  5
65A
  8
2
 62
     0
 10
89.743591088544775
 20
43.749869941653152
 30
0.0
 11
89.743591088544775
 21
42.916536608319817
 31
0.0
 12
87.243591088544775
 22
43.333203274986488
 32
0.0
 13
87.243591088544775
 23
43.333203274986488
 33
0.0
  0
SOLID
  5
65B
  8
2
 62
     0
 10
108.7435910885447
 20
43.749869941653152
 30
0.0
 11
108.7435910885447
 21
42.916536608319817
 31
0.0
 12
111.2435910885448
 22
43.333203274986488
 32
0.0
 13
111.2435910885448
 23
43.333203274986488
 33
0.0
  0
INSERT
  5
65C
  8
2
  2
*U14
 10
0.0
 20
0.0
 30
0.0
  0
POINT
  5
65D
  8
DEFPOINTS
 62
     0
 10
87.243591088544775
 20
58.10781243296509
 30
0.0
  0
POINT
  5
65E
  8
DEFPOINTS
 62
     0
 10
111.2435910885448
 20
58.10781243296509
 30
0.0
  0
POINT
  5
65F
  8
DEFPOINTS
 62
     0
 10
111.2435910885448
 20
43.333203274986488
 30
0.0
  0
ENDBLK
  5
61D
  8
0
  0
BLOCK
  8
0
  2
*U10
 70
     1
 10
0.0
 20
0.0
 30
0.0
  3
*U10
  1

  0
TEXT
  5
698
  8
2
 10
112.6934863573624
 20
38.240427758405488
 30
0.0
 40
2.5
  1
4-
  0
TEXT
  5
699
  8
2
 10
117.6934863573624
 20
38.240427758405488
 30
0.0
 40
2.5
  1
\U+2205
  0
TEXT
  5
69A
  8
2
 10
120.1934863573624
 20
38.240427758405488
 30
0.0
 40
2.5
  1
1.2
  0
ENDBLK
  5
69C
  8
0
  0
BLOCK
  8
0
  2
*U11
 70
     1
 10
0.0
 20
0.0
 30
0.0
  3
*U11
  1

  0
TEXT
  5
69E
  8
2
 62
     0
 10
94.462406306756137
 20
78.314039180561025
 30
0.0
 40
2.5
  1
\U+2205
  0
TEXT
  5
69F
  8
2
 62
     0
 10
96.962406306756137
 20
78.314039180561025
 30
0.0
 40
2.5
  1
20.5
  0
ENDBLK
  5
6A1
  8
0
  0
BLOCK
  8
0
  2
*U12
 70
     1
 10
0.0
 20
0.0
 30
0.0
  3
*U12
  1

  0
TEXT
  5
6A3
  8
2
 62
     0
 10
95.218591088544784
 20
69.638370054008163
 30
0.0
 40
2.5
  1
\U+2205
  0
TEXT
  5
6A4
  8
2
 62
     0
 10
97.718591088544784
 20
69.638370054008163
 30
0.0
 40
2.5
  1
1.2
  0
ENDBLK
  5
6A6
  8
0
  0
BLOCK
  8
0
  2
*U13
 70
     1
 10
0.0
 20
0.0
 30
0.0
  3
*U13
  1

  0
TEXT
  5
6A8
  8
2
 62
     0
 10
96.326924421878118
 20
52.624595714384377
 30
0.0
 40
2.5
  1
\U+2205
  0
TEXT
  5
6A9
  8
2
 62
     0
 10
98.826924421878118
 20
52.624595714384377
 30
0.0
 40
2.5
  1
17
  0
ENDBLK
  5
6AB
  8
0
  0
BLOCK
  8
0
  2
*U14
 70
     1
 10
0.0
 20
0.0
 30
0.0
  3
*U14
  1

  0
TEXT
  5
6AD
  8
2
 62
     0
 10
95.910257755211461
 20
43.958203274986488
 30
0.0
 40
2.5
  1
\U+2205
  0
TEXT
  5
6AE
  8
2
 62
     0
 10
98.410257755211461
 20
43.958203274986488
 30
0.0
 40
2.5
  1
24
  0
ENDBLK
  5
6B0
  8
0
  0
BLOCK
  8
0
  2
*U15
 70
     1
 10
0.0
 20
0.0
 30
0.0
  3
*U15
  1

  0
TEXT
  5
6B2
  8
2
 62
     0
 10
94.243591088544804
 20
48.232932735243743
 30
0.0
 40
2.5
  1
\U+2205
  0
TEXT
  5
6B3
  8
2
 62
     0
 10
96.743591088544804
 20
48.232932735243743
 30
0.0
 40
2.5
  1
22.5
  0
ENDBLK
  5
6B5
  8
0
  0
BLOCK
  8
0
  2
*U16
 70
     1
 10
0.0
 20
0.0
 30
0.0
  3
*U16
  1

  0
TEXT
  5
6B7
  8
2
 62
     0
 10
96.086806269890715
 20
74.059623748869825
 30
0.0
 40
2.5
  1
\U+2205
  0
TEXT
  5
6B8
  8
2
 62
     0
 10
98.586806269890715
 20
74.059623748869825
 30
0.0
 40
2.5
  1
16
  0
ENDBLK
  5
6BA
  8
0
  0
ENDSEC
  0
SECTION
  2
ENTITIES
  0
TEXT
  5
109
  8
2
 10
83.251527361818944
 20
5.3533139103460448
 30
0.0
 40
2.5399440000000002
  1
No. 107.024.061._
 51
-0.0000015352344868
  7
\U+00C9L\U+00C9R_\U+00C2S\U+00C2V\U+00C2B\U+00C2N
  0
LINE
  5
1E9
  8
0
 39
5.0
 10
88.393591088544795
 20
64.10781243296509
 30
0.0
 11
89.593591088544784
 21
64.10781243296509
 31
0.0
  0
LINE
  5
1EA
  8
0
 39
5.0
 10
89.593591088544784
 20
64.10781243296509
 30
0.0
 11
89.593591088544784
 21
58.907812432965081
 31
0.0
  0
LINE
  5
1EE
  8
0
 39
5.0
 10
88.393591088544795
 20
58.907812432965081
 30
0.0
 11
88.393591088544795
 21
64.10781243296509
 31
0.0
  0
LINE
  5
1EF
  8
0
 39
5.0
 10
91.24359108854479
 20
64.10781243296509
 30
0.0
 11
86.24359108854479
 21
64.10781243296509
 31
0.0
  0
LINE
  5
1F0
  8
0
 39
5.0
 10
86.24359108854479
 20
64.10781243296509
 30
0.0
 11
86.24359108854479
 21
60.60781243296509
 31
0.0
  0
LINE
  5
1F8
  8
0
 39
5.0
 10
91.24359108854479
 20
60.60781243296509
 30
0.0
 11
91.24359108854479
 21
64.10781243296509
 31
0.0
  0
LINE
  5
203
  8
1
 10
88.99359108854479
 20
64.60781243296509
 30
0.0
 11
88.99359108854479
 21
58.468212432965089
 31
0.0
  0
LINE
  5
294
  8
0
 10
89.593591088544784
 20
64.10781243296509
 30
0.0
 11
86.24359108854479
 21
64.10781243296509
 31
0.0
  0
LINE
  5
295
  8
0
 10
87.243591088544804
 20
58.107812432965098
 30
0.0
 11
99.243591088544804
 21
58.10781243296509
 31
0.0
  0
LINE
  5
296
  8
0
 10
91.24359108854479
 20
64.10781243296509
 30
0.0
 11
99.243591088544804
 21
64.10781243296509
 31
0.0
  0
LINE
  5
29B
  8
0
 10
91.24359108854479
 20
60.60781243296509
 30
0.0
 11
99.243591088544804
 21
60.60781243296509
 31
0.0
  0
LINE
  5
451
  8
1
 10
99.243591088544804
 20
38.386090743520739
 30
0.0
 11
99.243591088544804
 21
11.386090743520739
 31
0.0
  0
LINE
  5
454
  8
1
 10
85.743591088544775
 20
24.886090743520739
 30
0.0
 11
112.7435910885447
 21
24.886090743520739
 31
0.0
  0
CIRCLE
  5
458
  8
0
 10
99.243591088544804
 20
24.886090743520739
 30
0.0
 40
8.5
  0
CIRCLE
  5
459
  8
0
 10
99.243591088544804
 20
24.886090743520739
 30
0.0
 40
12.0
  0
CIRCLE
  5
45A
  8
1
 10
99.243591088544804
 20
24.886090743520739
 30
0.0
 40
10.25
  0
CIRCLE
  5
45C
  8
0
 10
99.243591088544804
 20
24.886090743520739
 30
0.0
 40
13.0
  0
CIRCLE
  5
464
  8
0
 10
109.4935910885447
 20
24.886090743520739
 30
0.0
 40
0.6
  0
CIRCLE
  5
465
  8
0
 10
99.243591088544804
 20
14.636090743520731
 30
0.0
 40
0.6
  0
CIRCLE
  5
466
  8
0
 10
99.243591088544804
 20
35.136090743520739
 30
0.0
 40
0.6
  0
CIRCLE
  5
467
  8
0
 10
88.99359108854479
 20
24.886090743520739
 30
0.0
 40
0.6
  0
INSERT
  5
46A
  8
2
  2
*U10
 10
0.0
 20
0.0
 30
0.0
  0
POLYLINE
  8
0
  5
6BB
  66
     1
 10
0.000000
 20
0.000000
 30
0.000000
  70
     8
  0
VERTEX
  8
0
  5
6BC
 10
109.494
 20
25.4861
 30
0.000000
  70
    32
  0
VERTEX
  8
0
  5
6BD
 10
112.503
 20
37.7290
 30
0.000000
  70
    32
  0
VERTEX
  8
0
  5
6BE
 10
124.691
 20
37.7290
 30
0.000000
  70
    32
  0
SEQEND
  8
0
  5
6BF
  0
LINE
  5
481
  8
1
 10
99.243591088544804
 20
64.60781243296509
 30
0.0
 11
99.243591088544804
 21
57.60781243296509
 31
0.0
  0
LINE
  5
4D3
  8
0
 10
99.243591088544804
 20
58.907812432965081
 30
0.0
 11
89.993591088544804
 21
58.907812432965081
 31
0.0
  0
LINE
  5
50C
  8
0
 10
88.393591088544795
 20
58.907812432965081
 30
0.0
 11
87.243591088544775
 21
58.10781243296509
 31
0.0
  0
LINE
  5
50D
  8
0
 10
89.593591088544784
 20
58.907812432965081
 30
0.0
 11
90.743591088544775
 21
58.10781243296509
 31
0.0
  0
LINE
  5
510
  8
0
 10
87.993591088544804
 20
59.607512432965081
 30
0.0
 11
87.993591088544804
 21
58.907812432965081
 31
0.0
  0
LINE
  5
511
  8
0
 10
89.99359108854479
 20
59.607512432965081
 30
0.0
 11
89.99359108854479
 21
58.907812432965081
 31
0.0
  0
LINE
  5
512
  8
0
 10
86.24359108854479
 20
60.60781243296509
 30
0.0
 11
87.993591088544804
 21
59.607512432965081
 31
0.0
  0
LINE
  5
514
  8
0
 10
91.24359108854479
 20
60.60781243296509
 30
0.0
 11
89.99359108854479
 21
59.607512432965081
 31
0.0
  0
LINE
  5
515
  8
0
 10
87.993591088544804
 20
58.907812432965081
 30
0.0
 11
87.243591088544775
 21
58.10781243296509
 31
0.0
  0
LINE
  5
516
  8
0
 10
89.99359108854479
 20
58.907812432965081
 30
0.0
 11
90.743591088544775
 21
58.10781243296509
 31
0.0
  0
LINE
  5
519
  8
0
 10
89.993591088544775
 20
59.607512432965081
 30
0.0
 11
99.243591088544804
 21
59.607512432965102
 31
0.0
  0
LINE
  5
51B
  8
0
 10
89.593591088544798
 20
58.907812432965081
 30
0.0
 11
88.393591088544767
 21
58.907812432965081
 31
0.0
  0
LINE
  5
53F
  8
0
 39
5.0
 10
107.2435910885447
 20
60.60781243296509
 30
0.0
 11
107.2435910885447
 21
64.10781243296509
 31
0.0
  0
LINE
  5
540
  8
0
 39
5.0
 10
112.2435910885448
 20
64.10781243296509
 30
0.0
 11
112.2435910885448
 21
60.60781243296509
 31
0.0
  0
LINE
  5
541
  8
0
 39
5.0
 10
107.2435910885447
 20
64.10781243296509
 30
0.0
 11
112.2435910885448
 21
64.10781243296509
 31
0.0
  0
LINE
  5
542
  8
0
 39
5.0
 10
110.0935910885447
 20
58.907812432965081
 30
0.0
 11
110.0935910885447
 21
64.10781243296509
 31
0.0
  0
LINE
  5
543
  8
0
 39
5.0
 10
108.8935910885447
 20
64.10781243296509
 30
0.0
 11
108.8935910885447
 21
58.907812432965081
 31
0.0
  0
LINE
  5
544
  8
0
 39
5.0
 10
110.0935910885447
 20
64.10781243296509
 30
0.0
 11
108.8935910885447
 21
64.10781243296509
 31
0.0
  0
LINE
  5
545
  8
0
 10
108.4935910885448
 20
59.607512432965081
 30
0.0
 11
99.243591088544804
 21
59.607512432965102
 31
0.0
  0
LINE
  5
546
  8
0
 10
99.243591088544804
 20
58.907812432965081
 30
0.0
 11
108.4935910885447
 21
58.907812432965081
 31
0.0
  0
LINE
  5
547
  8
0
 10
107.2435910885447
 20
60.60781243296509
 30
0.0
 11
99.243591088544804
 21
60.60781243296509
 31
0.0
  0
LINE
  5
548
  8
0
 10
107.2435910885447
 20
64.10781243296509
 30
0.0
 11
99.243591088544804
 21
64.10781243296509
 31
0.0
  0
LINE
  5
549
  8
0
 10
111.2435910885447
 20
58.107812432965098
 30
0.0
 11
99.243591088544804
 21
58.10781243296509
 31
0.0
  0
LINE
  5
54A
  8
0
 10
112.2435910885448
 20
60.60781243296509
 30
0.0
 11
110.4935910885447
 21
59.607512432965081
 31
0.0
  0
LINE
  5
54B
  8
0
 10
108.8935910885447
 20
64.10781243296509
 30
0.0
 11
112.2435910885448
 21
64.10781243296509
 31
0.0
  0
LINE
  5
54C
  8
1
 10
109.4935910885447
 20
64.60781243296509
 30
0.0
 11
109.4935910885447
 21
58.468212432965089
 31
0.0
  0
LINE
  5
54D
  8
0
 10
107.2435910885447
 20
60.60781243296509
 30
0.0
 11
108.4935910885447
 21
59.607512432965081
 31
0.0
  0
LINE
  5
54E
  8
0
 10
108.8935910885447
 20
58.907812432965081
 30
0.0
 11
110.0935910885448
 21
58.907812432965081
 31
0.0
  0
LINE
  5
54F
  8
0
 10
108.4935910885447
 20
58.907812432965081
 30
0.0
 11
107.7435910885447
 21
58.10781243296509
 31
0.0
  0
LINE
  5
550
  8
0
 10
110.4935910885447
 20
58.907812432965081
 30
0.0
 11
111.2435910885448
 21
58.10781243296509
 31
0.0
  0
LINE
  5
551
  8
0
 10
108.4935910885447
 20
59.607512432965081
 30
0.0
 11
108.4935910885447
 21
58.907812432965081
 31
0.0
  0
LINE
  5
552
  8
0
 10
110.4935910885447
 20
59.607512432965081
 30
0.0
 11
110.4935910885447
 21
58.907812432965081
 31
0.0
  0
LINE
  5
553
  8
0
 10
108.8935910885447
 20
58.907812432965081
 30
0.0
 11
107.7435910885447
 21
58.10781243296509
 31
0.0
  0
LINE
  5
554
  8
0
 10
110.0935910885447
 20
58.907812432965081
 30
0.0
 11
111.2435910885448
 21
58.10781243296509
 31
0.0
  0
DIMENSION
  5
55D
  8
2
  2
*D1
 10
107.2435910885447
 20
73.434623748869825
 30
0.0
 11
99.003472936557387
 21
73.434623748869825
 31
0.0
 70
   128
  1
%%c<>
 13
91.24359108854479
 23
64.10781243296509
 33
0.0
 14
107.2435910885447
 24
64.10781243296509
 34
0.0
1001
ACAD
1000
DSTYLE
1002
{
1070
   271
1070
     6
1002
}
  0
DIMENSION
  5
56A
  8
2
  2
*D2
 10
109.4935910885447
 20
77.689039180561025
 30
0.0
 11
99.254072973422822
 21
77.689039180561025
 31
0.0
 70
   128
  1
%%c<>
 13
88.99359108854479
 23
64.60781243296509
 33
0.0
 14
109.4935910885447
 24
64.60781243296509
 34
0.0
  0
DIMENSION
  5
577
  8
2
  2
*D3
 10
89.593591088544784
 20
69.013370054008163
 30
0.0
 11
98.551924421878127
 21
69.013370054008163
 31
0.0
 70
   128
  1
%%c<>
 13
88.393591088544795
 23
64.10781243296509
 33
0.0
 14
89.593591088544784
 24
64.10781243296509
 34
0.0
  0
DIMENSION
  5
5B0
  8
2
  2
*D4
 10
124.04674368597949
 20
60.60781243296509
 30
0.0
 11
122.17174368597949
 21
52.482812432965112
 31
0.0
 70
     0
 13
112.2435910885448
 23
64.10781243296509
 33
0.0
 14
112.2435910885448
 24
60.60781243296509
 34
0.0
 50
90.0
  0
DIMENSION
  5
5BF
  8
2
  2
*D5
 10
129.2770056551191
 20
58.107812432965083
 30
0.0
 11
127.4020056551191
 21
61.107812432965112
 31
0.0
 70
     0
 13
112.8685910885447
 23
64.10781243296509
 33
0.0
 14
111.2435910885448
 24
58.10781243296509
 34
0.0
 50
90.0
  0
DIMENSION
  5
5CE
  8
2
  2
*D6
 10
79.472812924605535
 20
58.907812432965088
 30
0.0
 11
77.59781292460552
 21
66.824479099631773
 31
0.0
 70
     0
 13
87.243591088544775
 23
58.10781243296509
 33
0.0
 14
88.393591088544795
 24
58.907812432965081
 34
0.0
 50
90.0
1001
ACAD
1000
DSTYLE
1002
{
1070
   271
1070
     6
1002
}
  0
DIMENSION
  5
5F7
  8
2
  2
*D7
 10
107.7435910885447
 20
51.999595714384377
 30
0.0
 11
99.243591088544804
 21
53.874595714384377
 31
0.0
 70
     0
  1
%%c<>
 13
90.743591088544775
 23
58.10781243296509
 33
0.0
 14
107.7435910885447
 24
58.10781243296509
 34
0.0
  0
DIMENSION
  5
604
  8
2
  2
*D8
 10
110.4935910885447
 20
47.607932735243729
 30
0.0
 11
99.243591088544804
 21
49.482932735243743
 31
0.0
 70
     0
  1
%%c<>
 13
87.993591088544804
 23
58.907812432965081
 33
0.0
 14
110.4935910885447
 24
58.907812432965081
 34
0.0
  0
DIMENSION
  5
611
  8
2
  2
*D9
 10
111.2435910885448
 20
43.333203274986488
 30
0.0
 11
99.243591088544804
 21
45.208203274986488
 31
0.0
 70
     0
  1
%%c<>
 13
87.243591088544775
 23
58.10781243296509
 33
0.0
 14
111.2435910885448
 24
58.10781243296509
 34
0.0
  0
CIRCLE
  5
66C
  8
0
 10
99.243591088544804
 20
24.886090743520739
 30
0.0
 40
8.0
  0
ENDSEC
  0
EOF
