  0
SECTION
  2
HEADER
  9
$ACADVER
  1
AC1009
  9
$INSBASE
 10
0.0
 20
0.0
 30
0.0
  9
$EXTMIN
 10
74.171189726800066
 20
7.6205324512038741
 30
0.0
  9
$EXTMAX
 10
132.36984280909269
 20
93.256719566417317
 30
4.9800796814999986
  9
$LIMMIN
 10
0.0
 20
0.0
  9
$LIMMAX
 10
420.0
 20
297.0
  9
$ORTHOMODE
 70
     0
  9
$REGENMODE
 70
     1
  9
$FILLMODE
 70
     1
  9
$QTEXTMODE
 70
     0
  9
$MIRRTEXT
 70
     1
  9
$DRAGMODE
 70
     2
  9
$LTSCALE
 40
0.3
  9
$OSMODE
 70
    37
  9
$ATTMODE
 70
     1
  9
$TEXTSIZE
 40
2.5
  9
$TRACEWID
 40
1.0
  9
$TEXTSTYLE
  7
STANDARD
  9
$CLAYER
  8
2
  9
$CELTYPE
  6
BYLAYER
  9
$CECOLOR
 62
   256
  9
$DIMSCALE
 40
1.0
  9
$DIMASZ
 40
2.5
  9
$DIMEXO
 40
0.625
  9
$DIMDLI
 40
3.75
  9
$DIMRND
 40
0.0
  9
$DIMDLE
 40
0.0
  9
$DIMEXE
 40
1.25
  9
$DIMTP
 40
0.0
  9
$DIMTM
 40
0.0
  9
$DIMTXT
 40
2.5
  9
$DIMCEN
 40
2.5
  9
$DIMTSZ
 40
0.0
  9
$DIMTOL
 70
     0
  9
$DIMLIM
 70
     0
  9
$DIMTIH
 70
     0
  9
$DIMTOH
 70
     0
  9
$DIMSE1
 70
     0
  9
$DIMSE2
 70
     0
  9
$DIMTAD
 70
     1
  9
$DIMZIN
 70
     8
  9
$DIMBLK
  1

  9
$DIMASO
 70
     1
  9
$DIMSHO
 70
     1
  9
$DIMPOST
  1

  9
$DIMAPOST
  1

  9
$DIMALT
 70
     0
  9
$DIMALTD
 70
     3
  9
$DIMALTF
 40
0.03937007874016
  9
$DIMLFAC
 40
1.0
  9
$DIMTOFL
 70
     1
  9
$DIMTVP
 40
0.0
  9
$DIMTIX
 70
     0
  9
$DIMSOXD
 70
     0
  9
$DIMSAH
 70
     0
  9
$DIMBLK1
  1

  9
$DIMBLK2
  1

  9
$DIMSTYLE
  2
ISO-25
  9
$DIMCLRD
 70
     0
  9
$DIMCLRE
 70
     0
  9
$DIMCLRT
 70
     0
  9
$DIMTFAC
 40
1.0
  9
$DIMGAP
 40
0.625
  9
$LUNITS
 70
     2
  9
$LUPREC
 70
     4
  9
$SKETCHINC
 40
1.0
  9
$FILLETRAD
 40
10.0
  9
$AUNITS
 70
     0
  9
$AUPREC
 70
     0
  9
$MENU
  1
.
  9
$ELEVATION
 40
0.0
  9
$PELEVATION
 40
0.0
  9
$THICKNESS
 40
0.0
  9
$LIMCHECK
 70
     0
  9
$BLIPMODE
 70
     0
  9
$CHAMFERA
 40
10.0
  9
$CHAMFERB
 40
10.0
  9
$SKPOLY
 70
     0
  9
$TDCREATE
 40
2453445.4321968281
  9
$TDUPDATE
 40
2453551.9151610532
  9
$TDINDWG
 40
0.0358413542
  9
$TDUSRTIMER
 40
0.0358412384
  9
$USRTIMER
 70
     1
  9
$ANGBASE
 50
0.0
  9
$ANGDIR
 70
     0
  9
$PDMODE
 70
     0
  9
$PDSIZE
 40
0.0
  9
$PLINEWID
 40
0.0
  9
$COORDS
 70
     1
  9
$SPLFRAME
 70
     0
  9
$SPLINETYPE
 70
     6
  9
$SPLINESEGS
 70
     8
  9
$ATTDIA
 70
     0
  9
$ATTREQ
 70
     1
  9
$HANDLING
 70
-16383
  9
$HANDSEED
  5
5E9
  9
$SURFTAB1
 70
     6
  9
$SURFTAB2
 70
     6
  9
$SURFTYPE
 70
     6
  9
$SURFU
 70
     6
  9
$SURFV
 70
     6
  9
$UCSNAME
  2

  9
$UCSORG
 10
0.0
 20
0.0
 30
0.0
  9
$UCSXDIR
 10
1.0
 20
0.0
 30
0.0
  9
$UCSYDIR
 10
0.0
 20
1.0
 30
0.0
  9
$PUCSNAME
  2

  9
$PUCSORG
 10
0.0
 20
0.0
 30
0.0
  9
$PUCSXDIR
 10
1.0
 20
0.0
 30
0.0
  9
$PUCSYDIR
 10
0.0
 20
1.0
 30
0.0
  9
$USERI1
 70
     0
  9
$USERI2
 70
     0
  9
$USERI3
 70
     0
  9
$USERI4
 70
     0
  9
$USERI5
 70
     0
  9
$USERR1
 40
0.0
  9
$USERR2
 40
0.0
  9
$USERR3
 40
0.0
  9
$USERR4
 40
0.0
  9
$USERR5
 40
0.0
  9
$WORLDVIEW
 70
     1
  9
$SHADEDGE
 70
     3
  9
$SHADEDIF
 70
    70
  9
$TILEMODE
 70
     1
  9
$MAXACTVP
 70
    64
  9
$PLIMCHECK
 70
     0
  9
$PEXTMIN
 10
1.0000000000000000E+020
 20
1.0000000000000000E+020
 30
1.0000000000000000E+020
  9
$PEXTMAX
 10
-1.0000000000000000E+020
 20
-1.0000000000000000E+020
 30
-1.0000000000000000E+020
  9
$PLIMMIN
 10
0.0
 20
0.0
  9
$PLIMMAX
 10
420.0
 20
297.0
  9
$UNITMODE
 70
     0
  9
$VISRETAIN
 70
     1
  9
$PLINEGEN
 70
     0
  9
$PSLTSCALE
 70
     1
  0
ENDSEC
  0
SECTION
  2
TABLES
  0
TABLE
  2
VPORT
 70
     2
  0
VPORT
  2
*ACTIVE
 70
     0
 10
0.0
 20
0.0
 11
1.0
 21
1.0
 12
94.470326855906606
 22
54.126894056600101
 13
0.0
 23
0.0
 14
10.0
 24
10.0
 15
10.0
 25
10.0
 16
0.0
 26
0.0
 36
1.0
 17
0.0
 27
0.0
 37
0.0
 40
99.087840769832752
 41
2.5392405063291141
 42
50.0
 43
0.0
 44
0.0
 50
0.0
 51
0.0
 71
     0
 72
   100
 73
     1
 74
     3
 75
     0
 76
     0
 77
     0
 78
     0
  0
ENDTAB
  0
TABLE
  2
LTYPE
 70
     2
  0
LTYPE
  2
CONTINUOUS
 70
     0
  3
Solid line
 72
    65
 73
     0
 40
0.0
  0
LTYPE
  2
CENTER
 70
     0
  3
Center ____ _ ____ _ ____ _ ____ _ ____ _ ____
 72
    65
 73
     4
 40
50.799999999999997
 49
31.75
 49
-6.3499999999999988
 49
6.3499999999999988
 49
-6.3499999999999988
  0
ENDTAB
  0
TABLE
  2
LAYER
 70
     4
  0
LAYER
  2
0
 70
     0
 62
     7
  6
CONTINUOUS
  0
LAYER
  2
1
 70
     0
 62
     7
  6
CENTER
  0
LAYER
  2
2
 70
     0
 62
     7
  6
CONTINUOUS
  0
LAYER
  2
DEFPOINTS
 70
     0
 62
     7
  6
CONTINUOUS
  0
ENDTAB
  0
TABLE
  2
STYLE
 70
     3
  0
STYLE
  2
STANDARD
 70
     0
 40
0.0
 41
1.0
 50
0.0
 71
     0
 42
2.5
  3
txt
  4

  0
STYLE
  2
\U+00C9L\U+00C9R_\U+00C2S\U+00C2V\U+00C2B\U+00C2N
 70
     0
 40
1.0
 41
1.0
 50
0.0
 71
     0
 42
1.0
  3
\U+00E9l\U+00E9r \U+00E2S\U+00E2V\U+00E2b\U+00E2N
  4

  0
STYLE
  2

 70
     1
 40
0.0
 41
1.0
 50
0.0
 71
     0
 42
2.5
  3
ltypeshp.shx
  4

  0
ENDTAB
  0
TABLE
  2
VIEW
 70
     0
  0
ENDTAB
  0
TABLE
  2
UCS
 70
     0
  0
ENDTAB
  0
TABLE
  2
APPID
 70
     1
  0
APPID
  2
ACAD
 70
     0
  0
ENDTAB
  0
TABLE
  2
DIMSTYLE
 70
     2
  0
DIMSTYLE
  2
ISO-25
 70
     0
  3

  4

  5

  6

  7

 40
1.0
 41
2.5
 42
0.625
 43
3.75
 44
1.25
 45
0.0
 46
0.0
 47
0.0
 48
0.0
140
2.5
141
2.5
142
0.0
143
0.03937007874016
144
1.0
145
0.0
146
1.0
147
0.625
 71
     0
 72
     0
 73
     0
 74
     0
 75
     0
 76
     0
 77
     1
 78
     8
170
     0
171
     3
172
     1
173
     0
174
     0
175
     0
176
     0
177
     0
178
     0
  0
DIMSTYLE
  2
STANDARD
 70
     0
  3

  4

  5

  6

  7

 40
1.0
 41
0.18
 42
0.0625
 43
0.38
 44
0.18
 45
0.0
 46
0.0
 47
0.0
 48
0.0
140
0.18
141
0.09
142
0.0
143
25.399999999999999
144
1.0
145
0.0
146
1.0
147
0.09
 71
     0
 72
     0
 73
     1
 74
     1
 75
     0
 76
     0
 77
     0
 78
     0
170
     0
171
     2
172
     0
173
     0
174
     0
175
     0
176
     0
177
     0
178
     0
  0
ENDTAB
  0
ENDSEC
  0
SECTION
  2
BLOCKS
  0
BLOCK
  8
0
  2
$MODEL_SPACE
 70
     0
 10
0.0
 20
0.0
 30
0.0
  3
$MODEL_SPACE
  1

  0
ENDBLK
  5
21
  8
0
  0
BLOCK
 67
     1
  8
0
  2
$PAPER_SPACE
 70
     0
 10
0.0
 20
0.0
 30
0.0
  3
$PAPER_SPACE
  1

  0
ENDBLK
  5
1D
 67
     1
  8
0
  0
BLOCK
  8
0
  2
*D1
 70
     1
 10
0.0
 20
0.0
 30
0.0
  3
*D1
  1

  0
LINE
  5
561
  8
2
 62
     0
 10
88.778727292486749
 20
67.742603368847995
 30
0.0
 11
88.778727292486749
 21
77.958946525360687
 31
0.0
  0
LINE
  5
562
  8
2
 62
     0
 10
104.27872729248671
 20
67.742603368847995
 30
0.0
 11
104.27872729248671
 21
77.958946525360687
 31
0.0
  0
LINE
  5
563
  8
2
 62
     0
 10
86.278727292486749
 20
76.708946525360687
 30
0.0
 11
83.778727292486749
 21
76.708946525360687
 31
0.0
  0
LINE
  5
564
  8
2
 62
     0
 10
106.77872729248671
 20
76.708946525360687
 30
0.0
 11
109.27872729248671
 21
76.708946525360687
 31
0.0
  0
LINE
  5
565
  8
2
 62
     0
 10
88.778727292486749
 20
76.708946525360687
 30
0.0
 11
104.27872729248671
 21
76.708946525360687
 31
0.0
  0
SOLID
  5
566
  8
2
 62
     0
 10
86.278727292486749
 20
77.125613192027359
 30
0.0
 11
86.278727292486749
 21
76.292279858694016
 31
0.0
 12
88.778727292486749
 22
76.708946525360687
 32
0.0
 13
88.778727292486749
 23
76.708946525360687
 33
0.0
  0
SOLID
  5
567
  8
2
 62
     0
 10
106.77872729248671
 20
77.125613192027359
 30
0.0
 11
106.77872729248671
 21
76.292279858694016
 31
0.0
 12
104.27872729248671
 22
76.708946525360687
 32
0.0
 13
104.27872729248671
 23
76.708946525360687
 33
0.0
  0
INSERT
  5
568
  8
2
  2
*U15
 10
0.0
 20
0.0
 30
0.0
  0
POINT
  5
569
  8
DEFPOINTS
 62
     0
 10
88.778727292486749
 20
67.117603368847995
 30
0.0
  0
POINT
  5
56A
  8
DEFPOINTS
 62
     0
 10
104.27872729248671
 20
67.117603368847995
 30
0.0
  0
POINT
  5
56B
  8
DEFPOINTS
 62
     0
 10
104.27872729248671
 20
76.708946525360687
 30
0.0
  0
ENDBLK
  5
4A9
  8
0
  0
BLOCK
  8
0
  2
*D2
 70
     1
 10
0.0
 20
0.0
 30
0.0
  3
*D2
  1

  0
LINE
  5
558
  8
2
 62
     0
 10
86.528727292486764
 20
68.042603368848006
 30
0.0
 11
86.528727292486764
 21
82.357167244217493
 31
0.0
  0
LINE
  5
559
  8
2
 62
     0
 10
106.52872729248671
 20
68.042603368848006
 30
0.0
 11
106.52872729248671
 21
82.357167244217493
 31
0.0
  0
LINE
  5
55A
  8
2
 62
     0
 10
89.028727292486764
 20
81.107167244217493
 30
0.0
 11
104.02872729248671
 21
81.107167244217493
 31
0.0
  0
SOLID
  5
55B
  8
2
 62
     0
 10
89.028727292486764
 20
81.523833910884164
 30
0.0
 11
89.028727292486764
 21
80.690500577550836
 31
0.0
 12
86.528727292486764
 22
81.107167244217493
 32
0.0
 13
86.528727292486764
 23
81.107167244217493
 33
0.0
  0
SOLID
  5
55C
  8
2
 62
     0
 10
104.02872729248671
 20
81.523833910884164
 30
0.0
 11
104.02872729248671
 21
80.690500577550836
 31
0.0
 12
106.52872729248671
 22
81.107167244217493
 32
0.0
 13
106.52872729248671
 23
81.107167244217493
 33
0.0
  0
INSERT
  5
55D
  8
2
  2
*U14
 10
0.0
 20
0.0
 30
0.0
  0
POINT
  5
55E
  8
DEFPOINTS
 62
     0
 10
86.528727292486764
 20
67.417603368848006
 30
0.0
  0
POINT
  5
55F
  8
DEFPOINTS
 62
     0
 10
106.52872729248671
 20
67.417603368848006
 30
0.0
  0
POINT
  5
560
  8
DEFPOINTS
 62
     0
 10
106.52872729248671
 20
81.107167244217493
 30
0.0
  0
ENDBLK
  5
4B6
  8
0
  0
BLOCK
  8
0
  2
*D3
 70
     1
 10
0.0
 20
0.0
 30
0.0
  3
*D3
  1

  0
LINE
  5
57E
  8
2
 62
     0
 10
86.028727292486749
 20
67.742603368847995
 30
0.0
 11
86.028727292486749
 21
72.806879015676742
 31
0.0
  0
LINE
  5
57F
  8
2
 62
     0
 10
87.028727292486735
 20
67.742603368847995
 30
0.0
 11
87.028727292486735
 21
72.806879015676742
 31
0.0
  0
LINE
  5
580
  8
2
 62
     0
 10
89.528727292486735
 20
71.556879015676742
 30
0.0
 11
92.028727292486735
 21
71.556879015676742
 31
0.0
  0
LINE
  5
581
  8
2
 62
     0
 10
83.528727292486749
 20
71.556879015676742
 30
0.0
 11
74.76503019634012
 21
71.556879015676742
 31
0.0
  0
LINE
  5
582
  8
2
 62
     0
 10
87.028727292486735
 20
71.556879015676742
 30
0.0
 11
86.028727292486749
 21
71.556879015676742
 31
0.0
  0
SOLID
  5
583
  8
2
 62
     0
 10
89.528727292486735
 20
71.973545682343413
 30
0.0
 11
89.528727292486735
 21
71.140212349010071
 31
0.0
 12
87.028727292486735
 22
71.556879015676742
 32
0.0
 13
87.028727292486735
 23
71.556879015676742
 33
0.0
  0
SOLID
  5
584
  8
2
 62
     0
 10
83.528727292486749
 20
71.973545682343413
 30
0.0
 11
83.528727292486749
 21
71.140212349010071
 31
0.0
 12
86.028727292486749
 22
71.556879015676742
 32
0.0
 13
86.028727292486749
 23
71.556879015676742
 33
0.0
  0
INSERT
  5
585
  8
2
  2
*U18
 10
0.0
 20
0.0
 30
0.0
  0
POINT
  5
586
  8
DEFPOINTS
 62
     0
 10
86.028727292486749
 20
67.117603368847995
 30
0.0
  0
POINT
  5
587
  8
DEFPOINTS
 62
     0
 10
87.028727292486735
 20
67.117603368847995
 30
0.0
  0
POINT
  5
588
  8
DEFPOINTS
 62
     0
 10
87.028727292486735
 20
71.556879015676742
 30
0.0
  0
ENDBLK
  5
4C5
  8
0
  0
BLOCK
  8
0
  2
*D4
 70
     1
 10
0.0
 20
0.0
 30
0.0
  3
*D4
  1

  0
LINE
  5
54F
  8
2
 62
     0
 10
84.028866734524115
 20
67.742603368847995
 30
0.0
 11
84.028866734524115
 21
86.643740552013384
 31
0.0
  0
LINE
  5
550
  8
2
 62
     0
 10
109.0285878504493
 20
67.742603368847995
 30
0.0
 11
109.0285878504493
 21
86.643740552013384
 31
0.0
  0
LINE
  5
551
  8
2
 62
     0
 10
86.528866734524115
 20
85.393740552013384
 30
0.0
 11
106.5285878504493
 21
85.393740552013384
 31
0.0
  0
SOLID
  5
552
  8
2
 62
     0
 10
86.528866734524115
 20
85.810407218680055
 30
0.0
 11
86.528866734524115
 21
84.977073885346712
 31
0.0
 12
84.028866734524115
 22
85.393740552013384
 32
0.0
 13
84.028866734524115
 23
85.393740552013384
 33
0.0
  0
SOLID
  5
553
  8
2
 62
     0
 10
106.5285878504493
 20
85.810407218680055
 30
0.0
 11
106.5285878504493
 21
84.977073885346712
 31
0.0
 12
109.0285878504493
 22
85.393740552013384
 32
0.0
 13
109.0285878504493
 23
85.393740552013384
 33
0.0
  0
INSERT
  5
554
  8
2
  2
*U13
 10
0.0
 20
0.0
 30
0.0
  0
POINT
  5
555
  8
DEFPOINTS
 62
     0
 10
84.028866734524115
 20
67.117603368847995
 30
0.0
  0
POINT
  5
556
  8
DEFPOINTS
 62
     0
 10
109.0285878504493
 20
67.117603368847995
 30
0.0
  0
POINT
  5
557
  8
DEFPOINTS
 62
     0
 10
109.0285878504493
 20
85.393740552013384
 30
0.0
  0
ENDBLK
  5
4EF
  8
0
  0
BLOCK
  8
0
  2
*D5
 70
     1
 10
0.0
 20
0.0
 30
0.0
  3
*D5
  1

  0
LINE
  5
546
  8
2
 62
     0
 10
83.778727292486749
 20
66.242603368848009
 30
0.0
 11
83.778727292486749
 21
91.381719566417317
 31
0.0
  0
LINE
  5
547
  8
2
 62
     0
 10
109.27872729248671
 20
66.092702970367071
 30
0.0
 11
109.27872729248671
 21
91.381719566417317
 31
0.0
  0
LINE
  5
548
  8
2
 62
     0
 10
86.278727292486749
 20
90.131719566417317
 30
0.0
 11
106.77872729248671
 21
90.131719566417317
 31
0.0
  0
SOLID
  5
549
  8
2
 62
     0
 10
86.278727292486749
 20
90.548386233084003
 30
0.0
 11
86.278727292486749
 21
89.71505289975066
 31
0.0
 12
83.778727292486749
 22
90.131719566417317
 32
0.0
 13
83.778727292486749
 23
90.131719566417317
 33
0.0
  0
SOLID
  5
54A
  8
2
 62
     0
 10
106.77872729248671
 20
90.548386233084003
 30
0.0
 11
106.77872729248671
 21
89.71505289975066
 31
0.0
 12
109.27872729248671
 22
90.131719566417317
 32
0.0
 13
109.27872729248671
 23
90.131719566417317
 33
0.0
  0
INSERT
  5
54B
  8
2
  2
*U12
 10
0.0
 20
0.0
 30
0.0
  0
POINT
  5
54C
  8
DEFPOINTS
 62
     0
 10
83.778727292486749
 20
65.617603368848009
 30
0.0
  0
POINT
  5
54D
  8
DEFPOINTS
 62
     0
 10
109.27872729248671
 20
65.467702970367071
 30
0.0
  0
POINT
  5
54E
  8
DEFPOINTS
 62
     0
 10
109.27872729248671
 20
90.131719566417317
 30
0.0
  0
ENDBLK
  5
4FC
  8
0
  0
BLOCK
  8
0
  2
*D6
 70
     1
 10
0.0
 20
0.0
 30
0.0
  3
*D6
  1

  0
LINE
  5
500
  8
2
 62
     0
 10
109.6535878504493
 20
67.117603368847995
 30
0.0
 11
122.4205463455874
 21
67.117603368847995
 31
0.0
  0
LINE
  5
501
  8
2
 62
     0
 10
109.90372729248671
 20
65.617603368848009
 30
0.0
 11
122.4205463455874
 21
65.617603368848009
 31
0.0
  0
LINE
  5
502
  8
2
 62
     0
 10
121.1705463455874
 20
69.617603368847995
 30
0.0
 11
121.1705463455874
 21
72.117603368847995
 31
0.0
  0
LINE
  5
503
  8
2
 62
     0
 10
121.1705463455874
 20
63.117603368848009
 30
0.0
 11
121.1705463455874
 21
55.200936702181338
 31
0.0
  0
LINE
  5
504
  8
2
 62
     0
 10
121.1705463455874
 20
67.117603368847995
 30
0.0
 11
121.1705463455874
 21
65.617603368848009
 31
0.0
  0
SOLID
  5
505
  8
2
 62
     0
 10
120.7538796789207
 20
69.617603368847995
 30
0.0
 11
121.5872130122541
 21
69.617603368847995
 31
0.0
 12
121.1705463455874
 22
67.117603368847995
 32
0.0
 13
121.1705463455874
 23
67.117603368847995
 33
0.0
  0
SOLID
  5
506
  8
2
 62
     0
 10
120.7538796789207
 20
63.117603368848009
 30
0.0
 11
121.5872130122541
 21
63.117603368848009
 31
0.0
 12
121.1705463455874
 22
65.617603368848009
 32
0.0
 13
121.1705463455874
 23
65.617603368848009
 33
0.0
  0
TEXT
  5
507
  8
2
 62
     0
 10
120.5455463455874
 20
55.825936702181359
 30
0.0
 40
2.5
  1
1.5
 50
90.0
  0
POINT
  5
508
  8
DEFPOINTS
 62
     0
 10
109.0285878504493
 20
67.117603368847995
 30
0.0
  0
POINT
  5
509
  8
DEFPOINTS
 62
     0
 10
109.27872729248671
 20
65.617603368848009
 30
0.0
  0
POINT
  5
50A
  8
DEFPOINTS
 62
     0
 10
121.1705463455874
 20
65.617603368848009
 30
0.0
  0
ENDBLK
  5
50C
  8
0
  0
BLOCK
  8
0
  2
*D7
 70
     1
 10
0.0
 20
0.0
 30
0.0
  3
*D7
  1

  0
LINE
  5
50F
  8
2
 62
     0
 10
109.6535878504493
 20
67.117603368847995
 30
0.0
 11
127.76589240460009
 21
67.117603368847995
 31
0.0
  0
LINE
  5
510
  8
2
 62
     0
 10
109.90372729248671
 20
64.117603368848009
 30
0.0
 11
127.76589240460009
 21
64.117603368848009
 31
0.0
  0
LINE
  5
511
  8
2
 62
     0
 10
126.51589240460009
 20
69.617603368847995
 30
0.0
 11
126.51589240460009
 21
72.117603368847995
 31
0.0
  0
LINE
  5
512
  8
2
 62
     0
 10
126.51589240460009
 20
61.617603368848009
 30
0.0
 11
126.51589240460009
 21
59.117603368848009
 31
0.0
  0
LINE
  5
513
  8
2
 62
     0
 10
126.51589240460009
 20
67.117603368847995
 30
0.0
 11
126.51589240460009
 21
64.117603368848009
 31
0.0
  0
SOLID
  5
514
  8
2
 62
     0
 10
126.09922573793339
 20
69.617603368847995
 30
0.0
 11
126.9325590712667
 21
69.617603368847995
 31
0.0
 12
126.51589240460009
 22
67.117603368847995
 32
0.0
 13
126.51589240460009
 23
67.117603368847995
 33
0.0
  0
SOLID
  5
515
  8
2
 62
     0
 10
126.09922573793339
 20
61.617603368848009
 30
0.0
 11
126.9325590712667
 21
61.617603368848009
 31
0.0
 12
126.51589240460009
 22
64.117603368848009
 32
0.0
 13
126.51589240460009
 23
64.117603368848009
 33
0.0
  0
TEXT
  5
516
  8
2
 62
     0
 10
125.8908924046
 20
64.784270035514695
 30
0.0
 40
2.5
  1
3
 50
90.0
  0
POINT
  5
517
  8
DEFPOINTS
 62
     0
 10
109.0285878504493
 20
67.117603368847995
 30
0.0
  0
POINT
  5
518
  8
DEFPOINTS
 62
     0
 10
109.27872729248671
 20
64.117603368848009
 30
0.0
  0
POINT
  5
519
  8
DEFPOINTS
 62
     0
 10
126.51589240460009
 20
64.117603368848009
 30
0.0
  0
ENDBLK
  5
51B
  8
0
  0
BLOCK
  8
0
  2
*D8
 70
     1
 10
0.0
 20
0.0
 30
0.0
  3
*D8
  1

  0
LINE
  5
51E
  8
2
 62
     0
 10
109.6535878504493
 20
67.117603368847995
 30
0.0
 11
132.36984280909269
 21
67.117603368847995
 31
0.0
  0
LINE
  5
51F
  8
2
 62
     0
 10
109.15372729248671
 20
61.117603368848009
 30
0.0
 11
132.3698428090926
 21
61.117603368848002
 31
0.0
  0
LINE
  5
520
  8
2
 62
     0
 10
131.11984280909269
 20
69.617603368847995
 30
0.0
 11
131.11984280909269
 21
72.117603368847995
 31
0.0
  0
LINE
  5
521
  8
2
 62
     0
 10
131.11984280909269
 20
58.617603368848002
 30
0.0
 11
131.11984280909269
 21
56.117603368848002
 31
0.0
  0
LINE
  5
522
  8
2
 62
     0
 10
131.11984280909269
 20
67.117603368847995
 30
0.0
 11
131.11984280909269
 21
61.117603368848002
 31
0.0
  0
SOLID
  5
523
  8
2
 62
     0
 10
130.703176142426
 20
69.617603368847995
 30
0.0
 11
131.53650947575929
 21
69.617603368847995
 31
0.0
 12
131.11984280909269
 22
67.117603368847995
 32
0.0
 13
131.11984280909269
 23
67.117603368847995
 33
0.0
  0
SOLID
  5
524
  8
2
 62
     0
 10
130.703176142426
 20
58.617603368848002
 30
0.0
 11
131.53650947575929
 21
58.617603368848002
 31
0.0
 12
131.11984280909269
 22
61.117603368848002
 32
0.0
 13
131.11984280909269
 23
61.117603368848002
 33
0.0
  0
TEXT
  5
525
  8
2
 62
     0
 10
130.4948428090926
 20
63.28427003551468
 30
0.0
 40
2.5
  1
6
 50
90.0
  0
POINT
  5
526
  8
DEFPOINTS
 62
     0
 10
109.0285878504493
 20
67.117603368847995
 30
0.0
  0
POINT
  5
527
  8
DEFPOINTS
 62
     0
 10
108.52872729248671
 20
61.117603368848009
 30
0.0
  0
POINT
  5
528
  8
DEFPOINTS
 62
     0
 10
131.11984280909269
 20
61.117603368848002
 30
0.0
  0
ENDBLK
  5
52A
  8
0
  0
BLOCK
  8
0
  2
*D9
 70
     1
 10
0.0
 20
0.0
 30
0.0
  3
*D9
  1

  0
LINE
  5
56C
  8
2
 62
     0
 10
88.278727292486735
 20
60.492603368848009
 30
0.0
 11
88.278727292486735
 21
54.114024428790373
 31
0.0
  0
LINE
  5
56D
  8
2
 62
     0
 10
104.77872729248671
 20
60.492603368848009
 30
0.0
 11
104.77872729248671
 21
54.114024428790373
 31
0.0
  0
LINE
  5
56E
  8
2
 62
     0
 10
90.778727292486735
 20
55.364024428790373
 30
0.0
 11
102.27872729248671
 21
55.364024428790373
 31
0.0
  0
SOLID
  5
56F
  8
2
 62
     0
 10
90.778727292486735
 20
55.780691095457037
 30
0.0
 11
90.778727292486735
 21
54.947357762123708
 31
0.0
 12
88.278727292486735
 22
55.364024428790373
 32
0.0
 13
88.278727292486735
 23
55.364024428790373
 33
0.0
  0
SOLID
  5
570
  8
2
 62
     0
 10
102.27872729248671
 20
55.780691095457037
 30
0.0
 11
102.27872729248671
 21
54.947357762123708
 31
0.0
 12
104.77872729248671
 22
55.364024428790373
 32
0.0
 13
104.77872729248671
 23
55.364024428790373
 33
0.0
  0
INSERT
  5
571
  8
2
  2
*U16
 10
0.0
 20
0.0
 30
0.0
  0
POINT
  5
572
  8
DEFPOINTS
 62
     0
 10
88.278727292486735
 20
61.117603368848009
 30
0.0
  0
POINT
  5
573
  8
DEFPOINTS
 62
     0
 10
104.77872729248671
 20
61.117603368848009
 30
0.0
  0
POINT
  5
574
  8
DEFPOINTS
 62
     0
 10
104.77872729248671
 20
55.364024428790373
 30
0.0
  0
ENDBLK
  5
537
  8
0
  0
BLOCK
  8
0
  2
*D10
 70
     1
 10
0.0
 20
0.0
 30
0.0
  3
*D10
  1

  0
LINE
  5
575
  8
2
 62
     0
 10
84.528727292486735
 20
60.492603368848009
 30
0.0
 11
84.528727292486735
 21
49.93811194245265
 31
0.0
  0
LINE
  5
576
  8
2
 62
     0
 10
108.52872729248671
 20
60.492603368848009
 30
0.0
 11
108.52872729248671
 21
49.93811194245265
 31
0.0
  0
LINE
  5
577
  8
2
 62
     0
 10
87.028727292486735
 20
51.18811194245265
 30
0.0
 11
106.02872729248671
 21
51.18811194245265
 31
0.0
  0
SOLID
  5
578
  8
2
 62
     0
 10
87.028727292486735
 20
51.604778609119322
 30
0.0
 11
87.028727292486735
 21
50.771445275785993
 31
0.0
 12
84.528727292486735
 22
51.18811194245265
 32
0.0
 13
84.528727292486735
 23
51.18811194245265
 33
0.0
  0
SOLID
  5
579
  8
2
 62
     0
 10
106.02872729248671
 20
51.604778609119322
 30
0.0
 11
106.02872729248671
 21
50.771445275785993
 31
0.0
 12
108.52872729248671
 22
51.18811194245265
 32
0.0
 13
108.52872729248671
 23
51.18811194245265
 33
0.0
  0
INSERT
  5
57A
  8
2
  2
*U17
 10
0.0
 20
0.0
 30
0.0
  0
POINT
  5
57B
  8
DEFPOINTS
 62
     0
 10
84.528727292486735
 20
61.117603368848009
 30
0.0
  0
POINT
  5
57C
  8
DEFPOINTS
 62
     0
 10
108.52872729248671
 20
61.117603368848009
 30
0.0
  0
POINT
  5
57D
  8
DEFPOINTS
 62
     0
 10
108.52872729248671
 20
51.18811194245265
 30
0.0
  0
ENDBLK
  5
544
  8
0
  0
BLOCK
  8
0
  2
*U11
 70
     1
 10
0.0
 20
0.0
 30
0.0
  3
*U11
  1

  0
TEXT
  5
5BC
  8
2
 10
100.66899383746281
 20
44.338663286858058
 30
0.0
 40
2.5
  1
4-
  0
TEXT
  5
5BD
  8
2
 10
105.66899383746269
 20
44.338663286858058
 30
0.0
 40
2.5
  1
\U+2205
  0
TEXT
  5
5BE
  8
2
 10
108.16899383746281
 20
44.338663286858058
 30
0.0
 40
2.5
  1
1
  0
ENDBLK
  5
5C0
  8
0
  0
BLOCK
  8
0
  2
*U12
 70
     1
 10
0.0
 20
0.0
 30
0.0
  3
*U12
  1

  0
TEXT
  5
5C2
  8
2
 62
     0
 10
91.528727292486764
 20
90.756719566417317
 30
0.0
 40
2.5
  1
\U+2205
  0
TEXT
  5
5C3
  8
2
 62
     0
 10
94.028727292486764
 20
90.756719566417317
 30
0.0
 40
2.5
  1
25.5
  0
ENDBLK
  5
5C5
  8
0
  0
BLOCK
  8
0
  2
*U13
 70
     1
 10
0.0
 20
0.0
 30
0.0
  3
*U13
  1

  0
TEXT
  5
5C7
  8
2
 62
     0
 10
93.195393959153421
 20
86.018740552013384
 30
0.0
 40
2.5
  1
\U+2205
  0
TEXT
  5
5C8
  8
2
 62
     0
 10
95.695393959153421
 20
86.018740552013384
 30
0.0
 40
2.5
  1
25
  0
ENDBLK
  5
5CA
  8
0
  0
BLOCK
  8
0
  2
*U14
 70
     1
 10
0.0
 20
0.0
 30
0.0
  3
*U14
  1

  0
TEXT
  5
5CC
  8
2
 62
     0
 10
93.110694765532344
 20
81.732167244217493
 30
0.0
 40
2.5
  1
\U+2205
  0
TEXT
  5
5CD
  8
2
 62
     0
 10
95.610694765532344
 20
81.732167244217493
 30
0.0
 40
2.5
  1
20
  0
ENDBLK
  5
5CF
  8
0
  0
BLOCK
  8
0
  2
*U15
 70
     1
 10
0.0
 20
0.0
 30
0.0
  3
*U15
  1

  0
TEXT
  5
5D1
  8
2
 62
     0
 10
91.570801925665634
 20
77.333946525360687
 30
0.0
 40
2.5
  1
\U+2205
  0
TEXT
  5
5D2
  8
2
 62
     0
 10
94.070801925665634
 20
77.333946525360687
 30
0.0
 40
2.5
  1
15.5
  0
ENDBLK
  5
5D4
  8
0
  0
BLOCK
  8
0
  2
*U16
 70
     1
 10
0.0
 20
0.0
 30
0.0
  3
*U16
  1

  0
TEXT
  5
5D6
  8
2
 62
     0
 10
91.945393959153421
 20
55.989024428790373
 30
0.0
 40
2.5
  1
\U+2205
  0
TEXT
  5
5D7
  8
2
 62
     0
 10
94.445393959153421
 20
55.989024428790373
 30
0.0
 40
2.5
  1
16.5
  0
ENDBLK
  5
5D9
  8
0
  0
BLOCK
  8
0
  2
*U17
 70
     1
 10
0.0
 20
0.0
 30
0.0
  3
*U17
  1

  0
TEXT
  5
5DB
  8
2
 62
     0
 10
93.195393959153421
 20
51.81311194245265
 30
0.0
 40
2.5
  1
\U+2205
  0
TEXT
  5
5DC
  8
2
 62
     0
 10
95.695393959153421
 20
51.81311194245265
 30
0.0
 40
2.5
  1
24
  0
ENDBLK
  5
5DE
  8
0
  0
BLOCK
  8
0
  2
*U18
 70
     1
 10
0.0
 20
0.0
 30
0.0
  3
*U18
  1

  0
TEXT
  5
5E0
  8
2
 62
     0
 10
75.390030196340106
 20
72.181879015676742
 30
0.0
 40
2.5
  1
\U+2205
  0
TEXT
  5
5E1
  8
2
 62
     0
 10
77.890030196340106
 20
72.181879015676742
 30
0.0
 40
2.5
  1
1
  0
ENDBLK
  5
5E3
  8
0
  0
ENDSEC
  0
SECTION
  2
ENTITIES
  0
TEXT
  5
1DA
  8
2
 10
74.171189794857597
 20
7.8624318797752997
 30
0.0
 40
2.5399440000000002
  1
No. 107.024.078._
 51
-0.0000015352344868
  7
\U+00C9L\U+00C9R_\U+00C2S\U+00C2V\U+00C2B\U+00C2N
  0
LINE
  5
1E5
  8
0
 39
4.9800796814999986
 10
87.021555977666281
 20
62.03503364750275
 30
0.0
 11
87.021555977666281
 21
62.03503364750275
 31
0.0
  0
LINE
  5
1E6
  8
0
 39
4.9800796814999986
 10
87.021555977666281
 20
62.03503364750275
 30
0.0
 11
87.114484264523071
 21
61.986029663436788
 31
0.0
  0
LINE
  5
1E7
  8
0
 39
4.9800796814999986
 10
87.114484264523071
 20
61.986029663436788
 30
0.0
 11
87.200141635044872
 21
61.93533245227912
 31
0.0
  0
LINE
  5
1E8
  8
0
 39
4.9800796814999986
 10
87.200141635044872
 20
61.93533245227912
 30
0.0
 11
87.278826894012582
 21
61.882742810842473
 31
0.0
  0
LINE
  5
1E9
  8
0
 39
4.9800796814999986
 10
87.278826894012582
 20
61.882742810842473
 30
0.0
 11
87.351038049394319
 21
61.828758747095023
 31
0.0
  0
LINE
  5
1EA
  8
0
 39
4.9800796814999986
 10
87.351038049394319
 20
61.828758747095023
 30
0.0
 11
87.416874702783758
 21
61.773081456255838
 31
0.0
  0
LINE
  5
1EB
  8
0
 39
4.9800796814999986
 10
87.416874702783758
 20
61.773081456255838
 30
0.0
 11
87.477133666929888
 21
61.71600974310585
 31
0.0
  0
LINE
  5
1EC
  8
0
 39
4.9800796814999986
 10
87.477133666929888
 20
61.71600974310585
 30
0.0
 11
87.532014145020028
 21
61.657543607645053
 31
0.0
  0
LINE
  5
1ED
  8
0
 39
4.9800796814999986
 10
87.532014145020028
 20
61.657543607645053
 30
0.0
 11
87.58221334820955
 21
61.598081456247932
 31
0.0
  0
LINE
  5
1EE
  8
0
 39
4.9800796814999986
 10
87.58221334820955
 20
61.598081456247932
 30
0.0
 11
87.627631674904833
 21
61.537224882540002
 31
0.0
  0
LINE
  5
1EF
  8
0
 39
4.9800796814999986
 10
87.627631674904833
 20
61.537224882540002
 30
0.0
 11
87.669165539448542
 21
61.475471894489402
 31
0.0
  0
LINE
  5
1F0
  8
0
 39
4.9800796814999986
 10
87.669165539448542
 20
61.475471894489402
 30
0.0
 11
87.707014145027927
 21
61.412722890502501
 31
0.0
  0
LINE
  5
1F1
  8
0
 39
4.9800796814999986
 10
87.707014145027927
 20
61.412722890502501
 30
0.0
 11
87.741775101204794
 21
61.349376276953819
 31
0.0
  0
LINE
  5
1F2
  8
0
 39
4.9800796814999986
 10
87.741775101204794
 20
61.349376276953819
 30
0.0
 11
87.773548009572778
 21
61.285133249062483
 31
0.0
  0
LINE
  5
1F3
  8
0
 39
4.9800796814999986
 10
87.773548009572778
 20
61.285133249062483
 30
0.0
 11
87.803129682880893
 21
61.22039221320297
 31
0.0
  0
LINE
  5
1F4
  8
0
 39
4.9800796814999986
 10
87.803129682880893
 20
61.22039221320297
 30
0.0
 11
87.830719324316391
 21
61.155153169375318
 31
0.0
  0
LINE
  5
1F5
  8
0
 39
4.9800796814999986
 10
87.830719324316391
 20
61.155153169375318
 30
0.0
 11
87.845670764647934
 21
61.117603368848009
 31
0.0
  0
LINE
  5
1F8
  8
0
 39
4.9800796814999986
 10
84.873512913134377
 20
61.117603368848009
 30
0.0
 11
84.910599802272046
 21
61.158738826746003
 31
0.0
  0
LINE
  5
1F9
  8
0
 39
4.9800796814999986
 10
84.910599802272046
 20
61.158738826746003
 30
0.0
 11
84.984703387932782
 21
61.238619304837272
 31
0.0
  0
LINE
  5
1FA
  8
0
 39
4.9800796814999986
 10
84.984703387932782
 20
61.238619304837272
 30
0.0
 11
85.058806973593505
 21
61.316009743087783
 31
0.0
  0
LINE
  5
1FB
  8
0
 39
4.9800796814999986
 10
85.058806973593505
 20
61.316009743087783
 30
0.0
 11
85.132910559254213
 21
61.391109344684793
 31
0.0
  0
LINE
  5
1FC
  8
0
 39
4.9800796814999986
 10
85.132910559254213
 20
61.391109344684793
 30
0.0
 11
85.207014144914936
 21
61.463320500066551
 31
0.0
  0
LINE
  5
1FD
  8
0
 39
4.9800796814999986
 10
85.207014144914936
 20
61.463320500066551
 30
0.0
 11
85.281117730575644
 21
61.532742810826662
 31
0.0
  0
LINE
  5
1FE
  8
0
 39
4.9800796814999986
 10
85.281117730575644
 20
61.532742810826662
 30
0.0
 11
85.355221316236381
 21
61.599077472184227
 31
0.0
  0
LINE
  5
1FF
  8
0
 39
4.9800796814999986
 10
85.355221316236381
 20
61.599077472184227
 30
0.0
 11
85.42932490189709
 21
61.662424085732923
 31
0.0
  0
LINE
  5
200
  8
0
 39
4.9800796814999986
 10
85.42932490189709
 20
61.662424085732923
 30
0.0
 11
85.503129682776915
 21
61.722185041910919
 31
0.0
  0
LINE
  5
201
  8
0
 39
4.9800796814999986
 10
85.503129682776915
 20
61.722185041910919
 30
0.0
 11
85.577233268437624
 21
61.77855954390548
 31
0.0
  0
LINE
  5
202
  8
0
 39
4.9800796814999986
 10
85.577233268437624
 20
61.77855954390548
 30
0.0
 11
85.651336854098361
 21
61.83124878693576
 31
0.0
  0
LINE
  5
203
  8
0
 39
4.9800796814999986
 10
85.651336854098361
 20
61.83124878693576
 30
0.0
 11
85.725440439759069
 21
61.880352372595361
 31
0.0
  0
LINE
  5
204
  8
0
 39
4.9800796814999986
 10
85.725440439759069
 20
61.880352372595361
 30
0.0
 11
85.799444423826159
 21
61.925173089728858
 31
0.0
  0
LINE
  5
205
  8
0
 39
4.9800796814999986
 10
85.799444423826159
 20
61.925173089728858
 30
0.0
 11
85.87354800948691
 21
61.96610934471078
 31
0.0
  0
LINE
  5
206
  8
0
 39
4.9800796814999986
 10
85.87354800948691
 20
61.96610934471078
 30
0.0
 11
85.947651595147619
 21
62.002663129573001
 31
0.0
  0
LINE
  5
207
  8
0
 39
4.9800796814999986
 10
85.947651595147619
 20
62.002663129573001
 30
0.0
 11
86.028727292486735
 21
62.038079260803123
 31
0.0
  0
LINE
  5
20A
  8
0
 10
86.021755180808341
 20
62.03503364750275
 30
0.0
 11
87.021555977666281
 21
62.03503364750275
 31
0.0
  0
LINE
  5
217
  8
0
 39
4.9800796814999986
 10
85.458010160862543
 20
62.218200978188307
 30
0.0
 11
85.45791055926891
 21
63.146587432413547
 31
0.0
  0
LINE
  5
21C
  8
0
 39
4.9800796814999986
 10
84.028866734524115
 20
67.117603368847995
 30
0.0
 11
88.778727292486749
 21
67.117603368847995
 31
0.0
  0
LINE
  5
21D
  8
0
 39
4.9800796814999986
 10
88.778727292486749
 20
67.117603368847995
 30
0.0
 11
88.778727292486749
 21
64.074973886638773
 31
0.0
  0
LINE
  5
21F
  8
0
 39
4.9800796814999986
 10
87.601038049405616
 20
63.07656751209165
 30
0.0
 11
87.600938447811984
 21
62.226169105678721
 31
0.0
  0
LINE
  5
260
  8
0
 10
88.778727292486749
 20
67.117603368847995
 30
0.0
 11
96.528727292486764
 21
67.117603368847995
 31
0.0
  0
LINE
  5
267
  8
0
 10
87.601038049405616
 20
63.07656751209165
 30
0.0
 11
96.528727292486764
 21
63.07656751209165
 31
0.0
  0
LINE
  5
268
  8
0
 10
87.600938447811984
 20
62.226169105678721
 30
0.0
 11
96.528727292486764
 21
62.226169105678721
 31
0.0
  0
LINE
  5
319
  8
0
 10
84.028866734524115
 20
67.117603368847995
 30
0.0
 11
84.028866734524115
 21
65.617603368848009
 31
0.0
  0
LINE
  5
3FB
  8
1
 10
96.528727292486764
 20
41.905499879608882
 30
0.0
 11
96.528727292486764
 21
15.90549987960887
 31
0.0
  0
LINE
  5
3FC
  8
1
 10
109.52872729248671
 20
28.905499879608879
 30
0.0
 11
83.528727292486749
 21
28.905499879608879
 31
0.0
  0
CIRCLE
  5
3FF
  8
0
 10
96.528727292486764
 20
28.905499879608879
 30
0.0
 40
7.75
  0
CIRCLE
  5
400
  8
0
 10
96.528727292486764
 20
28.905499879608879
 30
0.0
 40
8.25
  0
CIRCLE
  5
401
  8
0
 10
96.528727292486764
 20
28.905499879608879
 30
0.0
 40
12.0
  0
CIRCLE
  5
402
  8
0
 10
96.528727292486764
 20
28.905499879608879
 30
0.0
 40
12.75
  0
CIRCLE
  5
405
  8
1
 10
96.528727292486764
 20
28.905499879608879
 30
0.0
 40
10.0
  0
CIRCLE
  5
407
  8
0
 10
106.52872729248671
 20
28.905499879608879
 30
0.0
 40
0.5
  0
CIRCLE
  5
408
  8
0
 10
96.528727292486764
 20
38.905499879608882
 30
0.0
 40
0.5
  0
CIRCLE
  5
409
  8
0
 10
86.528727292486764
 20
28.905499879608879
 30
0.0
 40
0.5
  0
CIRCLE
  5
40A
  8
0
 10
96.528727292486764
 20
18.905499879608879
 30
0.0
 40
0.5
  0
INSERT
  5
411
  8
2
  2
*U11
 10
0.0
 20
0.0
 30
0.0
  0
POLYLINE
  8
2
  5
5E4
  66
     1
 10
0.000000
 20
0.000000
 30
0.000000
  70
     8
  0
VERTEX
  8
2
  5
5E5
 10
97.0287
 20
38.9055
 30
0.000000
  70
    32
  0
VERTEX
  8
2
  5
5E6
 10
100.470
 20
44.0536
 30
0.000000
  70
    32
  0
VERTEX
  8
2
  5
5E7
 10
109.458
 20
44.0536
 30
0.000000
  70
    32
  0
SEQEND
  8
2
  5
5E8
  0
LINE
  5
423
  8
1
 10
96.528727292486764
 20
67.617603368848009
 30
0.0
 11
96.528727292486764
 21
60.617603368848009
 31
0.0
  0
LINE
  5
425
  8
1
 10
86.528727292486764
 20
67.417603368848006
 30
0.0
 11
86.528727292486764
 21
60.817603368848012
 31
0.0
  0
LINE
  5
429
  8
0
 10
83.778727292486749
 20
64.117603368848009
 30
0.0
 11
83.778727292486749
 21
65.467702970367071
 31
0.0
  0
LINE
  5
42A
  8
0
 10
83.778727292486749
 20
64.117603368848009
 30
0.0
 11
83.778727292486749
 21
65.617603368848009
 31
0.0
  0
LINE
  5
42D
  8
0
 10
86.028727292486749
 20
67.117603368847995
 30
0.0
 11
86.028727292486764
 21
62.03807926080313
 31
0.0
  0
LINE
  5
42E
  8
0
 10
87.028727292486735
 20
62.03125198952668
 30
0.0
 11
87.028727292486735
 21
67.117603368847995
 31
0.0
  0
LINE
  5
448
  8
0
 10
85.458010160862543
 20
62.218200978188307
 30
0.0
 11
84.528727292486735
 21
61.117603368848009
 31
0.0
  0
LINE
  5
449
  8
0
 10
84.528727292486735
 20
61.117603368848009
 30
0.0
 11
96.528727292486735
 21
61.117603368848009
 31
0.0
  0
LINE
  5
44A
  8
0
 10
87.600938447811984
 20
62.226169105678721
 30
0.0
 11
88.278727292486735
 21
61.117603368848009
 31
0.0
  0
LINE
  5
44C
  8
0
 10
83.778727292486749
 20
65.617603368848009
 30
0.0
 11
84.028866734524115
 21
65.617603368848009
 31
0.0
  0
LINE
  5
44E
  8
0
 10
85.45791055926891
 20
63.146587432413547
 30
0.0
 11
83.778727292486749
 21
64.117603368848009
 31
0.0
  0
LINE
  5
451
  8
0
 10
87.601038049405616
 20
63.07656751209165
 30
0.0
 11
88.778727292486749
 21
64.117603368848009
 31
0.0
  0
LINE
  5
452
  8
0
 10
88.778727292486749
 20
64.117603368848009
 30
0.0
 11
96.528727292486764
 21
64.117603368848009
 31
0.0
  0
LINE
  5
45D
  8
0
 39
4.9800796814999986
 10
105.4564165355678
 20
63.07656751209165
 30
0.0
 11
105.4565161371615
 21
62.226169105678721
 31
0.0
  0
LINE
  5
45E
  8
0
 39
4.9800796814999986
 10
104.27872729248671
 20
67.117603368847995
 30
0.0
 11
104.27872729248671
 21
64.074973886638773
 31
0.0
  0
LINE
  5
45F
  8
0
 39
4.9800796814999986
 10
109.0285878504493
 20
67.117603368847995
 30
0.0
 11
104.27872729248671
 21
67.117603368847995
 31
0.0
  0
LINE
  5
460
  8
0
 39
4.9800796814999986
 10
107.5994444241109
 20
62.218200978188307
 30
0.0
 11
107.5995440257045
 21
63.146587432413547
 31
0.0
  0
LINE
  5
461
  8
0
 39
4.9800796814999986
 10
107.10980298982579
 20
62.002663129573001
 30
0.0
 11
107.02872729248671
 21
62.038079260803123
 31
0.0
  0
LINE
  5
462
  8
0
 39
4.9800796814999986
 10
107.1839065754865
 20
61.96610934471078
 30
0.0
 11
107.10980298982579
 21
62.002663129573001
 31
0.0
  0
LINE
  5
463
  8
0
 39
4.9800796814999986
 10
107.2580101611473
 20
61.925173089728858
 30
0.0
 11
107.1839065754865
 21
61.96610934471078
 31
0.0
  0
LINE
  5
464
  8
0
 39
4.9800796814999986
 10
107.3320141452144
 20
61.880352372595361
 30
0.0
 11
107.2580101611473
 21
61.925173089728858
 31
0.0
  0
LINE
  5
465
  8
0
 39
4.9800796814999986
 10
107.4061177308751
 20
61.83124878693576
 30
0.0
 11
107.3320141452144
 21
61.880352372595361
 31
0.0
  0
LINE
  5
466
  8
0
 39
4.9800796814999986
 10
107.4802213165358
 20
61.77855954390548
 30
0.0
 11
107.4061177308751
 21
61.83124878693576
 31
0.0
  0
LINE
  5
467
  8
0
 39
4.9800796814999986
 10
107.5543249021965
 20
61.722185041910919
 30
0.0
 11
107.4802213165358
 21
61.77855954390548
 31
0.0
  0
LINE
  5
468
  8
0
 39
4.9800796814999986
 10
107.62812968307639
 20
61.662424085732923
 30
0.0
 11
107.5543249021965
 21
61.722185041910919
 31
0.0
  0
LINE
  5
469
  8
0
 39
4.9800796814999986
 10
107.7022332687371
 20
61.599077472184227
 30
0.0
 11
107.62812968307639
 21
61.662424085732923
 31
0.0
  0
LINE
  5
46A
  8
0
 39
4.9800796814999986
 10
107.7763368543978
 20
61.532742810826662
 30
0.0
 11
107.7022332687371
 21
61.599077472184227
 31
0.0
  0
LINE
  5
46B
  8
0
 39
4.9800796814999986
 10
107.85044044005851
 20
61.463320500066551
 30
0.0
 11
107.7763368543978
 21
61.532742810826662
 31
0.0
  0
LINE
  5
46C
  8
0
 39
4.9800796814999986
 10
107.9245440257192
 20
61.391109344684793
 30
0.0
 11
107.85044044005851
 21
61.463320500066551
 31
0.0
  0
LINE
  5
46D
  8
0
 39
4.9800796814999986
 10
107.99864761137999
 20
61.316009743087783
 30
0.0
 11
107.9245440257192
 21
61.391109344684793
 31
0.0
  0
LINE
  5
46E
  8
0
 39
4.9800796814999986
 10
108.0727511970407
 20
61.238619304837272
 30
0.0
 11
107.99864761137999
 21
61.316009743087783
 31
0.0
  0
LINE
  5
46F
  8
0
 39
4.9800796814999986
 10
108.1468547827014
 20
61.158738826746003
 30
0.0
 11
108.0727511970407
 21
61.238619304837272
 31
0.0
  0
LINE
  5
470
  8
0
 39
4.9800796814999986
 10
108.18394167183909
 20
61.117603368848009
 30
0.0
 11
108.1468547827014
 21
61.158738826746003
 31
0.0
  0
LINE
  5
471
  8
0
 39
4.9800796814999986
 10
105.22673526065709
 20
61.155153169375318
 30
0.0
 11
105.21178382032549
 21
61.117603368848009
 31
0.0
  0
LINE
  5
472
  8
0
 39
4.9800796814999986
 10
105.25432490209261
 20
61.22039221320297
 30
0.0
 11
105.22673526065709
 21
61.155153169375318
 31
0.0
  0
LINE
  5
473
  8
0
 39
4.9800796814999986
 10
105.28390657540071
 20
61.285133249062483
 30
0.0
 11
105.25432490209261
 21
61.22039221320297
 31
0.0
  0
LINE
  5
474
  8
0
 39
4.9800796814999986
 10
105.3156794837686
 20
61.349376276953819
 30
0.0
 11
105.28390657540071
 21
61.285133249062483
 31
0.0
  0
LINE
  5
475
  8
0
 39
4.9800796814999986
 10
105.3504404399455
 20
61.412722890502501
 30
0.0
 11
105.3156794837686
 21
61.349376276953819
 31
0.0
  0
LINE
  5
476
  8
0
 39
4.9800796814999986
 10
105.3882890455249
 20
61.475471894489402
 30
0.0
 11
105.3504404399455
 21
61.412722890502501
 31
0.0
  0
LINE
  5
477
  8
0
 39
4.9800796814999986
 10
105.42982291006859
 20
61.537224882540002
 30
0.0
 11
105.3882890455249
 21
61.475471894489402
 31
0.0
  0
LINE
  5
478
  8
0
 39
4.9800796814999986
 10
105.47524123676391
 20
61.598081456247932
 30
0.0
 11
105.42982291006859
 21
61.537224882540002
 31
0.0
  0
LINE
  5
479
  8
0
 39
4.9800796814999986
 10
105.5254404399534
 20
61.657543607645053
 30
0.0
 11
105.47524123676391
 21
61.598081456247932
 31
0.0
  0
LINE
  5
47A
  8
0
 39
4.9800796814999986
 10
105.5803209180436
 20
61.71600974310585
 30
0.0
 11
105.5254404399534
 21
61.657543607645053
 31
0.0
  0
LINE
  5
47B
  8
0
 39
4.9800796814999986
 10
105.6405798821897
 20
61.773081456255838
 30
0.0
 11
105.5803209180436
 21
61.71600974310585
 31
0.0
  0
LINE
  5
47C
  8
0
 39
4.9800796814999986
 10
105.70641653557909
 20
61.828758747095023
 30
0.0
 11
105.6405798821897
 21
61.773081456255838
 31
0.0
  0
LINE
  5
47D
  8
0
 39
4.9800796814999986
 10
105.7786276909609
 20
61.882742810842473
 30
0.0
 11
105.70641653557909
 21
61.828758747095023
 31
0.0
  0
LINE
  5
47E
  8
0
 39
4.9800796814999986
 10
105.8573129499286
 20
61.93533245227912
 30
0.0
 11
105.7786276909609
 21
61.882742810842473
 31
0.0
  0
LINE
  5
47F
  8
0
 39
4.9800796814999986
 10
105.9429703204504
 20
61.986029663436788
 30
0.0
 11
105.8573129499286
 21
61.93533245227912
 31
0.0
  0
LINE
  5
480
  8
0
 39
4.9800796814999986
 10
106.0358986073072
 20
62.03503364750275
 30
0.0
 11
105.9429703204504
 21
61.986029663436788
 31
0.0
  0
LINE
  5
481
  8
0
 39
4.9800796814999986
 10
106.0358986073072
 20
62.03503364750275
 30
0.0
 11
106.0358986073072
 21
62.03503364750275
 31
0.0
  0
LINE
  5
482
  8
1
 10
106.52872729248671
 20
67.417603368848006
 30
0.0
 11
106.52872729248671
 21
60.817603368848012
 31
0.0
  0
LINE
  5
485
  8
0
 10
104.27872729248671
 20
64.117603368848009
 30
0.0
 11
96.528727292486764
 21
64.117603368848009
 31
0.0
  0
LINE
  5
486
  8
0
 10
108.52872729248671
 20
61.117603368848009
 30
0.0
 11
96.528727292486764
 21
61.117603368848009
 31
0.0
  0
LINE
  5
487
  8
0
 10
105.4565161371615
 20
62.226169105678721
 30
0.0
 11
96.528727292486764
 21
62.226169105678721
 31
0.0
  0
LINE
  5
488
  8
0
 10
105.4564165355678
 20
63.07656751209165
 30
0.0
 11
96.528727292486764
 21
63.07656751209165
 31
0.0
  0
LINE
  5
489
  8
0
 10
104.27872729248671
 20
67.117603368847995
 30
0.0
 11
96.528727292486764
 21
67.117603368847995
 31
0.0
  0
LINE
  5
48A
  8
0
 10
105.4565161371615
 20
62.226169105678721
 30
0.0
 11
104.77872729248671
 21
61.117603368848009
 31
0.0
  0
LINE
  5
48B
  8
0
 10
107.5994444241109
 20
62.218200978188307
 30
0.0
 11
108.52872729248671
 21
61.117603368848009
 31
0.0
  0
LINE
  5
48C
  8
0
 10
105.4564165355678
 20
63.07656751209165
 30
0.0
 11
104.27872729248671
 21
64.117603368848009
 31
0.0
  0
LINE
  5
48D
  8
0
 10
107.5995440257045
 20
63.146587432413547
 30
0.0
 11
109.27872729248671
 21
64.117603368848009
 31
0.0
  0
LINE
  5
48E
  8
0
 10
109.27872729248671
 20
65.617603368848009
 30
0.0
 11
109.0285878504493
 21
65.617603368848009
 31
0.0
  0
LINE
  5
48F
  8
0
 10
106.02872729248671
 20
62.03125198952668
 30
0.0
 11
106.02872729248671
 21
67.117603368847995
 31
0.0
  0
LINE
  5
490
  8
0
 10
107.02872729248671
 20
67.117603368847995
 30
0.0
 11
107.02872729248671
 21
62.03807926080313
 31
0.0
  0
LINE
  5
491
  8
0
 10
109.27872729248671
 20
64.117603368848009
 30
0.0
 11
109.27872729248671
 21
65.617603368848009
 31
0.0
  0
LINE
  5
492
  8
0
 10
109.27872729248671
 20
64.117603368848009
 30
0.0
 11
109.27872729248671
 21
65.467702970367071
 31
0.0
  0
LINE
  5
493
  8
0
 10
109.0285878504493
 20
67.117603368847995
 30
0.0
 11
109.0285878504493
 21
65.617603368848009
 31
0.0
  0
LINE
  5
494
  8
0
 10
107.0356994041651
 20
62.03503364750275
 30
0.0
 11
106.0358986073072
 21
62.03503364750275
 31
0.0
  0
DIMENSION
  5
49D
  8
2
  2
*D1
 10
104.27872729248671
 20
76.708946525360687
 30
0.0
 11
96.154135258998963
 21
76.708946525360687
 31
0.0
 70
   128
  1
%%c<>
 13
88.778727292486749
 23
67.117603368847995
 33
0.0
 14
104.27872729248671
 24
67.117603368847995
 34
0.0
  0
DIMENSION
  5
4AA
  8
2
  2
*D2
 10
106.52872729248671
 20
81.107167244217493
 30
0.0
 11
96.235694765532344
 21
81.107167244217493
 31
0.0
 70
   128
  1
%%c<>
 13
86.528727292486764
 23
67.417603368848006
 33
0.0
 14
106.52872729248671
 24
67.417603368848006
 34
0.0
  0
DIMENSION
  5
4B7
  8
2
  2
*D3
 10
87.028727292486735
 20
71.556879015676742
 30
0.0
 11
77.056696863006763
 21
71.556879015676742
 31
0.0
 70
   128
  1
%%c<>
 13
86.028727292486749
 23
67.117603368847995
 33
0.0
 14
87.028727292486735
 24
67.117603368847995
 34
0.0
  0
DIMENSION
  5
4E3
  8
2
  2
*D4
 10
109.0285878504493
 20
85.393740552013384
 30
0.0
 11
96.528727292486764
 21
87.268740552013384
 31
0.0
 70
     0
  1
%%c<>
 13
84.028866734524115
 23
67.117603368847995
 33
0.0
 14
109.0285878504493
 24
67.117603368847995
 34
0.0
  0
DIMENSION
  5
4F0
  8
2
  2
*D5
 10
109.27872729248671
 20
90.131719566417317
 30
0.0
 11
96.528727292486764
 21
92.006719566417317
 31
0.0
 70
     0
  1
%%c<>
 13
83.778727292486749
 23
65.617603368848009
 33
0.0
 14
109.27872729248671
 24
65.467702970367071
 34
0.0
  0
DIMENSION
  5
4FE
  8
2
  2
*D6
 10
121.1705463455874
 20
65.617603368848009
 30
0.0
 11
119.2955463455874
 21
57.909270035514702
 31
0.0
 70
     0
 13
109.0285878504493
 23
67.117603368847995
 33
0.0
 14
109.27872729248671
 24
65.617603368848009
 34
0.0
 50
90.0
  0
DIMENSION
  5
50D
  8
2
  2
*D7
 10
126.51589240460009
 20
64.117603368848009
 30
0.0
 11
124.6408924046
 21
65.617603368848023
 31
0.0
 70
     0
 13
109.0285878504493
 23
67.117603368847995
 33
0.0
 14
109.27872729248671
 24
64.117603368848009
 34
0.0
 50
90.0
  0
DIMENSION
  5
51C
  8
2
  2
*D8
 10
131.11984280909269
 20
61.117603368848002
 30
0.0
 11
129.2448428090926
 21
64.117603368848023
 31
0.0
 70
     0
 13
109.0285878504493
 23
67.117603368847995
 33
0.0
 14
108.52872729248671
 24
61.117603368848009
 34
0.0
 50
90.0
  0
DIMENSION
  5
52B
  8
2
  2
*D9
 10
104.77872729248671
 20
55.364024428790373
 30
0.0
 11
96.528727292486764
 21
57.239024428790373
 31
0.0
 70
     0
  1
%%c<>
 13
88.278727292486735
 23
61.117603368848009
 33
0.0
 14
104.77872729248671
 24
61.117603368848009
 34
0.0
  0
DIMENSION
  5
538
  8
2
  2
*D10
 10
108.52872729248671
 20
51.18811194245265
 30
0.0
 11
96.528727292486764
 21
53.06311194245265
 31
0.0
 70
     0
  1
%%c<>
 13
84.528727292486735
 23
61.117603368848009
 33
0.0
 14
108.52872729248671
 24
61.117603368848009
 34
0.0
  0
ENDSEC
  0
EOF
