  0
SECTION
  2
HEADER
  9
$ACADVER
  1
AC1009
  9
$INSBASE
 10
0.0
 20
0.0
 30
0.0
  9
$EXTMIN
 10
76.379077498011924
 20
-9.6148652632310512
 30
0.0
  9
$EXTMAX
 10
112.1801930011224
 20
65.837035903007433
 30
5.0
  9
$LIMMIN
 10
0.0
 20
0.0
  9
$LIMMAX
 10
420.0
 20
297.0
  9
$ORTHOMODE
 70
     0
  9
$REGENMODE
 70
     1
  9
$FILLMODE
 70
     1
  9
$QTEXTMODE
 70
     0
  9
$MIRRTEXT
 70
     1
  9
$DRAGMODE
 70
     2
  9
$LTSCALE
 40
0.3
  9
$OSMODE
 70
    37
  9
$ATTMODE
 70
     1
  9
$TEXTSIZE
 40
2.5
  9
$TRACEWID
 40
1.0
  9
$TEXTSTYLE
  7
STANDARD
  9
$CLAYER
  8
2
  9
$CELTYPE
  6
BYLAYER
  9
$CECOLOR
 62
   256
  9
$DIMSCALE
 40
1.0
  9
$DIMASZ
 40
2.5
  9
$DIMEXO
 40
0.625
  9
$DIMDLI
 40
3.75
  9
$DIMRND
 40
0.0
  9
$DIMDLE
 40
0.0
  9
$DIMEXE
 40
1.25
  9
$DIMTP
 40
0.0
  9
$DIMTM
 40
0.0
  9
$DIMTXT
 40
2.5
  9
$DIMCEN
 40
2.5
  9
$DIMTSZ
 40
0.0
  9
$DIMTOL
 70
     0
  9
$DIMLIM
 70
     0
  9
$DIMTIH
 70
     0
  9
$DIMTOH
 70
     0
  9
$DIMSE1
 70
     0
  9
$DIMSE2
 70
     0
  9
$DIMTAD
 70
     1
  9
$DIMZIN
 70
     8
  9
$DIMBLK
  1

  9
$DIMASO
 70
     1
  9
$DIMSHO
 70
     1
  9
$DIMPOST
  1

  9
$DIMAPOST
  1

  9
$DIMALT
 70
     0
  9
$DIMALTD
 70
     3
  9
$DIMALTF
 40
0.03937007874016
  9
$DIMLFAC
 40
1.0
  9
$DIMTOFL
 70
     1
  9
$DIMTVP
 40
0.0
  9
$DIMTIX
 70
     0
  9
$DIMSOXD
 70
     0
  9
$DIMSAH
 70
     0
  9
$DIMBLK1
  1

  9
$DIMBLK2
  1

  9
$DIMSTYLE
  2
ISO-25
  9
$DIMCLRD
 70
     0
  9
$DIMCLRE
 70
     0
  9
$DIMCLRT
 70
     0
  9
$DIMTFAC
 40
1.0
  9
$DIMGAP
 40
0.625
  9
$LUNITS
 70
     2
  9
$LUPREC
 70
     4
  9
$SKETCHINC
 40
1.0
  9
$FILLETRAD
 40
10.0
  9
$AUNITS
 70
     0
  9
$AUPREC
 70
     0
  9
$MENU
  1
.
  9
$ELEVATION
 40
0.0
  9
$PELEVATION
 40
0.0
  9
$THICKNESS
 40
0.0
  9
$LIMCHECK
 70
     0
  9
$BLIPMODE
 70
     0
  9
$CHAMFERA
 40
10.0
  9
$CHAMFERB
 40
10.0
  9
$SKPOLY
 70
     0
  9
$TDCREATE
 40
2453445.4325094209
  9
$TDUPDATE
 40
2453551.9154010988
  9
$TDINDWG
 40
0.0306155556
  9
$TDUSRTIMER
 40
0.0306155556
  9
$USRTIMER
 70
     1
  9
$ANGBASE
 50
0.0
  9
$ANGDIR
 70
     0
  9
$PDMODE
 70
     0
  9
$PDSIZE
 40
0.0
  9
$PLINEWID
 40
0.0
  9
$COORDS
 70
     1
  9
$SPLFRAME
 70
     0
  9
$SPLINETYPE
 70
     6
  9
$SPLINESEGS
 70
     8
  9
$ATTDIA
 70
     0
  9
$ATTREQ
 70
     1
  9
$HANDLING
 70
-16383
  9
$HANDSEED
  5
38C
  9
$SURFTAB1
 70
     6
  9
$SURFTAB2
 70
     6
  9
$SURFTYPE
 70
     6
  9
$SURFU
 70
     6
  9
$SURFV
 70
     6
  9
$UCSNAME
  2

  9
$UCSORG
 10
0.0
 20
0.0
 30
0.0
  9
$UCSXDIR
 10
1.0
 20
0.0
 30
0.0
  9
$UCSYDIR
 10
0.0
 20
1.0
 30
0.0
  9
$PUCSNAME
  2

  9
$PUCSORG
 10
0.0
 20
0.0
 30
0.0
  9
$PUCSXDIR
 10
1.0
 20
0.0
 30
0.0
  9
$PUCSYDIR
 10
0.0
 20
1.0
 30
0.0
  9
$USERI1
 70
     0
  9
$USERI2
 70
     0
  9
$USERI3
 70
     0
  9
$USERI4
 70
     0
  9
$USERI5
 70
     0
  9
$USERR1
 40
0.0
  9
$USERR2
 40
0.0
  9
$USERR3
 40
0.0
  9
$USERR4
 40
0.0
  9
$USERR5
 40
0.0
  9
$WORLDVIEW
 70
     1
  9
$SHADEDGE
 70
     3
  9
$SHADEDIF
 70
    70
  9
$TILEMODE
 70
     1
  9
$MAXACTVP
 70
    64
  9
$PLIMCHECK
 70
     0
  9
$PEXTMIN
 10
1.0000000000000000E+020
 20
1.0000000000000000E+020
 30
1.0000000000000000E+020
  9
$PEXTMAX
 10
-1.0000000000000000E+020
 20
-1.0000000000000000E+020
 30
-1.0000000000000000E+020
  9
$PLIMMIN
 10
0.0
 20
0.0
  9
$PLIMMAX
 10
420.0
 20
297.0
  9
$UNITMODE
 70
     0
  9
$VISRETAIN
 70
     1
  9
$PLINEGEN
 70
     0
  9
$PSLTSCALE
 70
     1
  0
ENDSEC
  0
SECTION
  2
TABLES
  0
TABLE
  2
VPORT
 70
     2
  0
VPORT
  2
*ACTIVE
 70
     0
 10
0.0
 20
0.0
 11
1.0
 21
1.0
 12
91.718427174095353
 22
29.686220790998501
 13
0.0
 23
0.0
 14
10.0
 24
10.0
 15
10.0
 25
10.0
 16
0.0
 26
0.0
 36
1.0
 17
0.0
 27
0.0
 37
0.0
 40
89.293438193616097
 41
2.5392405063291141
 42
50.0
 43
0.0
 44
0.0
 50
0.0
 51
0.0
 71
     0
 72
   100
 73
     1
 74
     3
 75
     0
 76
     0
 77
     0
 78
     0
  0
ENDTAB
  0
TABLE
  2
LTYPE
 70
     2
  0
LTYPE
  2
CONTINUOUS
 70
     0
  3
Solid line
 72
    65
 73
     0
 40
0.0
  0
LTYPE
  2
CENTER
 70
     0
  3
Center ____ _ ____ _ ____ _ ____ _ ____ _ ____
 72
    65
 73
     4
 40
50.799999999999997
 49
31.75
 49
-6.3499999999999988
 49
6.3499999999999988
 49
-6.3499999999999988
  0
ENDTAB
  0
TABLE
  2
LAYER
 70
     4
  0
LAYER
  2
0
 70
     0
 62
     7
  6
CONTINUOUS
  0
LAYER
  2
DEFPOINTS
 70
     0
 62
     7
  6
CONTINUOUS
  0
LAYER
  2
1
 70
     0
 62
     7
  6
CENTER
  0
LAYER
  2
2
 70
     0
 62
     7
  6
CONTINUOUS
  0
ENDTAB
  0
TABLE
  2
STYLE
 70
     3
  0
STYLE
  2
STANDARD
 70
     0
 40
0.0
 41
1.0
 50
0.0
 71
     0
 42
2.5
  3
txt
  4

  0
STYLE
  2
\U+00C9L\U+00C9R_\U+00C2S\U+00C2V\U+00C2B\U+00C2N
 70
     0
 40
1.0
 41
1.0
 50
0.0
 71
     0
 42
1.0
  3
\U+00E9l\U+00E9r \U+00E2S\U+00E2V\U+00E2b\U+00E2N
  4

  0
STYLE
  2

 70
     1
 40
0.0
 41
1.0
 50
0.0
 71
     0
 42
2.5
  3
ltypeshp.shx
  4

  0
ENDTAB
  0
TABLE
  2
VIEW
 70
     0
  0
ENDTAB
  0
TABLE
  2
UCS
 70
     0
  0
ENDTAB
  0
TABLE
  2
APPID
 70
     1
  0
APPID
  2
ACAD
 70
     0
  0
ENDTAB
  0
TABLE
  2
DIMSTYLE
 70
     2
  0
DIMSTYLE
  2
ISO-25
 70
     0
  3

  4

  5

  6

  7

 40
1.0
 41
2.5
 42
0.625
 43
3.75
 44
1.25
 45
0.0
 46
0.0
 47
0.0
 48
0.0
140
2.5
141
2.5
142
0.0
143
0.03937007874016
144
1.0
145
0.0
146
1.0
147
0.625
 71
     0
 72
     0
 73
     0
 74
     0
 75
     0
 76
     0
 77
     1
 78
     8
170
     0
171
     3
172
     1
173
     0
174
     0
175
     0
176
     0
177
     0
178
     0
  0
DIMSTYLE
  2
STANDARD
 70
     0
  3

  4

  5

  6

  7

 40
1.0
 41
0.18
 42
0.0625
 43
0.38
 44
0.18
 45
0.0
 46
0.0
 47
0.0
 48
0.0
140
0.18
141
0.09
142
0.0
143
25.399999999999999
144
1.0
145
0.0
146
1.0
147
0.09
 71
     0
 72
     0
 73
     1
 74
     1
 75
     0
 76
     0
 77
     0
 78
     0
170
     0
171
     2
172
     0
173
     0
174
     0
175
     0
176
     0
177
     0
178
     0
  0
ENDTAB
  0
ENDSEC
  0
SECTION
  2
BLOCKS
  0
BLOCK
  8
0
  2
$MODEL_SPACE
 70
     0
 10
0.0
 20
0.0
 30
0.0
  3
$MODEL_SPACE
  1

  0
ENDBLK
  5
21
  8
0
  0
BLOCK
 67
     1
  8
0
  2
$PAPER_SPACE
 70
     0
 10
0.0
 20
0.0
 30
0.0
  3
$PAPER_SPACE
  1

  0
ENDBLK
  5
1D
 67
     1
  8
0
  0
BLOCK
  8
0
  2
A$C100166B0
 70
     0
 10
0.0
 20
0.0
 30
0.0
  3
A$C100166B0
  1

  0
CIRCLE
  5
282
  8
0
 10
0.6000001542943352
 20
0.6000000898862085
 30
0.0
 40
0.6
  0
ENDBLK
  5
284
  8
0
  0
BLOCK
  8
0
  2
*D2
 70
     1
 10
0.0
 20
0.0
 30
0.0
  3
*D2
  1

  0
LINE
  5
34E
  8
2
 62
     0
 10
81.869676169756943
 20
47.362858073817819
 30
0.0
 11
81.869676169756943
 21
55.718082355343
 31
0.0
  0
LINE
  5
34F
  8
2
 62
     0
 10
97.869676169756943
 20
47.362858073817819
 30
0.0
 11
97.869676169756943
 21
55.718082355343
 31
0.0
  0
LINE
  5
350
  8
2
 62
     0
 10
84.369676169756943
 20
54.468082355343
 30
0.0
 11
95.369676169756943
 21
54.468082355343
 31
0.0
  0
SOLID
  5
351
  8
2
 62
     0
 10
84.369676169756943
 20
54.884749022009657
 30
0.0
 11
84.369676169756943
 21
54.051415688676343
 31
0.0
 12
81.869676169756943
 22
54.468082355343
 32
0.0
 13
81.869676169756943
 23
54.468082355343
 33
0.0
  0
SOLID
  5
352
  8
2
 62
     0
 10
95.369676169756943
 20
54.884749022009657
 30
0.0
 11
95.369676169756943
 21
54.051415688676343
 31
0.0
 12
97.869676169756943
 22
54.468082355343
 32
0.0
 13
97.869676169756943
 23
54.468082355343
 33
0.0
  0
INSERT
  5
353
  8
2
  2
*U9
 10
0.0
 20
0.0
 30
0.0
  0
POINT
  5
354
  8
DEFPOINTS
 62
     0
 10
81.869676169756943
 20
46.737858073817819
 30
0.0
  0
POINT
  5
355
  8
DEFPOINTS
 62
     0
 10
97.869676169756943
 20
46.737858073817819
 30
0.0
  0
POINT
  5
356
  8
DEFPOINTS
 62
     0
 10
97.869676169756943
 20
54.468082355343
 30
0.0
  0
ENDBLK
  5
313
  8
0
  0
BLOCK
  8
0
  2
*D3
 70
     1
 10
0.0
 20
0.0
 30
0.0
  3
*D3
  1

  0
LINE
  5
345
  8
2
 62
     0
 10
79.369676169756943
 20
47.71285807381782
 30
0.0
 11
79.369676169756943
 21
59.647807496021102
 31
0.0
  0
LINE
  5
346
  8
2
 62
     0
 10
100.3696761697569
 20
47.71285807381782
 30
0.0
 11
100.3696761697569
 21
59.647807496021102
 31
0.0
  0
LINE
  5
347
  8
2
 62
     0
 10
81.869676169756943
 20
58.397807496021102
 30
0.0
 11
97.869676169756943
 21
58.397807496021102
 31
0.0
  0
SOLID
  5
348
  8
2
 62
     0
 10
81.869676169756943
 20
58.814474162687773
 30
0.0
 11
81.869676169756943
 21
57.981140829354437
 31
0.0
 12
79.369676169756943
 22
58.397807496021102
 32
0.0
 13
79.369676169756943
 23
58.397807496021102
 33
0.0
  0
SOLID
  5
349
  8
2
 62
     0
 10
97.869676169756943
 20
58.814474162687773
 30
0.0
 11
97.869676169756943
 21
57.981140829354437
 31
0.0
 12
100.3696761697569
 22
58.397807496021102
 32
0.0
 13
100.3696761697569
 23
58.397807496021102
 33
0.0
  0
INSERT
  5
34A
  8
2
  2
*U8
 10
0.0
 20
0.0
 30
0.0
  0
POINT
  5
34B
  8
DEFPOINTS
 62
     0
 10
79.369676169756943
 20
47.08785807381782
 30
0.0
  0
POINT
  5
34C
  8
DEFPOINTS
 62
     0
 10
100.3696761697569
 20
47.08785807381782
 30
0.0
  0
POINT
  5
34D
  8
DEFPOINTS
 62
     0
 10
100.3696761697569
 20
58.397807496021102
 30
0.0
  0
ENDBLK
  5
320
  8
0
  0
BLOCK
  8
0
  2
*D4
 70
     1
 10
0.0
 20
0.0
 30
0.0
  3
*D4
  1

  0
LINE
  5
33C
  8
2
 62
     0
 10
77.369676169756943
 20
47.362858073817819
 30
0.0
 11
77.369676169756943
 21
63.962035903007433
 31
0.0
  0
LINE
  5
33D
  8
2
 62
     0
 10
102.3696761697569
 20
47.362858073817819
 30
0.0
 11
102.3696761697569
 21
63.962035903007433
 31
0.0
  0
LINE
  5
33E
  8
2
 62
     0
 10
79.869676169756943
 20
62.712035903007433
 30
0.0
 11
99.869676169756957
 21
62.712035903007433
 31
0.0
  0
SOLID
  5
33F
  8
2
 62
     0
 10
79.869676169756943
 20
63.128702569674097
 30
0.0
 11
79.869676169756943
 21
62.295369236340768
 31
0.0
 12
77.369676169756943
 22
62.712035903007433
 32
0.0
 13
77.369676169756943
 23
62.712035903007433
 33
0.0
  0
SOLID
  5
340
  8
2
 62
     0
 10
99.869676169756957
 20
63.128702569674097
 30
0.0
 11
99.869676169756957
 21
62.295369236340768
 31
0.0
 12
102.3696761697569
 22
62.712035903007433
 32
0.0
 13
102.3696761697569
 23
62.712035903007433
 33
0.0
  0
INSERT
  5
341
  8
2
  2
*U7
 10
0.0
 20
0.0
 30
0.0
  0
POINT
  5
342
  8
DEFPOINTS
 62
     0
 10
77.369676169756943
 20
46.737858073817819
 30
0.0
  0
POINT
  5
343
  8
DEFPOINTS
 62
     0
 10
102.3696761697569
 20
46.737858073817819
 30
0.0
  0
POINT
  5
344
  8
DEFPOINTS
 62
     0
 10
102.3696761697569
 20
62.712035903007433
 30
0.0
  0
ENDBLK
  5
32D
  8
0
  0
BLOCK
  8
0
  2
*D5
 70
     1
 10
0.0
 20
0.0
 30
0.0
  3
*D5
  1

  0
LINE
  5
330
  8
2
 62
     0
 10
102.9946761697569
 20
46.737858073817819
 30
0.0
 11
110.3257898771206
 21
46.737858073817819
 31
0.0
  0
LINE
  5
331
  8
2
 62
     0
 10
102.9946761697569
 20
40.237858073817819
 30
0.0
 11
110.3257898771206
 21
40.237858073817819
 31
0.0
  0
LINE
  5
332
  8
2
 62
     0
 10
109.0757898771206
 20
44.237858073817819
 30
0.0
 11
109.0757898771206
 21
42.737858073817819
 31
0.0
  0
SOLID
  5
333
  8
2
 62
     0
 10
108.6591232104539
 20
44.237858073817819
 30
0.0
 11
109.4924565437872
 21
44.237858073817819
 31
0.0
 12
109.0757898771206
 22
46.737858073817819
 32
0.0
 13
109.0757898771206
 23
46.737858073817819
 33
0.0
  0
SOLID
  5
334
  8
2
 62
     0
 10
108.6591232104539
 20
42.737858073817819
 30
0.0
 11
109.4924565437872
 21
42.737858073817819
 31
0.0
 12
109.0757898771206
 22
40.237858073817819
 32
0.0
 13
109.0757898771206
 23
40.237858073817819
 33
0.0
  0
TEXT
  5
335
  8
2
 62
     0
 10
108.4507898771205
 20
40.987858073817833
 30
0.0
 40
2.5
  1
6.5
 50
90.0
  0
POINT
  5
336
  8
DEFPOINTS
 62
     0
 10
102.3696761697569
 20
46.737858073817819
 30
0.0
  0
POINT
  5
337
  8
DEFPOINTS
 62
     0
 10
102.3696761697569
 20
40.237858073817819
 30
0.0
  0
POINT
  5
338
  8
DEFPOINTS
 62
     0
 10
109.0757898771206
 20
40.237858073817819
 30
0.0
  0
ENDBLK
  5
33A
  8
0
  0
BLOCK
  8
0
  2
*U6
 70
     1
 10
0.0
 20
0.0
 30
0.0
  3
*U6
  1

  0
TEXT
  5
373
  8
2
 10
91.565746170141949
 20
28.545095608871371
 30
0.0
 40
2.5
  1
8-
  0
TEXT
  5
374
  8
2
 10
96.565746170141949
 20
28.545095608871371
 30
0.0
 40
2.5
  1
\U+2205
  0
TEXT
  5
375
  8
2
 10
99.065746170141949
 20
28.545095608871371
 30
0.0
 40
2.5
  1
1.2
  0
ENDBLK
  5
377
  8
0
  0
BLOCK
  8
0
  2
*U7
 70
     1
 10
0.0
 20
0.0
 30
0.0
  3
*U7
  1

  0
TEXT
  5
379
  8
2
 62
     0
 10
86.536342836423614
 20
63.337035903007433
 30
0.0
 40
2.5
  1
\U+2205
  0
TEXT
  5
37A
  8
2
 62
     0
 10
89.036342836423614
 20
63.337035903007433
 30
0.0
 40
2.5
  1
25
  0
ENDBLK
  5
37C
  8
0
  0
BLOCK
  8
0
  2
*U8
 70
     1
 10
0.0
 20
0.0
 30
0.0
  3
*U8
  1

  0
TEXT
  5
37E
  8
2
 62
     0
 10
86.953009503090271
 20
59.022807496021102
 30
0.0
 40
2.5
  1
\U+2205
  0
TEXT
  5
37F
  8
2
 62
     0
 10
89.453009503090271
 20
59.022807496021102
 30
0.0
 40
2.5
  1
21
  0
ENDBLK
  5
381
  8
0
  0
BLOCK
  8
0
  2
*U9
 70
     1
 10
0.0
 20
0.0
 30
0.0
  3
*U9
  1

  0
TEXT
  5
383
  8
2
 62
     0
 10
86.953009503090271
 20
55.093082355343
 30
0.0
 40
2.5
  1
\U+2205
  0
TEXT
  5
384
  8
2
 62
     0
 10
89.453009503090271
 20
55.093082355343
 30
0.0
 40
2.5
  1
16
  0
ENDBLK
  5
386
  8
0
  0
ENDSEC
  0
SECTION
  2
ENTITIES
  0
TEXT
  5
125
  8
2
 10
76.379077566069455
 20
-9.3729658346596239
 30
0.0
 40
2.5399440000000002
  1
No. 107.025.048._
 51
-0.0000015352344868
  7
\U+00C9L\U+00C9R_\U+00C2S\U+00C2V\U+00C2B\U+00C2N
  0
LINE
  5
1BB
  8
0
 39
5.0
 10
77.369676169756943
 20
40.237858073817819
 30
0.0
 11
79.369676169756914
 21
40.237858073817819
 31
0.0
  0
LINE
  5
1BC
  8
0
 39
5.0
 10
77.728476169756945
 20
40.237858073817819
 30
0.0
 11
77.728476169756945
 21
40.237858073817819
 31
0.0
  0
LINE
  5
1BD
  8
0
 39
5.0
 10
77.728476169756945
 20
40.237858073817819
 30
0.0
 11
77.954376169756955
 21
40.309158073817827
 31
0.0
  0
LINE
  5
1BE
  8
0
 39
5.0
 10
77.954376169756955
 20
40.309158073817827
 30
0.0
 11
78.183576169756947
 21
40.37025807381783
 31
0.0
  0
LINE
  5
1BF
  8
0
 39
5.0
 10
78.183576169756947
 20
40.37025807381783
 30
0.0
 11
78.415376169756939
 21
40.42155807381782
 31
0.0
  0
LINE
  5
1C0
  8
0
 39
5.0
 10
78.415376169756939
 20
40.42155807381782
 30
0.0
 11
78.648976169756935
 21
40.46295807381783
 31
0.0
  0
LINE
  5
1C1
  8
0
 39
5.0
 10
78.648976169756935
 20
40.46295807381783
 30
0.0
 11
78.883776169756942
 21
40.494858073817831
 31
0.0
  0
LINE
  5
1C2
  8
0
 39
5.0
 10
78.883776169756942
 20
40.494858073817831
 30
0.0
 11
79.118576169756935
 21
40.517058073817822
 31
0.0
  0
LINE
  5
1C3
  8
0
 39
5.0
 10
79.118576169756935
 20
40.517058073817822
 30
0.0
 11
79.352976169756943
 21
40.529858073817827
 31
0.0
  0
LINE
  5
1C4
  8
0
 39
5.0
 10
79.352976169756943
 20
40.529858073817827
 30
0.0
 11
79.585876169756943
 21
40.53315807381783
 31
0.0
  0
LINE
  5
1C5
  8
0
 39
5.0
 10
79.585876169756943
 20
40.53315807381783
 30
0.0
 11
79.816976169756941
 21
40.527458073817819
 31
0.0
  0
LINE
  5
1C6
  8
0
 39
5.0
 10
79.816976169756941
 20
40.527458073817819
 30
0.0
 11
80.045076169756953
 21
40.512558073817829
 31
0.0
  0
LINE
  5
1C7
  8
0
 39
5.0
 10
80.045076169756953
 20
40.512558073817829
 30
0.0
 11
80.269676169756934
 21
40.488658073817817
 31
0.0
  0
LINE
  5
1C8
  8
0
 39
5.0
 10
80.269676169756934
 20
40.488658073817817
 30
0.0
 11
80.489576169756944
 21
40.455758073817833
 31
0.0
  0
LINE
  5
1C9
  8
0
 39
5.0
 10
80.489576169756944
 20
40.455758073817833
 30
0.0
 11
80.704576169756933
 21
40.414258073817827
 31
0.0
  0
LINE
  5
1CA
  8
0
 39
5.0
 10
80.704576169756933
 20
40.414258073817827
 30
0.0
 11
80.913376169756944
 21
40.36405807381783
 31
0.0
  0
LINE
  5
1CB
  8
0
 39
5.0
 10
80.913376169756944
 20
40.36405807381783
 30
0.0
 11
81.115476169756946
 21
40.305258073817818
 31
0.0
  0
LINE
  5
1CC
  8
0
 39
5.0
 10
81.115476169756946
 20
40.305258073817818
 30
0.0
 11
81.309876169756933
 21
40.237858073817819
 31
0.0
  0
LINE
  5
1CD
  8
0
 39
5.0
 10
81.309876169756933
 20
40.237858073817819
 30
0.0
 11
89.869676169756957
 21
40.237858073817819
 31
0.0
  0
LINE
  5
1E7
  8
0
 10
78.769676169756949
 20
46.737858073817819
 30
0.0
 11
78.769676169756949
 21
40.479356412829752
 31
0.0
  0
LINE
  5
1E8
  8
0
 10
79.969676169756937
 20
40.517483369740667
 30
0.0
 11
79.969676169756937
 21
46.737858073817819
 31
0.0
  0
LINE
  5
207
  8
0
 10
77.728476169756945
 20
40.237858073817819
 30
0.0
 11
81.309876169756933
 21
40.237858073817819
 31
0.0
  0
LINE
  5
26F
  8
1
 10
89.869676169756957
 20
24.769599760544821
 30
0.0
 11
89.869676169756957
 21
-1.2304002394551781
 31
0.0
  0
LINE
  5
270
  8
1
 10
76.869676169756943
 20
11.769599760544819
 30
0.0
 11
102.8696761697569
 21
11.769599760544819
 31
0.0
  0
CIRCLE
  5
271
  8
0
 10
89.869676169756957
 20
11.769599760544819
 30
0.0
 40
12.5
  0
CIRCLE
  5
272
  8
0
 10
89.869676169756957
 20
11.769599760544819
 30
0.0
 40
8.0
  0
CIRCLE
  5
273
  8
1
 10
89.869676169756957
 20
11.769599760544819
 30
0.0
 40
10.5
  0
CIRCLE
  5
27B
  8
0
 10
97.378242956112643
 20
19.10931534187602
 30
0.0
 40
0.6
  0
CIRCLE
  5
27C
  8
0
 10
89.869676169756957
 20
22.269599760544821
 30
0.0
 40
0.6
  0
CIRCLE
  5
27D
  8
0
 10
79.369676169756943
 20
11.769599760544819
 30
0.0
 40
0.6
  0
CIRCLE
  5
27E
  8
0
 10
82.445054967298177
 20
4.344978558086062
 30
0.0
 40
0.6
  0
CIRCLE
  5
285
  8
0
 10
82.361109383401228
 20
19.10931534187602
 30
0.0
 40
0.6
  0
CIRCLE
  5
286
  8
0
 10
97.294297372215723
 20
4.344978558086062
 30
0.0
 40
0.6
  0
CIRCLE
  5
287
  8
0
 10
89.869676169756957
 20
1.269599760544821
 30
0.0
 40
0.6
  0
CIRCLE
  5
288
  8
0
 10
100.3696761697569
 20
11.769599760544819
 30
0.0
 40
0.6
  0
INSERT
  5
28A
  8
2
  2
*U6
 10
0.0
 20
0.0
 30
0.0
  0
POLYLINE
  8
0
  5
387
  66
     1
 10
0.000000
 20
0.000000
 30
0.000000
  70
     8
  0
VERTEX
  8
0
  5
388
 10
89.8697
 20
22.8696
 30
0.000000
  70
    32
  0
VERTEX
  8
0
  5
389
 10
91.2935
 20
28.2137
 30
0.000000
  70
    32
  0
VERTEX
  8
0
  5
38A
 10
103.845
 20
28.2137
 30
0.000000
  70
    32
  0
SEQEND
  8
0
  5
38B
  0
LINE
  5
2B3
  8
1
 10
89.869676169756957
 20
47.237858073817833
 30
0.0
 11
89.869676169756957
 21
39.737858073817819
 31
0.0
  0
LINE
  5
2B7
  8
0
 10
81.869676169756943
 20
46.737858073817819
 30
0.0
 11
81.869676169756943
 21
40.237858073817819
 31
0.0
  0
LINE
  5
2BA
  8
1
 10
79.369676169756943
 20
47.08785807381782
 30
0.0
 11
79.369676169756943
 21
40.237858073817819
 31
0.0
  0
LINE
  5
2DD
  8
0
 10
77.369676169756943
 20
46.737858073817819
 30
0.0
 11
77.369676169756943
 21
40.237858073817819
 31
0.0
  0
LINE
  5
2E0
  8
0
 10
89.869676169756957
 20
46.737858073817819
 30
0.0
 11
77.369676169756943
 21
46.737858073817819
 31
0.0
  0
LINE
  5
2E6
  8
0
 39
5.0
 10
98.429476169756938
 20
40.237858073817819
 30
0.0
 11
89.869676169756957
 21
40.237858073817819
 31
0.0
  0
LINE
  5
2E7
  8
0
 39
5.0
 10
98.623876169756954
 20
40.305258073817818
 30
0.0
 11
98.429476169756938
 21
40.237858073817819
 31
0.0
  0
LINE
  5
2E8
  8
0
 39
5.0
 10
98.825976169756942
 20
40.36405807381783
 30
0.0
 11
98.623876169756954
 21
40.305258073817818
 31
0.0
  0
LINE
  5
2E9
  8
0
 39
5.0
 10
99.034776169756938
 20
40.414258073817827
 30
0.0
 11
98.825976169756942
 21
40.36405807381783
 31
0.0
  0
LINE
  5
2EA
  8
0
 39
5.0
 10
99.249776169756956
 20
40.455758073817833
 30
0.0
 11
99.034776169756938
 21
40.414258073817827
 31
0.0
  0
LINE
  5
2EB
  8
0
 39
5.0
 10
99.469676169756966
 20
40.488658073817817
 30
0.0
 11
99.249776169756956
 21
40.455758073817833
 31
0.0
  0
LINE
  5
2EC
  8
0
 39
5.0
 10
99.694276169756932
 20
40.512558073817829
 30
0.0
 11
99.469676169756966
 21
40.488658073817817
 31
0.0
  0
LINE
  5
2ED
  8
0
 39
5.0
 10
99.922376169756944
 20
40.527458073817819
 30
0.0
 11
99.694276169756932
 21
40.512558073817829
 31
0.0
  0
LINE
  5
2EE
  8
0
 39
5.0
 10
100.1534761697569
 20
40.53315807381783
 30
0.0
 11
99.922376169756944
 21
40.527458073817819
 31
0.0
  0
LINE
  5
2EF
  8
0
 39
5.0
 10
100.3863761697569
 20
40.529858073817827
 30
0.0
 11
100.1534761697569
 21
40.53315807381783
 31
0.0
  0
LINE
  5
2F0
  8
0
 39
5.0
 10
100.62077616975689
 20
40.517058073817822
 30
0.0
 11
100.3863761697569
 21
40.529858073817827
 31
0.0
  0
LINE
  5
2F1
  8
0
 39
5.0
 10
100.8555761697569
 20
40.494858073817831
 30
0.0
 11
100.62077616975689
 21
40.517058073817822
 31
0.0
  0
LINE
  5
2F2
  8
0
 39
5.0
 10
101.09037616975689
 20
40.46295807381783
 30
0.0
 11
100.8555761697569
 21
40.494858073817831
 31
0.0
  0
LINE
  5
2F3
  8
0
 39
5.0
 10
101.3239761697569
 20
40.42155807381782
 30
0.0
 11
101.09037616975689
 21
40.46295807381783
 31
0.0
  0
LINE
  5
2F4
  8
0
 39
5.0
 10
101.5557761697569
 20
40.37025807381783
 30
0.0
 11
101.3239761697569
 21
40.42155807381782
 31
0.0
  0
LINE
  5
2F5
  8
0
 39
5.0
 10
101.7849761697569
 20
40.309158073817827
 30
0.0
 11
101.5557761697569
 21
40.37025807381783
 31
0.0
  0
LINE
  5
2F6
  8
0
 39
5.0
 10
102.0108761697569
 20
40.237858073817819
 30
0.0
 11
101.7849761697569
 21
40.309158073817827
 31
0.0
  0
LINE
  5
2F7
  8
0
 39
5.0
 10
102.0108761697569
 20
40.237858073817819
 30
0.0
 11
102.0108761697569
 21
40.237858073817819
 31
0.0
  0
LINE
  5
2F8
  8
0
 39
5.0
 10
102.3696761697569
 20
40.237858073817819
 30
0.0
 11
100.3696761697569
 21
40.237858073817819
 31
0.0
  0
LINE
  5
2F9
  8
0
 10
89.869676169756957
 20
46.737858073817819
 30
0.0
 11
102.3696761697569
 21
46.737858073817819
 31
0.0
  0
LINE
  5
2FA
  8
0
 10
102.0108761697569
 20
40.237858073817819
 30
0.0
 11
98.429476169756938
 21
40.237858073817819
 31
0.0
  0
LINE
  5
2FB
  8
0
 10
102.3696761697569
 20
46.737858073817819
 30
0.0
 11
102.3696761697569
 21
40.237858073817819
 31
0.0
  0
LINE
  5
2FC
  8
1
 10
100.3696761697569
 20
47.08785807381782
 30
0.0
 11
100.3696761697569
 21
40.237858073817819
 31
0.0
  0
LINE
  5
2FD
  8
0
 10
97.869676169756943
 20
46.737858073817819
 30
0.0
 11
97.869676169756943
 21
40.237858073817819
 31
0.0
  0
LINE
  5
2FE
  8
0
 10
99.769676169756949
 20
40.517483369740667
 30
0.0
 11
99.769676169756949
 21
46.737858073817819
 31
0.0
  0
LINE
  5
2FF
  8
0
 10
100.96967616975689
 20
46.737858073817819
 30
0.0
 11
100.96967616975689
 21
40.479356412829752
 31
0.0
  0
DIMENSION
  5
307
  8
2
  2
*D2
 10
97.869676169756943
 20
54.468082355343
 30
0.0
 11
89.869676169756957
 21
56.343082355343
 31
0.0
 70
     0
  1
%%c<>
 13
81.869676169756943
 23
46.737858073817819
 33
0.0
 14
97.869676169756943
 24
46.737858073817819
 34
0.0
  0
DIMENSION
  5
314
  8
2
  2
*D3
 10
100.3696761697569
 20
58.397807496021102
 30
0.0
 11
89.869676169756957
 21
60.272807496021102
 31
0.0
 70
     0
  1
%%c<>
 13
79.369676169756943
 23
47.08785807381782
 33
0.0
 14
100.3696761697569
 24
47.08785807381782
 34
0.0
  0
DIMENSION
  5
321
  8
2
  2
*D4
 10
102.3696761697569
 20
62.712035903007433
 30
0.0
 11
89.869676169756957
 21
64.587035903007433
 31
0.0
 70
     0
  1
%%c<>
 13
77.369676169756943
 23
46.737858073817819
 33
0.0
 14
102.3696761697569
 24
46.737858073817819
 34
0.0
  0
DIMENSION
  5
32E
  8
2
  2
*D5
 10
109.0757898771206
 20
40.237858073817819
 30
0.0
 11
107.2007898771205
 21
43.487858073817833
 31
0.0
 70
     0
 13
102.3696761697569
 23
46.737858073817819
 33
0.0
 14
102.3696761697569
 24
40.237858073817819
 34
0.0
 50
90.0
  0
ENDSEC
  0
EOF
