  0
SECTION
  2
HEADER
  9
$ACADVER
  1
AC1009
  9
$INSBASE
 10
0.0
 20
0.0
 30
0.0
  9
$EXTMIN
 10
65.693720750083443
 20
-20.191832904784789
 30
0.0
  9
$EXTMAX
 10
124.0671079508834
 20
84.74376899903578
 30
5.0
  9
$LIMMIN
 10
0.0
 20
0.0
  9
$LIMMAX
 10
420.0
 20
297.0
  9
$ORTHOMODE
 70
     0
  9
$REGENMODE
 70
     1
  9
$FILLMODE
 70
     1
  9
$QTEXTMODE
 70
     0
  9
$MIRRTEXT
 70
     1
  9
$DRAGMODE
 70
     2
  9
$LTSCALE
 40
0.3
  9
$OSMODE
 70
    37
  9
$ATTMODE
 70
     1
  9
$TEXTSIZE
 40
2.5
  9
$TRACEWID
 40
1.0
  9
$TEXTSTYLE
  7
STANDARD
  9
$CLAYER
  8
2
  9
$CELTYPE
  6
BYLAYER
  9
$CECOLOR
 62
   256
  9
$DIMSCALE
 40
1.0
  9
$DIMASZ
 40
2.5
  9
$DIMEXO
 40
0.625
  9
$DIMDLI
 40
3.75
  9
$DIMRND
 40
0.0
  9
$DIMDLE
 40
0.0
  9
$DIMEXE
 40
1.25
  9
$DIMTP
 40
0.0
  9
$DIMTM
 40
0.0
  9
$DIMTXT
 40
2.5
  9
$DIMCEN
 40
2.5
  9
$DIMTSZ
 40
0.0
  9
$DIMTOL
 70
     0
  9
$DIMLIM
 70
     0
  9
$DIMTIH
 70
     0
  9
$DIMTOH
 70
     0
  9
$DIMSE1
 70
     0
  9
$DIMSE2
 70
     0
  9
$DIMTAD
 70
     1
  9
$DIMZIN
 70
     8
  9
$DIMBLK
  1

  9
$DIMASO
 70
     1
  9
$DIMSHO
 70
     1
  9
$DIMPOST
  1

  9
$DIMAPOST
  1

  9
$DIMALT
 70
     0
  9
$DIMALTD
 70
     3
  9
$DIMALTF
 40
0.03937007874016
  9
$DIMLFAC
 40
1.0
  9
$DIMTOFL
 70
     1
  9
$DIMTVP
 40
0.0
  9
$DIMTIX
 70
     0
  9
$DIMSOXD
 70
     0
  9
$DIMSAH
 70
     0
  9
$DIMBLK1
  1

  9
$DIMBLK2
  1

  9
$DIMSTYLE
  2
ISO-25
  9
$DIMCLRD
 70
     0
  9
$DIMCLRE
 70
     0
  9
$DIMCLRT
 70
     0
  9
$DIMTFAC
 40
1.0
  9
$DIMGAP
 40
0.625
  9
$LUNITS
 70
     2
  9
$LUPREC
 70
     4
  9
$SKETCHINC
 40
1.0
  9
$FILLETRAD
 40
10.0
  9
$AUNITS
 70
     0
  9
$AUPREC
 70
     0
  9
$MENU
  1
.
  9
$ELEVATION
 40
0.0
  9
$PELEVATION
 40
0.0
  9
$THICKNESS
 40
0.0
  9
$LIMCHECK
 70
     0
  9
$BLIPMODE
 70
     0
  9
$CHAMFERA
 40
10.0
  9
$CHAMFERB
 40
10.0
  9
$SKPOLY
 70
     0
  9
$TDCREATE
 40
2453445.4328122912
  9
$TDUPDATE
 40
2453551.9156835652
  9
$TDINDWG
 40
0.0439964815
  9
$TDUSRTIMER
 40
0.0439963657
  9
$USRTIMER
 70
     1
  9
$ANGBASE
 50
0.0
  9
$ANGDIR
 70
     0
  9
$PDMODE
 70
     0
  9
$PDSIZE
 40
0.0
  9
$PLINEWID
 40
0.0
  9
$COORDS
 70
     1
  9
$SPLFRAME
 70
     0
  9
$SPLINETYPE
 70
     6
  9
$SPLINESEGS
 70
     8
  9
$ATTDIA
 70
     0
  9
$ATTREQ
 70
     1
  9
$HANDLING
 70
-16383
  9
$HANDSEED
  5
61B
  9
$SURFTAB1
 70
     6
  9
$SURFTAB2
 70
     6
  9
$SURFTYPE
 70
     6
  9
$SURFU
 70
     6
  9
$SURFV
 70
     6
  9
$UCSNAME
  2

  9
$UCSORG
 10
0.0
 20
0.0
 30
0.0
  9
$UCSXDIR
 10
1.0
 20
0.0
 30
0.0
  9
$UCSYDIR
 10
0.0
 20
1.0
 30
0.0
  9
$PUCSNAME
  2

  9
$PUCSORG
 10
0.0
 20
0.0
 30
0.0
  9
$PUCSXDIR
 10
1.0
 20
0.0
 30
0.0
  9
$PUCSYDIR
 10
0.0
 20
1.0
 30
0.0
  9
$USERI1
 70
     0
  9
$USERI2
 70
     0
  9
$USERI3
 70
     0
  9
$USERI4
 70
     0
  9
$USERI5
 70
     0
  9
$USERR1
 40
0.0
  9
$USERR2
 40
0.0
  9
$USERR3
 40
0.0
  9
$USERR4
 40
0.0
  9
$USERR5
 40
0.0
  9
$WORLDVIEW
 70
     1
  9
$SHADEDGE
 70
     3
  9
$SHADEDIF
 70
    70
  9
$TILEMODE
 70
     1
  9
$MAXACTVP
 70
    64
  9
$PLIMCHECK
 70
     0
  9
$PEXTMIN
 10
1.0000000000000000E+020
 20
1.0000000000000000E+020
 30
1.0000000000000000E+020
  9
$PEXTMAX
 10
-1.0000000000000000E+020
 20
-1.0000000000000000E+020
 30
-1.0000000000000000E+020
  9
$PLIMMIN
 10
0.0
 20
0.0
  9
$PLIMMAX
 10
420.0
 20
297.0
  9
$UNITMODE
 70
     0
  9
$VISRETAIN
 70
     1
  9
$PLINEGEN
 70
     0
  9
$PSLTSCALE
 70
     1
  0
ENDSEC
  0
SECTION
  2
TABLES
  0
TABLE
  2
VPORT
 70
     2
  0
VPORT
  2
*ACTIVE
 70
     0
 10
0.0
 20
0.0
 11
1.0
 21
1.0
 12
105.50075157169761
 22
32.862095674337887
 13
0.0
 23
0.0
 14
10.0
 24
10.0
 15
10.0
 25
10.0
 16
0.0
 26
0.0
 36
1.0
 17
0.0
 27
0.0
 37
0.0
 40
152.3658951097552
 41
2.5392405063291141
 42
50.0
 43
0.0
 44
0.0
 50
0.0
 51
0.0
 71
     0
 72
   100
 73
     1
 74
     3
 75
     0
 76
     0
 77
     0
 78
     0
  0
ENDTAB
  0
TABLE
  2
LTYPE
 70
     2
  0
LTYPE
  2
CONTINUOUS
 70
     0
  3
Solid line
 72
    65
 73
     0
 40
0.0
  0
LTYPE
  2
CENTER
 70
     0
  3
Center ____ _ ____ _ ____ _ ____ _ ____ _ ____
 72
    65
 73
     4
 40
50.799999999999997
 49
31.75
 49
-6.3499999999999988
 49
6.3499999999999988
 49
-6.3499999999999988
  0
ENDTAB
  0
TABLE
  2
LAYER
 70
     4
  0
LAYER
  2
0
 70
     0
 62
     7
  6
CONTINUOUS
  0
LAYER
  2
1
 70
     0
 62
     7
  6
CENTER
  0
LAYER
  2
2
 70
     0
 62
     7
  6
CONTINUOUS
  0
LAYER
  2
DEFPOINTS
 70
     0
 62
     7
  6
CONTINUOUS
  0
ENDTAB
  0
TABLE
  2
STYLE
 70
     3
  0
STYLE
  2
STANDARD
 70
     0
 40
0.0
 41
1.0
 50
0.0
 71
     0
 42
2.5
  3
txt
  4

  0
STYLE
  2
\U+00C9L\U+00C9R_\U+00C2S\U+00C2V\U+00C2B\U+00C2N
 70
     0
 40
1.0
 41
1.0
 50
0.0
 71
     0
 42
1.0
  3
\U+00E9l\U+00E9r \U+00E2S\U+00E2V\U+00E2b\U+00E2N
  4

  0
STYLE
  2

 70
     1
 40
0.0
 41
1.0
 50
0.0
 71
     0
 42
2.5
  3
ltypeshp.shx
  4

  0
ENDTAB
  0
TABLE
  2
VIEW
 70
     0
  0
ENDTAB
  0
TABLE
  2
UCS
 70
     0
  0
ENDTAB
  0
TABLE
  2
APPID
 70
     1
  0
APPID
  2
ACAD
 70
     0
  0
ENDTAB
  0
TABLE
  2
DIMSTYLE
 70
     2
  0
DIMSTYLE
  2
ISO-25
 70
     0
  3

  4

  5

  6

  7

 40
1.0
 41
2.5
 42
0.625
 43
3.75
 44
1.25
 45
0.0
 46
0.0
 47
0.0
 48
0.0
140
2.5
141
2.5
142
0.0
143
0.03937007874016
144
1.0
145
0.0
146
1.0
147
0.625
 71
     0
 72
     0
 73
     0
 74
     0
 75
     0
 76
     0
 77
     1
 78
     8
170
     0
171
     3
172
     1
173
     0
174
     0
175
     0
176
     0
177
     0
178
     0
  0
DIMSTYLE
  2
STANDARD
 70
     0
  3

  4

  5

  6

  7

 40
1.0
 41
0.18
 42
0.0625
 43
0.38
 44
0.18
 45
0.0
 46
0.0
 47
0.0
 48
0.0
140
0.18
141
0.09
142
0.0
143
25.399999999999999
144
1.0
145
0.0
146
1.0
147
0.09
 71
     0
 72
     0
 73
     1
 74
     1
 75
     0
 76
     0
 77
     0
 78
     0
170
     0
171
     2
172
     0
173
     0
174
     0
175
     0
176
     0
177
     0
178
     0
  0
ENDTAB
  0
ENDSEC
  0
SECTION
  2
BLOCKS
  0
BLOCK
  8
0
  2
$MODEL_SPACE
 70
     0
 10
0.0
 20
0.0
 30
0.0
  3
$MODEL_SPACE
  1

  0
ENDBLK
  5
21
  8
0
  0
BLOCK
 67
     1
  8
0
  2
$PAPER_SPACE
 70
     0
 10
0.0
 20
0.0
 30
0.0
  3
$PAPER_SPACE
  1

  0
ENDBLK
  5
1D
 67
     1
  8
0
  0
BLOCK
  8
0
  2
*D1
 70
     1
 10
0.0
 20
0.0
 30
0.0
  3
*D1
  1

  0
LINE
  5
59B
  8
2
 62
     0
 10
90.198817217875686
 20
62.068807409863908
 30
0.0
 11
90.198817217875686
 21
68.56491491028001
 31
0.0
  0
LINE
  5
59C
  8
2
 62
     0
 10
110.1988172178756
 20
62.066340409628353
 30
0.0
 11
110.1988172178756
 21
68.56491491028001
 31
0.0
  0
LINE
  5
59D
  8
2
 62
     0
 10
92.698817217875686
 20
67.31491491028001
 30
0.0
 11
107.6988172178756
 21
67.31491491028001
 31
0.0
  0
SOLID
  5
59E
  8
2
 62
     0
 10
92.698817217875686
 20
67.731581576946681
 30
0.0
 11
92.698817217875686
 21
66.898248243613338
 31
0.0
 12
90.198817217875686
 22
67.31491491028001
 32
0.0
 13
90.198817217875686
 23
67.31491491028001
 33
0.0
  0
SOLID
  5
59F
  8
2
 62
     0
 10
107.6988172178756
 20
67.731581576946681
 30
0.0
 11
107.6988172178756
 21
66.898248243613338
 31
0.0
 12
110.1988172178756
 22
67.31491491028001
 32
0.0
 13
110.1988172178756
 23
67.31491491028001
 33
0.0
  0
INSERT
  5
5A0
  8
2
  2
*U11
 10
0.0
 20
0.0
 30
0.0
  0
POINT
  5
5A1
  8
DEFPOINTS
 62
     0
 10
90.198817217875686
 20
61.443807409863908
 30
0.0
  0
POINT
  5
5A2
  8
DEFPOINTS
 62
     0
 10
110.1988172178756
 20
61.441340409628353
 30
0.0
  0
POINT
  5
5A3
  8
DEFPOINTS
 62
     0
 10
110.1988172178756
 20
67.31491491028001
 30
0.0
  0
ENDBLK
  5
50A
  8
0
  0
BLOCK
  8
0
  2
*D2
 70
     1
 10
0.0
 20
0.0
 30
0.0
  3
*D2
  1

  0
LINE
  5
5C1
  8
2
 62
     0
 10
87.948817217875657
 20
62.865538796725211
 30
0.0
 11
87.948817217875657
 21
78.096891943845975
 31
0.0
  0
LINE
  5
5C2
  8
2
 62
     0
 10
112.4488172178756
 20
62.865538796725211
 30
0.0
 11
112.4488172178756
 21
78.096891943845975
 31
0.0
  0
LINE
  5
5C3
  8
2
 62
     0
 10
90.448817217875657
 20
76.846891943845975
 30
0.0
 11
109.9488172178756
 21
76.846891943845975
 31
0.0
  0
SOLID
  5
5C4
  8
2
 62
     0
 10
90.448817217875657
 20
77.263558610512646
 30
0.0
 11
90.448817217875657
 21
76.430225277179304
 31
0.0
 12
87.948817217875657
 22
76.846891943845975
 32
0.0
 13
87.948817217875657
 23
76.846891943845975
 33
0.0
  0
SOLID
  5
5C5
  8
2
 62
     0
 10
109.9488172178756
 20
77.263558610512646
 30
0.0
 11
109.9488172178756
 21
76.430225277179304
 31
0.0
 12
112.4488172178756
 22
76.846891943845975
 32
0.0
 13
112.4488172178756
 23
76.846891943845975
 33
0.0
  0
INSERT
  5
5C6
  8
2
  2
*U14
 10
0.0
 20
0.0
 30
0.0
  0
POINT
  5
5C7
  8
DEFPOINTS
 62
     0
 10
87.948817217875657
 20
62.240538796725211
 30
0.0
  0
POINT
  5
5C8
  8
DEFPOINTS
 62
     0
 10
112.4488172178756
 20
62.240538796725211
 30
0.0
  0
POINT
  5
5C9
  8
DEFPOINTS
 62
     0
 10
112.4488172178756
 20
76.846891943845975
 30
0.0
  0
ENDBLK
  5
517
  8
0
  0
BLOCK
  8
0
  2
*D3
 70
     1
 10
0.0
 20
0.0
 30
0.0
  3
*D3
  1

  0
LINE
  5
5D4
  8
2
 62
     0
 10
87.198817217875671
 20
62.565538796725207
 30
0.0
 11
87.198817217875671
 21
73.372548518384889
 31
0.0
  0
LINE
  5
5D5
  8
2
 62
     0
 10
88.698817217875671
 20
62.5655387967252
 30
0.0
 11
88.698817217875671
 21
73.372548518384889
 31
0.0
  0
LINE
  5
5D6
  8
2
 62
     0
 10
84.698817217875671
 20
72.122548518384889
 30
0.0
 11
82.198817217875671
 21
72.122548518384889
 31
0.0
  0
LINE
  5
5D7
  8
2
 62
     0
 10
91.198817217875671
 20
72.122548518384889
 30
0.0
 11
104.9488172178756
 21
72.122548518384889
 31
0.0
  0
LINE
  5
5D8
  8
2
 62
     0
 10
87.198817217875671
 20
72.122548518384889
 30
0.0
 11
88.698817217875671
 21
72.122548518384889
 31
0.0
  0
SOLID
  5
5D9
  8
2
 62
     0
 10
84.698817217875671
 20
72.53921518505156
 30
0.0
 11
84.698817217875671
 21
71.705881851718217
 31
0.0
 12
87.198817217875671
 22
72.122548518384889
 32
0.0
 13
87.198817217875671
 23
72.122548518384889
 33
0.0
  0
SOLID
  5
5DA
  8
2
 62
     0
 10
91.198817217875671
 20
72.53921518505156
 30
0.0
 11
91.198817217875671
 21
71.705881851718217
 31
0.0
 12
88.698817217875671
 22
72.122548518384889
 32
0.0
 13
88.698817217875671
 23
72.122548518384889
 33
0.0
  0
INSERT
  5
5DB
  8
2
  2
*U16
 10
0.0
 20
0.0
 30
0.0
  0
POINT
  5
5DC
  8
DEFPOINTS
 62
     0
 10
87.198817217875671
 20
61.940538796725207
 30
0.0
  0
POINT
  5
5DD
  8
DEFPOINTS
 62
     0
 10
88.698817217875671
 20
61.9405387967252
 30
0.0
  0
POINT
  5
5DE
  8
DEFPOINTS
 62
     0
 10
88.698817217875671
 20
72.122548518384889
 30
0.0
  0
ENDBLK
  5
53B
  8
0
  0
BLOCK
  8
0
  2
*D4
 70
     1
 10
0.0
 20
0.0
 30
0.0
  3
*D4
  1

  0
LINE
  5
5CA
  8
2
 62
     0
 10
84.448817217875671
 20
62.065538796725207
 30
0.0
 11
84.448817217875671
 21
82.86876899903578
 31
0.0
  0
LINE
  5
5CB
  8
2
 62
     0
 10
115.9488172178756
 20
62.065538796725207
 30
0.0
 11
115.9488172178756
 21
82.86876899903578
 31
0.0
  0
LINE
  5
5CC
  8
2
 62
     0
 10
86.948817217875671
 20
81.61876899903578
 30
0.0
 11
113.4488172178756
 21
81.61876899903578
 31
0.0
  0
SOLID
  5
5CD
  8
2
 62
     0
 10
86.948817217875671
 20
82.035435665702437
 30
0.0
 11
86.948817217875671
 21
81.202102332369094
 31
0.0
 12
84.448817217875671
 22
81.61876899903578
 32
0.0
 13
84.448817217875671
 23
81.61876899903578
 33
0.0
  0
SOLID
  5
5CE
  8
2
 62
     0
 10
113.4488172178756
 20
82.035435665702437
 30
0.0
 11
113.4488172178756
 21
81.202102332369094
 31
0.0
 12
115.9488172178756
 22
81.61876899903578
 32
0.0
 13
115.9488172178756
 23
81.61876899903578
 33
0.0
  0
INSERT
  5
5CF
  8
2
  2
*U15
 10
0.0
 20
0.0
 30
0.0
  0
POINT
  5
5D0
  8
DEFPOINTS
 62
     0
 10
84.448817217875671
 20
61.440538796725207
 30
0.0
  0
POINT
  5
5D1
  8
DEFPOINTS
 62
     0
 10
115.9488172178756
 20
61.440538796725207
 30
0.0
  0
POINT
  5
5D2
  8
DEFPOINTS
 62
     0
 10
115.9488172178756
 20
81.61876899903578
 30
0.0
  0
ENDBLK
  5
548
  8
0
  0
BLOCK
  8
0
  2
*D5
 70
     1
 10
0.0
 20
0.0
 30
0.0
  3
*D5
  1

  0
LINE
  5
54C
  8
2
 62
     0
 10
84.323817217875671
 20
61.9405387967252
 30
0.0
 11
77.417947423701875
 21
61.940538796725207
 31
0.0
  0
LINE
  5
54D
  8
2
 62
     0
 10
84.323817217875671
 20
60.940538796725221
 30
0.0
 11
77.417947423701875
 21
60.940538796725221
 31
0.0
  0
LINE
  5
54E
  8
2
 62
     0
 10
78.667947423701875
 20
64.440538796725221
 30
0.0
 11
78.667947423701875
 21
66.940538796725221
 31
0.0
  0
LINE
  5
54F
  8
2
 62
     0
 10
78.667947423701875
 20
58.440538796725221
 30
0.0
 11
78.667947423701875
 21
53.857205463391892
 31
0.0
  0
LINE
  5
550
  8
2
 62
     0
 10
78.667947423701875
 20
61.940538796725207
 30
0.0
 11
78.667947423701875
 21
60.940538796725221
 31
0.0
  0
SOLID
  5
551
  8
2
 62
     0
 10
78.251280757035204
 20
64.440538796725221
 30
0.0
 11
79.084614090368561
 21
64.440538796725221
 31
0.0
 12
78.667947423701875
 22
61.940538796725207
 32
0.0
 13
78.667947423701875
 23
61.940538796725207
 33
0.0
  0
SOLID
  5
552
  8
2
 62
     0
 10
78.251280757035204
 20
58.440538796725221
 30
0.0
 11
79.084614090368561
 21
58.440538796725221
 31
0.0
 12
78.667947423701875
 22
60.940538796725221
 32
0.0
 13
78.667947423701875
 23
60.940538796725221
 33
0.0
  0
TEXT
  5
553
  8
2
 62
     0
 10
78.042947423701875
 20
54.482205463391892
 30
0.0
 40
2.5
  1
1
 50
90.0
  0
POINT
  5
554
  8
DEFPOINTS
 62
     0
 10
84.948817217875671
 20
61.9405387967252
 30
0.0
  0
POINT
  5
555
  8
DEFPOINTS
 62
     0
 10
84.948817217875671
 20
60.940538796725221
 30
0.0
  0
POINT
  5
556
  8
DEFPOINTS
 62
     0
 10
78.667947423701875
 20
60.940538796725221
 30
0.0
  0
ENDBLK
  5
558
  8
0
  0
BLOCK
  8
0
  2
*D6
 70
     1
 10
0.0
 20
0.0
 30
0.0
  3
*D6
  1

  0
LINE
  5
55B
  8
2
 62
     0
 10
84.323817217875671
 20
61.9405387967252
 30
0.0
 11
72.437664578291773
 21
61.940538796725207
 31
0.0
  0
LINE
  5
55C
  8
2
 62
     0
 10
84.573817217875686
 20
58.940338796725207
 30
0.0
 11
72.437664578291773
 21
58.940338796725221
 31
0.0
  0
LINE
  5
55D
  8
2
 62
     0
 10
73.687664578291773
 20
64.440538796725221
 30
0.0
 11
73.687664578291773
 21
66.940538796725221
 31
0.0
  0
LINE
  5
55E
  8
2
 62
     0
 10
73.687664578291773
 20
56.440338796725221
 30
0.0
 11
73.687664578291773
 21
53.940338796725221
 31
0.0
  0
LINE
  5
55F
  8
2
 62
     0
 10
73.687664578291773
 20
61.940538796725207
 30
0.0
 11
73.687664578291773
 21
58.940338796725221
 31
0.0
  0
SOLID
  5
560
  8
2
 62
     0
 10
73.270997911625116
 20
64.440538796725221
 30
0.0
 11
74.104331244958445
 21
64.440538796725221
 31
0.0
 12
73.687664578291773
 22
61.940538796725207
 32
0.0
 13
73.687664578291773
 23
61.940538796725207
 33
0.0
  0
SOLID
  5
561
  8
2
 62
     0
 10
73.270997911625116
 20
56.440338796725221
 30
0.0
 11
74.104331244958445
 21
56.440338796725221
 31
0.0
 12
73.687664578291773
 22
58.940338796725221
 32
0.0
 13
73.687664578291773
 23
58.940338796725221
 33
0.0
  0
TEXT
  5
562
  8
2
 62
     0
 10
73.062664578291773
 20
59.607105463391889
 30
0.0
 40
2.5
  1
3
 50
90.0
  0
POINT
  5
563
  8
DEFPOINTS
 62
     0
 10
84.948817217875671
 20
61.9405387967252
 30
0.0
  0
POINT
  5
564
  8
DEFPOINTS
 62
     0
 10
85.198817217875686
 20
58.940338796725207
 30
0.0
  0
POINT
  5
565
  8
DEFPOINTS
 62
     0
 10
73.687664578291773
 20
58.940338796725221
 30
0.0
  0
ENDBLK
  5
567
  8
0
  0
BLOCK
  8
0
  2
*D7
 70
     1
 10
0.0
 20
0.0
 30
0.0
  3
*D7
  1

  0
LINE
  5
56A
  8
2
 62
     0
 10
84.323817217875671
 20
61.9405387967252
 30
0.0
 11
67.568720750083443
 21
61.940538796725207
 31
0.0
  0
LINE
  5
56B
  8
2
 62
     0
 10
84.073817217875671
 20
55.940538796725221
 30
0.0
 11
67.568720750083443
 21
55.940538796725221
 31
0.0
  0
LINE
  5
56C
  8
2
 62
     0
 10
68.818720750083443
 20
64.440538796725221
 30
0.0
 11
68.818720750083443
 21
66.940538796725221
 31
0.0
  0
LINE
  5
56D
  8
2
 62
     0
 10
68.818720750083443
 20
53.440538796725221
 30
0.0
 11
68.818720750083443
 21
50.940538796725221
 31
0.0
  0
LINE
  5
56E
  8
2
 62
     0
 10
68.818720750083443
 20
61.940538796725207
 30
0.0
 11
68.818720750083443
 21
55.940538796725221
 31
0.0
  0
SOLID
  5
56F
  8
2
 62
     0
 10
68.402054083416786
 20
64.440538796725221
 30
0.0
 11
69.235387416750129
 21
64.440538796725221
 31
0.0
 12
68.818720750083443
 22
61.940538796725207
 32
0.0
 13
68.818720750083443
 23
61.940538796725207
 33
0.0
  0
SOLID
  5
570
  8
2
 62
     0
 10
68.402054083416786
 20
53.440538796725221
 30
0.0
 11
69.235387416750129
 21
53.440538796725221
 31
0.0
 12
68.818720750083443
 22
55.940538796725221
 32
0.0
 13
68.818720750083443
 23
55.940538796725221
 33
0.0
  0
TEXT
  5
571
  8
2
 62
     0
 10
68.193720750083443
 20
58.107205463391892
 30
0.0
 40
2.5
  1
6
 50
90.0
  0
POINT
  5
572
  8
DEFPOINTS
 62
     0
 10
84.948817217875671
 20
61.9405387967252
 30
0.0
  0
POINT
  5
573
  8
DEFPOINTS
 62
     0
 10
84.698817217875671
 20
55.940538796725221
 30
0.0
  0
POINT
  5
574
  8
DEFPOINTS
 62
     0
 10
68.818720750083443
 20
55.940538796725221
 30
0.0
  0
ENDBLK
  5
576
  8
0
  0
BLOCK
  8
0
  2
*D8
 70
     1
 10
0.0
 20
0.0
 30
0.0
  3
*D8
  1

  0
LINE
  5
5A4
  8
2
 62
     0
 10
91.198817217875671
 20
55.315538796725221
 30
0.0
 11
91.198817217875671
 21
47.453864454560197
 31
0.0
  0
LINE
  5
5A5
  8
2
 62
     0
 10
109.1988172178756
 20
55.315538796725221
 30
0.0
 11
109.1988172178756
 21
47.453864454560197
 31
0.0
  0
LINE
  5
5A6
  8
2
 62
     0
 10
93.698817217875671
 20
48.703864454560197
 30
0.0
 11
106.6988172178756
 21
48.703864454560197
 31
0.0
  0
SOLID
  5
5A7
  8
2
 62
     0
 10
93.698817217875671
 20
49.120531121226868
 30
0.0
 11
93.698817217875671
 21
48.28719778789354
 31
0.0
 12
91.198817217875671
 22
48.703864454560197
 32
0.0
 13
91.198817217875671
 23
48.703864454560197
 33
0.0
  0
SOLID
  5
5A8
  8
2
 62
     0
 10
106.6988172178756
 20
49.120531121226868
 30
0.0
 11
106.6988172178756
 21
48.28719778789354
 31
0.0
 12
109.1988172178756
 22
48.703864454560197
 32
0.0
 13
109.1988172178756
 23
48.703864454560197
 33
0.0
  0
INSERT
  5
5A9
  8
2
  2
*U12
 10
0.0
 20
0.0
 30
0.0
  0
POINT
  5
5AA
  8
DEFPOINTS
 62
     0
 10
91.198817217875671
 20
55.940538796725221
 30
0.0
  0
POINT
  5
5AB
  8
DEFPOINTS
 62
     0
 10
109.1988172178756
 20
55.940538796725221
 30
0.0
  0
POINT
  5
5AC
  8
DEFPOINTS
 62
     0
 10
109.1988172178756
 20
48.703864454560197
 30
0.0
  0
ENDBLK
  5
583
  8
0
  0
BLOCK
  8
0
  2
*D9
 70
     1
 10
0.0
 20
0.0
 30
0.0
  3
*D9
  1

  0
LINE
  5
5AD
  8
2
 62
     0
 10
84.698817217875671
 20
55.315538796725221
 30
0.0
 11
84.698817217875671
 21
42.583706136833278
 31
0.0
  0
LINE
  5
5AE
  8
2
 62
     0
 10
115.6988172178756
 20
55.315538796725221
 30
0.0
 11
115.6988172178756
 21
42.583706136833278
 31
0.0
  0
LINE
  5
5AF
  8
2
 62
     0
 10
87.198817217875671
 20
43.833706136833278
 30
0.0
 11
113.1988172178756
 21
43.833706136833278
 31
0.0
  0
SOLID
  5
5B0
  8
2
 62
     0
 10
87.198817217875671
 20
44.25037280349995
 30
0.0
 11
87.198817217875671
 21
43.417039470166621
 31
0.0
 12
84.698817217875671
 22
43.833706136833278
 32
0.0
 13
84.698817217875671
 23
43.833706136833278
 33
0.0
  0
SOLID
  5
5B1
  8
2
 62
     0
 10
113.1988172178756
 20
44.25037280349995
 30
0.0
 11
113.1988172178756
 21
43.417039470166621
 31
0.0
 12
115.6988172178756
 22
43.833706136833278
 32
0.0
 13
115.6988172178756
 23
43.833706136833278
 33
0.0
  0
INSERT
  5
5B2
  8
2
  2
*U13
 10
0.0
 20
0.0
 30
0.0
  0
POINT
  5
5B3
  8
DEFPOINTS
 62
     0
 10
84.698817217875671
 20
55.940538796725221
 30
0.0
  0
POINT
  5
5B4
  8
DEFPOINTS
 62
     0
 10
115.6988172178756
 20
55.940538796725221
 30
0.0
  0
POINT
  5
5B5
  8
DEFPOINTS
 62
     0
 10
115.6988172178756
 20
43.833706136833278
 30
0.0
  0
ENDBLK
  5
590
  8
0
  0
BLOCK
  8
0
  2
*U10
 70
     1
 10
0.0
 20
0.0
 30
0.0
  3
*U10
  1

  0
TEXT
  5
5F2
  8
2
 10
111.91385610628571
 20
29.681636538302701
 30
0.0
 40
2.5
  1
6-
  0
TEXT
  5
5F3
  8
2
 10
116.91385610628571
 20
29.681636538302701
 30
0.0
 40
2.5
  1
\U+2205
  0
TEXT
  5
5F4
  8
2
 10
119.41385610628571
 20
29.681636538302701
 30
0.0
 40
2.5
  1
1.5
  0
ENDBLK
  5
5F6
  8
0
  0
BLOCK
  8
0
  2
*U11
 70
     1
 10
0.0
 20
0.0
 30
0.0
  3
*U11
  1

  0
TEXT
  5
5F8
  8
2
 62
     0
 10
97.073817217875686
 20
67.93991491028001
 30
0.0
 40
2.5
  1
\U+2205
  0
TEXT
  5
5F9
  8
2
 62
     0
 10
99.573817217875686
 20
67.93991491028001
 30
0.0
 40
2.5
  1
20
  0
ENDBLK
  5
5FB
  8
0
  0
BLOCK
  8
0
  2
*U12
 70
     1
 10
0.0
 20
0.0
 30
0.0
  3
*U12
  1

  0
TEXT
  5
5FD
  8
2
 62
     0
 10
97.282150551209
 20
49.328864454560197
 30
0.0
 40
2.5
  1
\U+2205
  0
TEXT
  5
5FE
  8
2
 62
     0
 10
99.782150551209
 20
49.328864454560197
 30
0.0
 40
2.5
  1
18
  0
ENDBLK
  5
600
  8
0
  0
BLOCK
  8
0
  2
*U13
 70
     1
 10
0.0
 20
0.0
 30
0.0
  3
*U13
  1

  0
TEXT
  5
602
  8
2
 62
     0
 10
97.282150551209
 20
44.458706136833278
 30
0.0
 40
2.5
  1
\U+2205
  0
TEXT
  5
603
  8
2
 62
     0
 10
99.782150551209
 20
44.458706136833278
 30
0.0
 40
2.5
  1
31
  0
ENDBLK
  5
605
  8
0
  0
BLOCK
  8
0
  2
*U14
 70
     1
 10
0.0
 20
0.0
 30
0.0
  3
*U14
  1

  0
TEXT
  5
607
  8
2
 62
     0
 10
95.645930729864517
 20
77.471891943845975
 30
0.0
 40
2.5
  1
\U+2205
  0
TEXT
  5
608
  8
2
 62
     0
 10
98.145930729864517
 20
77.471891943845975
 30
0.0
 40
2.5
  1
24.5
  0
ENDBLK
  5
60A
  8
0
  0
BLOCK
  8
0
  2
*U15
 70
     1
 10
0.0
 20
0.0
 30
0.0
  3
*U15
  1

  0
TEXT
  5
60C
  8
2
 62
     0
 10
95.615483884542343
 20
82.24376899903578
 30
0.0
 40
2.5
  1
\U+2205
  0
TEXT
  5
60D
  8
2
 62
     0
 10
98.115483884542343
 20
82.24376899903578
 30
0.0
 40
2.5
  1
31.5
  0
ENDBLK
  5
60F
  8
0
  0
BLOCK
  8
0
  2
*U16
 70
     1
 10
0.0
 20
0.0
 30
0.0
  3
*U16
  1

  0
TEXT
  5
611
  8
2
 62
     0
 10
94.323817217875671
 20
72.747548518384889
 30
0.0
 40
2.5
  1
(
  0
TEXT
  5
612
  8
2
 62
     0
 10
95.990483884542328
 20
72.747548518384889
 30
0.0
 40
2.5
  1
\U+2205
  0
TEXT
  5
613
  8
2
 62
     0
 10
98.490483884542357
 20
72.747548518384889
 30
0.0
 40
2.5
  1
1.5)
  0
ENDBLK
  5
615
  8
0
  0
ENDSEC
  0
SECTION
  2
ENTITIES
  0
TEXT
  5
12A
  8
2
 10
83.547374836164863
 20
-20.191832904784778
 30
0.0
 40
2.5399440000000002
  1
No. 107.031.079.2
 51
-0.0000015352344868
  7
\U+00C9L\U+00C9R_\U+00C2S\U+00C2V\U+00C2B\U+00C2N
  0
LINE
  5
1F5
  8
0
 39
5.0
 10
85.059017217875677
 20
55.956738796725212
 30
0.0
 11
85.059017217875677
 21
55.956738796725212
 31
0.0
  0
LINE
  5
1F6
  8
0
 39
5.0
 10
85.044137150212862
 20
55.940538796725221
 30
0.0
 11
85.384817217875664
 21
56.311438796725213
 31
0.0
  0
LINE
  5
1F7
  8
0
 39
5.0
 10
85.384817217875664
 20
56.311438796725213
 30
0.0
 11
85.729417217875678
 21
56.615838796725207
 31
0.0
  0
LINE
  5
1F8
  8
0
 39
5.0
 10
85.729417217875678
 20
56.615838796725207
 30
0.0
 11
86.089517217875667
 21
56.870338796725207
 31
0.0
  0
LINE
  5
1F9
  8
0
 39
5.0
 10
86.089517217875667
 20
56.870338796725207
 30
0.0
 11
86.462417217875682
 21
57.075738796725219
 31
0.0
  0
LINE
  5
1FA
  8
0
 39
5.0
 10
86.462417217875682
 20
57.075738796725219
 30
0.0
 11
86.844517217875676
 21
57.232638796725212
 31
0.0
  0
LINE
  5
1FB
  8
0
 39
5.0
 10
86.844517217875676
 20
57.232638796725212
 30
0.0
 11
87.233117217875673
 21
57.341838796725213
 31
0.0
  0
LINE
  5
1FC
  8
0
 39
5.0
 10
87.233117217875673
 20
57.341838796725213
 30
0.0
 11
87.624917217875677
 21
57.403838796725211
 31
0.0
  0
LINE
  5
1FD
  8
0
 39
5.0
 10
87.624917217875677
 20
57.403838796725211
 30
0.0
 11
88.016917217875687
 21
57.419638796725209
 31
0.0
  0
LINE
  5
1FE
  8
0
 39
5.0
 10
88.016917217875687
 20
57.419638796725209
 30
0.0
 11
88.405817217875679
 21
57.389438796725223
 31
0.0
  0
LINE
  5
1FF
  8
0
 39
5.0
 10
88.405817217875679
 20
57.389438796725223
 30
0.0
 11
88.788817217875675
 21
57.31433879672521
 31
0.0
  0
LINE
  5
200
  8
0
 39
5.0
 10
88.788817217875675
 20
57.31433879672521
 30
0.0
 11
89.162617217875678
 21
57.194838796725207
 31
0.0
  0
LINE
  5
201
  8
0
 39
5.0
 10
89.162617217875678
 20
57.194838796725207
 30
0.0
 11
89.52441721787568
 21
57.031838796725211
 31
0.0
  0
LINE
  5
202
  8
0
 39
5.0
 10
89.52441721787568
 20
57.031838796725211
 30
0.0
 11
89.870617217875676
 21
56.825738796725219
 31
0.0
  0
LINE
  5
203
  8
0
 39
5.0
 10
89.870617217875676
 20
56.825738796725219
 30
0.0
 11
90.198617217875679
 21
56.577438796725218
 31
0.0
  0
LINE
  5
204
  8
0
 39
5.0
 10
90.198617217875679
 20
56.577438796725218
 30
0.0
 11
90.505017217875675
 21
56.287438796725212
 31
0.0
  0
LINE
  5
205
  8
0
 39
5.0
 10
90.505017217875675
 20
56.287438796725212
 30
0.0
 11
90.800831551108217
 21
55.940538796725207
 31
0.0
  0
LINE
  5
21A
  8
0
 39
5.0
 10
85.198817217875686
 20
58.940338796725207
 30
0.0
 11
85.750817217875664
 21
58.940338796725207
 31
0.0
  0
LINE
  5
21B
  8
0
 39
5.0
 10
85.750817217875664
 20
58.940338796725207
 30
0.0
 11
85.750817217875664
 21
58.940338796725207
 31
0.0
  0
LINE
  5
21C
  8
0
 39
5.0
 10
85.750817217875664
 20
58.940338796725207
 30
0.0
 11
85.874517217875677
 21
58.845838796725218
 31
0.0
  0
LINE
  5
21D
  8
0
 39
5.0
 10
85.874517217875677
 20
58.845838796725218
 30
0.0
 11
85.982217217875672
 21
58.753838796725212
 31
0.0
  0
LINE
  5
21E
  8
0
 39
5.0
 10
85.982217217875672
 20
58.753838796725212
 30
0.0
 11
86.073717217875682
 21
58.663338796725213
 31
0.0
  0
LINE
  5
21F
  8
0
 39
5.0
 10
86.073717217875682
 20
58.663338796725213
 30
0.0
 11
86.149217217875673
 21
58.573438796725213
 31
0.0
  0
LINE
  5
220
  8
0
 39
5.0
 10
86.149217217875673
 20
58.573438796725213
 30
0.0
 11
86.208117217875682
 21
58.482938796725207
 31
0.0
  0
LINE
  5
221
  8
0
 39
5.0
 10
86.208117217875682
 20
58.482938796725207
 30
0.0
 11
86.250717217875675
 21
58.391238796725219
 31
0.0
  0
LINE
  5
222
  8
0
 39
5.0
 10
86.250717217875675
 20
58.391238796725219
 30
0.0
 11
86.276717217875671
 21
58.297138796725207
 31
0.0
  0
LINE
  5
223
  8
0
 39
5.0
 10
86.276717217875671
 20
58.297138796725207
 30
0.0
 11
86.286017217875681
 21
58.20003879672521
 31
0.0
  0
LINE
  5
224
  8
0
 39
5.0
 10
86.286017217875681
 20
58.20003879672521
 30
0.0
 11
86.278417217875656
 21
58.098438796725212
 31
0.0
  0
LINE
  5
225
  8
0
 39
5.0
 10
86.278417217875656
 20
58.098438796725212
 30
0.0
 11
86.254017217875685
 21
57.991738796725222
 31
0.0
  0
LINE
  5
226
  8
0
 39
5.0
 10
86.254017217875685
 20
57.991738796725222
 30
0.0
 11
86.212617217875675
 21
57.879038796725212
 31
0.0
  0
LINE
  5
227
  8
0
 39
5.0
 10
86.212617217875675
 20
57.879038796725212
 30
0.0
 11
86.154217217875669
 21
57.75933879672521
 31
0.0
  0
LINE
  5
228
  8
0
 39
5.0
 10
86.154217217875669
 20
57.75933879672521
 30
0.0
 11
86.078517217875685
 21
57.631538796725209
 31
0.0
  0
LINE
  5
229
  8
0
 39
5.0
 10
86.078517217875685
 20
57.631538796725209
 30
0.0
 11
85.985517217875682
 21
57.494938796725208
 31
0.0
  0
LINE
  5
22A
  8
0
 39
5.0
 10
85.985517217875682
 20
57.494938796725208
 30
0.0
 11
85.875017217875666
 21
57.348338796725209
 31
0.0
  0
LINE
  5
22B
  8
0
 39
5.0
 10
85.875017217875666
 20
57.348338796725209
 30
0.0
 11
85.747217217875686
 21
57.191238796725223
 31
0.0
  0
LINE
  5
22F
  8
0
 39
5.0
 10
89.802617217875678
 20
57.854238796725213
 30
0.0
 11
89.802617217875678
 21
60.968738796725212
 31
0.0
  0
LINE
  5
230
  8
0
 39
5.0
 10
89.802617217875678
 20
60.968738796725212
 30
0.0
 11
89.802617217875678
 21
60.968738796725212
 31
0.0
  0
LINE
  5
231
  8
0
 39
5.0
 10
89.802617217875678
 20
60.968738796725212
 30
0.0
 11
89.904017217875676
 21
60.992338796725207
 31
0.0
  0
LINE
  5
232
  8
0
 39
5.0
 10
89.904017217875676
 20
60.992338796725207
 30
0.0
 11
89.989517217875687
 21
61.032838796725208
 31
0.0
  0
LINE
  5
233
  8
0
 39
5.0
 10
89.989517217875687
 20
61.032838796725208
 30
0.0
 11
90.059317217875659
 21
61.087438796725209
 31
0.0
  0
LINE
  5
234
  8
0
 39
5.0
 10
90.059317217875659
 20
61.087438796725209
 30
0.0
 11
90.114217217875677
 21
61.154038796725217
 31
0.0
  0
LINE
  5
235
  8
0
 39
5.0
 10
90.114217217875677
 20
61.154038796725217
 30
0.0
 11
90.154317217875672
 21
61.229738796725208
 31
0.0
  0
LINE
  5
236
  8
0
 39
5.0
 10
90.154317217875672
 20
61.229738796725208
 30
0.0
 11
90.180317217875682
 21
61.312138796725222
 31
0.0
  0
LINE
  5
237
  8
0
 39
5.0
 10
90.180317217875682
 20
61.312138796725222
 30
0.0
 11
90.198817217875686
 21
61.441340409628353
 31
0.0
  0
LINE
  5
239
  8
0
 39
5.0
 10
90.198817217875686
 20
61.443807409863908
 30
0.0
 11
90.178317217875673
 21
61.574438796725218
 31
0.0
  0
LINE
  5
23A
  8
0
 39
5.0
 10
90.178317217875673
 20
61.574438796725218
 30
0.0
 11
90.152517217875669
 21
61.65853879672521
 31
0.0
  0
LINE
  5
23B
  8
0
 39
5.0
 10
90.152517217875669
 20
61.65853879672521
 30
0.0
 11
90.114817217875682
 21
61.736738796725213
 31
0.0
  0
LINE
  5
23C
  8
0
 39
5.0
 10
90.114817217875682
 20
61.736738796725213
 30
0.0
 11
90.066017217875682
 21
61.80663879672521
 31
0.0
  0
LINE
  5
23D
  8
0
 39
5.0
 10
90.066017217875682
 20
61.80663879672521
 30
0.0
 11
90.006117217875669
 21
61.865438796725208
 31
0.0
  0
LINE
  5
23E
  8
0
 39
5.0
 10
90.006117217875669
 20
61.865438796725208
 30
0.0
 11
89.936117217875676
 21
61.911038796725208
 31
0.0
  0
LINE
  5
23F
  8
0
 39
5.0
 10
89.936117217875676
 20
61.911038796725208
 30
0.0
 11
89.856117217875678
 21
61.940538796725207
 31
0.0
  0
LINE
  5
277
  8
1
 10
100.1988172178756
 20
62.440538796725207
 30
0.0
 11
100.1988172178756
 21
55.428938796725213
 31
0.0
  0
LINE
  5
27D
  8
0
 10
84.948817217875671
 20
61.9405387967252
 30
0.0
 11
100.1988172178756
 21
61.940538796725207
 31
0.0
  0
LINE
  5
27E
  8
0
 10
89.802617217875678
 20
60.968738796725212
 30
0.0
 11
100.1988172178756
 21
60.968738796725212
 31
0.0
  0
LINE
  5
27F
  8
0
 10
89.802617217875678
 20
57.854238796725213
 30
0.0
 11
100.1988172178756
 21
57.854238796725213
 31
0.0
  0
LINE
  5
43F
  8
1
 10
100.1988172178756
 20
24.422320430773421
 30
0.0
 11
100.1988172178756
 21
-7.577679569226575
 31
0.0
  0
LINE
  5
440
  8
1
 10
116.1988172178756
 20
8.4223204307734232
 30
0.0
 11
84.198817217875657
 21
8.4223204307734232
 31
0.0
  0
CIRCLE
  5
442
  8
0
 10
100.1988172178756
 20
8.4223204307734232
 30
0.0
 40
15.75
  0
CIRCLE
  5
445
  8
0
 10
100.1988172178756
 20
8.4223204307734232
 30
0.0
 40
15.5
  0
CIRCLE
  5
446
  8
1
 10
100.1988172178756
 20
8.4223204307734232
 30
0.0
 40
12.25
  0
CIRCLE
  5
447
  8
0
 10
100.1988172178756
 20
8.4223204307734232
 30
0.0
 40
9.0
  0
CIRCLE
  5
459
  8
0
 10
106.3238172178756
 20
19.03113162713278
 30
0.0
 40
0.75
  0
CIRCLE
  5
45A
  8
0
 10
94.073817217875657
 20
-2.1864907655859578
 30
0.0
 40
0.75
  0
CIRCLE
  5
45D
  8
0
 10
94.073817217875671
 20
19.03113162713278
 30
0.0
 40
0.75
  0
CIRCLE
  5
45E
  8
0
 10
106.3238172178756
 20
-2.1864907655859578
 30
0.0
 40
0.75
  0
CIRCLE
  5
460
  8
0
 10
112.4488172178756
 20
8.4223204307734232
 30
0.0
 40
0.75
  0
CIRCLE
  5
461
  8
0
 10
87.948817217875657
 20
8.4223204307734232
 30
0.0
 40
0.75
  0
INSERT
  5
463
  8
2
  2
*U10
 10
0.0
 20
0.0
 30
0.0
  0
POLYLINE
  8
2
  5
616
  66
     1
 10
0.000000
 20
0.000000
 30
0.000000
  70
     8
  0
VERTEX
  8
2
  5
617
 10
106.324
 20
19.0311
 30
0.000000
  70
    32
  0
VERTEX
  8
2
  5
618
 10
111.512
 20
29.2747
 30
0.000000
  70
    32
  0
VERTEX
  8
2
  5
619
 10
124.067
 20
29.2747
 30
0.000000
  70
    32
  0
SEQEND
  8
2
  5
61A
  0
LINE
  5
477
  8
0
 10
90.198817217875686
 20
61.443807409863908
 30
0.0
 11
90.198817217875686
 21
61.441340409628353
 31
0.0
  0
LINE
  5
47C
  8
0
 10
87.198817217875671
 20
61.940538796725207
 30
0.0
 11
87.198817217875671
 21
57.332200196622281
 31
0.0
  0
LINE
  5
47D
  8
0
 10
88.698817217875671
 20
61.940538796725207
 30
0.0
 11
88.698817217875671
 21
57.33198631630745
 31
0.0
  0
LINE
  5
481
  8
0
 10
85.198817217875686
 20
58.940338796725207
 30
0.0
 11
85.198817217875686
 21
60.94500208272926
 31
0.0
  0
ARC
  5
48B
  8
0
 10
84.948817217875671
 20
61.440538796725207
 30
0.0
 40
0.5
 50
90.0
 51
270.0
  0
LINE
  5
48D
  8
0
 10
84.948817217875671
 20
60.940538796725221
 30
0.0
 11
85.198817217875686
 21
60.940538796725221
 31
0.0
  0
LINE
  5
4A4
  8
0
 10
84.698817217875671
 20
55.940538796725221
 30
0.0
 11
100.1988172178756
 21
55.940538796725221
 31
0.0
  0
LINE
  5
4AC
  8
0
 10
89.802617217875678
 20
57.854238796725213
 30
0.0
 11
91.198817217875671
 21
55.940538796725221
 31
0.0
  0
LINE
  5
4AF
  8
0
 10
85.747217217875686
 20
57.191238796725223
 30
0.0
 11
84.698817217875671
 21
55.940538796725221
 31
0.0
  0
LINE
  5
4B2
  8
1
 10
87.948817217875657
 20
62.240538796725211
 30
0.0
 11
87.948817217875657
 21
55.64053879672521
 31
0.0
  0
LINE
  5
4B8
  8
0
 39
5.0
 10
110.4615172178756
 20
61.911038796725208
 30
0.0
 11
110.54151721787559
 21
61.940538796725207
 31
0.0
  0
LINE
  5
4B9
  8
0
 39
5.0
 10
110.3915172178756
 20
61.865438796725208
 30
0.0
 11
110.4615172178756
 21
61.911038796725208
 31
0.0
  0
LINE
  5
4BA
  8
0
 39
5.0
 10
110.3316172178756
 20
61.80663879672521
 30
0.0
 11
110.3915172178756
 21
61.865438796725208
 31
0.0
  0
LINE
  5
4BB
  8
0
 39
5.0
 10
110.2828172178756
 20
61.736738796725213
 30
0.0
 11
110.3316172178756
 21
61.80663879672521
 31
0.0
  0
LINE
  5
4BC
  8
0
 39
5.0
 10
110.2451172178756
 20
61.65853879672521
 30
0.0
 11
110.2828172178756
 21
61.736738796725213
 31
0.0
  0
LINE
  5
4BD
  8
0
 39
5.0
 10
110.2193172178756
 20
61.574438796725218
 30
0.0
 11
110.2451172178756
 21
61.65853879672521
 31
0.0
  0
LINE
  5
4BE
  8
0
 39
5.0
 10
110.1988172178756
 20
61.443807409863908
 30
0.0
 11
110.2193172178756
 21
61.574438796725218
 31
0.0
  0
LINE
  5
4BF
  8
0
 39
5.0
 10
110.2173172178756
 20
61.312138796725222
 30
0.0
 11
110.1988172178756
 21
61.441340409628353
 31
0.0
  0
LINE
  5
4C0
  8
0
 39
5.0
 10
110.2433172178756
 20
61.229738796725208
 30
0.0
 11
110.2173172178756
 21
61.312138796725222
 31
0.0
  0
LINE
  5
4C1
  8
0
 39
5.0
 10
110.28341721787559
 20
61.154038796725217
 30
0.0
 11
110.2433172178756
 21
61.229738796725208
 31
0.0
  0
LINE
  5
4C2
  8
0
 39
5.0
 10
110.3383172178756
 20
61.087438796725209
 30
0.0
 11
110.28341721787559
 21
61.154038796725217
 31
0.0
  0
LINE
  5
4C3
  8
0
 39
5.0
 10
110.4081172178756
 20
61.032838796725208
 30
0.0
 11
110.3383172178756
 21
61.087438796725209
 31
0.0
  0
LINE
  5
4C4
  8
0
 39
5.0
 10
110.4936172178756
 20
60.992338796725207
 30
0.0
 11
110.4081172178756
 21
61.032838796725208
 31
0.0
  0
LINE
  5
4C5
  8
0
 39
5.0
 10
110.59501721787559
 20
60.968738796725212
 30
0.0
 11
110.4936172178756
 21
60.992338796725207
 31
0.0
  0
LINE
  5
4C6
  8
0
 39
5.0
 10
110.59501721787559
 20
60.968738796725212
 30
0.0
 11
110.59501721787559
 21
60.968738796725212
 31
0.0
  0
LINE
  5
4C7
  8
0
 39
5.0
 10
110.59501721787559
 20
57.854238796725213
 30
0.0
 11
110.59501721787559
 21
60.968738796725212
 31
0.0
  0
LINE
  5
4C8
  8
0
 39
5.0
 10
114.52261721787561
 20
57.348338796725209
 30
0.0
 11
114.6504172178756
 21
57.191238796725223
 31
0.0
  0
LINE
  5
4C9
  8
0
 39
5.0
 10
114.4121172178756
 20
57.494938796725208
 30
0.0
 11
114.52261721787561
 21
57.348338796725209
 31
0.0
  0
LINE
  5
4CA
  8
0
 39
5.0
 10
114.3191172178756
 20
57.631538796725209
 30
0.0
 11
114.4121172178756
 21
57.494938796725208
 31
0.0
  0
LINE
  5
4CB
  8
0
 39
5.0
 10
114.2434172178756
 20
57.75933879672521
 30
0.0
 11
114.3191172178756
 21
57.631538796725209
 31
0.0
  0
LINE
  5
4CC
  8
0
 39
5.0
 10
114.1850172178756
 20
57.879038796725212
 30
0.0
 11
114.2434172178756
 21
57.75933879672521
 31
0.0
  0
LINE
  5
4CD
  8
0
 39
5.0
 10
114.1436172178756
 20
57.991738796725222
 30
0.0
 11
114.1850172178756
 21
57.879038796725212
 31
0.0
  0
LINE
  5
4CE
  8
0
 39
5.0
 10
114.1192172178756
 20
58.098438796725212
 30
0.0
 11
114.1436172178756
 21
57.991738796725222
 31
0.0
  0
LINE
  5
4CF
  8
0
 39
5.0
 10
114.1116172178756
 20
58.20003879672521
 30
0.0
 11
114.1192172178756
 21
58.098438796725212
 31
0.0
  0
LINE
  5
4D0
  8
0
 39
5.0
 10
114.1209172178756
 20
58.297138796725207
 30
0.0
 11
114.1116172178756
 21
58.20003879672521
 31
0.0
  0
LINE
  5
4D1
  8
0
 39
5.0
 10
114.1469172178756
 20
58.391238796725219
 30
0.0
 11
114.1209172178756
 21
58.297138796725207
 31
0.0
  0
LINE
  5
4D2
  8
0
 39
5.0
 10
114.1895172178756
 20
58.482938796725207
 30
0.0
 11
114.1469172178756
 21
58.391238796725219
 31
0.0
  0
LINE
  5
4D3
  8
0
 39
5.0
 10
114.2484172178756
 20
58.573438796725213
 30
0.0
 11
114.1895172178756
 21
58.482938796725207
 31
0.0
  0
LINE
  5
4D4
  8
0
 39
5.0
 10
114.3239172178756
 20
58.663338796725213
 30
0.0
 11
114.2484172178756
 21
58.573438796725213
 31
0.0
  0
LINE
  5
4D5
  8
0
 39
5.0
 10
114.4154172178756
 20
58.753838796725212
 30
0.0
 11
114.3239172178756
 21
58.663338796725213
 31
0.0
  0
LINE
  5
4D6
  8
0
 39
5.0
 10
114.52311721787559
 20
58.845838796725218
 30
0.0
 11
114.4154172178756
 21
58.753838796725212
 31
0.0
  0
LINE
  5
4D7
  8
0
 39
5.0
 10
114.64681721787559
 20
58.940338796725207
 30
0.0
 11
114.52311721787559
 21
58.845838796725218
 31
0.0
  0
LINE
  5
4D8
  8
0
 39
5.0
 10
114.64681721787559
 20
58.940338796725207
 30
0.0
 11
114.64681721787559
 21
58.940338796725207
 31
0.0
  0
LINE
  5
4D9
  8
0
 39
5.0
 10
115.1988172178756
 20
58.940338796725207
 30
0.0
 11
114.64681721787559
 21
58.940338796725207
 31
0.0
  0
LINE
  5
4DA
  8
0
 39
5.0
 10
109.8926172178756
 20
56.287438796725212
 30
0.0
 11
109.5968028846431
 21
55.940538796725207
 31
0.0
  0
LINE
  5
4DB
  8
0
 39
5.0
 10
110.19901721787561
 20
56.577438796725218
 30
0.0
 11
109.8926172178756
 21
56.287438796725212
 31
0.0
  0
LINE
  5
4DC
  8
0
 39
5.0
 10
110.5270172178756
 20
56.825738796725219
 30
0.0
 11
110.19901721787561
 21
56.577438796725218
 31
0.0
  0
LINE
  5
4DD
  8
0
 39
5.0
 10
110.87321721787561
 20
57.031838796725211
 30
0.0
 11
110.5270172178756
 21
56.825738796725219
 31
0.0
  0
LINE
  5
4DE
  8
0
 39
5.0
 10
111.23501721787559
 20
57.194838796725207
 30
0.0
 11
110.87321721787561
 21
57.031838796725211
 31
0.0
  0
LINE
  5
4DF
  8
0
 39
5.0
 10
111.6088172178756
 20
57.31433879672521
 30
0.0
 11
111.23501721787559
 21
57.194838796725207
 31
0.0
  0
LINE
  5
4E0
  8
0
 39
5.0
 10
111.99181721787561
 20
57.389438796725223
 30
0.0
 11
111.6088172178756
 21
57.31433879672521
 31
0.0
  0
LINE
  5
4E1
  8
0
 39
5.0
 10
112.3807172178756
 20
57.419638796725209
 30
0.0
 11
111.99181721787561
 21
57.389438796725223
 31
0.0
  0
LINE
  5
4E2
  8
0
 39
5.0
 10
112.77271721787559
 20
57.403838796725211
 30
0.0
 11
112.3807172178756
 21
57.419638796725209
 31
0.0
  0
LINE
  5
4E3
  8
0
 39
5.0
 10
113.1645172178756
 20
57.341838796725213
 30
0.0
 11
112.77271721787559
 21
57.403838796725211
 31
0.0
  0
LINE
  5
4E4
  8
0
 39
5.0
 10
113.5531172178756
 20
57.232638796725212
 30
0.0
 11
113.1645172178756
 21
57.341838796725213
 31
0.0
  0
LINE
  5
4E5
  8
0
 39
5.0
 10
113.9352172178756
 20
57.075738796725219
 30
0.0
 11
113.5531172178756
 21
57.232638796725212
 31
0.0
  0
LINE
  5
4E6
  8
0
 39
5.0
 10
114.3081172178756
 20
56.870338796725207
 30
0.0
 11
113.9352172178756
 21
57.075738796725219
 31
0.0
  0
LINE
  5
4E7
  8
0
 39
5.0
 10
114.66821721787559
 20
56.615838796725207
 30
0.0
 11
114.3081172178756
 21
56.870338796725207
 31
0.0
  0
LINE
  5
4E8
  8
0
 39
5.0
 10
115.01281721787559
 20
56.311438796725213
 30
0.0
 11
114.66821721787559
 21
56.615838796725207
 31
0.0
  0
LINE
  5
4E9
  8
0
 39
5.0
 10
115.3534972855384
 20
55.940538796725221
 30
0.0
 11
115.01281721787559
 21
56.311438796725213
 31
0.0
  0
LINE
  5
4EA
  8
0
 39
5.0
 10
115.33861721787559
 20
55.956738796725212
 30
0.0
 11
115.33861721787559
 21
55.956738796725212
 31
0.0
  0
LINE
  5
4EB
  8
0
 10
115.4488172178756
 20
61.9405387967252
 30
0.0
 11
100.1988172178756
 21
61.940538796725207
 31
0.0
  0
LINE
  5
4EC
  8
0
 10
115.6988172178756
 20
55.940538796725221
 30
0.0
 11
100.1988172178756
 21
55.940538796725221
 31
0.0
  0
LINE
  5
4ED
  8
0
 10
110.59501721787559
 20
57.854238796725213
 30
0.0
 11
100.1988172178756
 21
57.854238796725213
 31
0.0
  0
LINE
  5
4EE
  8
0
 10
110.59501721787559
 20
60.968738796725212
 30
0.0
 11
100.1988172178756
 21
60.968738796725212
 31
0.0
  0
ARC
  5
4EF
  8
0
 10
115.4488172178756
 20
61.440538796725207
 30
0.0
 40
0.5
 50
270.0
 51
90.0
  0
LINE
  5
4F0
  8
0
 10
111.6988172178756
 20
61.940538796725207
 30
0.0
 11
111.6988172178756
 21
57.33198631630745
 31
0.0
  0
LINE
  5
4F1
  8
0
 10
113.1988172178756
 20
61.940538796725207
 30
0.0
 11
113.1988172178756
 21
57.332200196622281
 31
0.0
  0
LINE
  5
4F2
  8
1
 10
112.4488172178756
 20
62.240538796725211
 30
0.0
 11
112.4488172178756
 21
55.64053879672521
 31
0.0
  0
LINE
  5
4F3
  8
0
 10
114.6504172178756
 20
57.191238796725223
 30
0.0
 11
115.6988172178756
 21
55.940538796725221
 31
0.0
  0
LINE
  5
4F4
  8
0
 10
115.4488172178756
 20
60.940538796725221
 30
0.0
 11
115.1988172178756
 21
60.940538796725221
 31
0.0
  0
LINE
  5
4F5
  8
0
 10
115.1988172178756
 20
58.940338796725207
 30
0.0
 11
115.1988172178756
 21
60.94500208272926
 31
0.0
  0
LINE
  5
4F6
  8
0
 10
110.59501721787559
 20
57.854238796725213
 30
0.0
 11
109.1988172178756
 21
55.940538796725221
 31
0.0
  0
LINE
  5
4F7
  8
0
 10
110.1988172178756
 20
61.443807409863908
 30
0.0
 11
110.1988172178756
 21
61.441340409628353
 31
0.0
  0
DIMENSION
  5
4FE
  8
2
  2
*D1
 10
110.1988172178756
 20
67.31491491028001
 30
0.0
 11
100.1988172178756
 21
69.18991491028001
 31
0.0
 70
     0
  1
%%c<>
 13
90.198817217875686
 23
61.443807409863908
 33
0.0
 14
110.1988172178756
 24
61.441340409628353
 34
0.0
  0
DIMENSION
  5
50B
  8
2
  2
*D2
 10
112.4488172178756
 20
76.846891943845975
 30
0.0
 11
100.6459307298645
 21
76.846891943845975
 31
0.0
 70
   128
  1
%%c<>
 13
87.948817217875657
 23
62.240538796725211
 33
0.0
 14
112.4488172178756
 24
62.240538796725211
 34
0.0
  0
DIMENSION
  5
52D
  8
2
  2
*D3
 10
88.698817217875671
 20
72.122548518384889
 30
0.0
 11
99.323817217875671
 21
73.997548518384889
 31
0.0
 70
     0
  1
(%%c<>)
 13
87.198817217875671
 23
61.940538796725207
 33
0.0
 14
88.698817217875671
 24
61.9405387967252
 34
0.0
  0
DIMENSION
  5
53C
  8
2
  2
*D4
 10
115.9488172178756
 20
81.61876899903578
 30
0.0
 11
100.1988172178756
 21
83.49376899903578
 31
0.0
 70
     0
  1
%%c<>
 13
84.448817217875671
 23
61.440538796725207
 33
0.0
 14
115.9488172178756
 24
61.440538796725207
 34
0.0
  0
DIMENSION
  5
54A
  8
2
  2
*D5
 10
78.667947423701875
 20
60.940538796725221
 30
0.0
 11
76.792947423701875
 21
54.898872130058557
 31
0.0
 70
     0
 13
84.948817217875671
 23
61.9405387967252
 33
0.0
 14
84.948817217875671
 24
60.940538796725221
 34
0.0
 50
90.0
  0
DIMENSION
  5
559
  8
2
  2
*D6
 10
73.687664578291773
 20
58.940338796725221
 30
0.0
 11
71.812664578291773
 21
60.440438796725218
 31
0.0
 70
     0
 13
84.948817217875671
 23
61.9405387967252
 33
0.0
 14
85.198817217875686
 24
58.940338796725207
 34
0.0
 50
90.0
  0
DIMENSION
  5
568
  8
2
  2
*D7
 10
68.818720750083443
 20
55.940538796725221
 30
0.0
 11
66.943720750083443
 21
58.940538796725221
 31
0.0
 70
     0
 13
84.948817217875671
 23
61.9405387967252
 33
0.0
 14
84.698817217875671
 24
55.940538796725221
 34
0.0
 50
90.0
  0
DIMENSION
  5
577
  8
2
  2
*D8
 10
109.1988172178756
 20
48.703864454560197
 30
0.0
 11
100.1988172178756
 21
50.578864454560197
 31
0.0
 70
     0
  1
%%c<>
 13
91.198817217875671
 23
55.940538796725221
 33
0.0
 14
109.1988172178756
 24
55.940538796725221
 34
0.0
  0
DIMENSION
  5
584
  8
2
  2
*D9
 10
115.6988172178756
 20
43.833706136833278
 30
0.0
 11
100.1988172178756
 21
45.708706136833278
 31
0.0
 70
     0
  1
%%c<>
 13
84.698817217875671
 23
55.940538796725221
 33
0.0
 14
115.6988172178756
 24
55.940538796725221
 34
0.0
  0
ENDSEC
  0
EOF
