  0
SECTION
  2
HEADER
  9
$ACADVER
  1
AC1009
  9
$INSBASE
 10
0.0
 20
0.0
 30
0.0
  9
$EXTMIN
 10
80.198653345866902
 20
-7.7331428392005703
 30
0.0
  9
$EXTMAX
 10
139.0717841127632
 20
78.582273159442934
 30
5.0
  9
$LIMMIN
 10
0.0
 20
0.0
  9
$LIMMAX
 10
420.0
 20
297.0
  9
$ORTHOMODE
 70
     0
  9
$REGENMODE
 70
     1
  9
$FILLMODE
 70
     1
  9
$QTEXTMODE
 70
     0
  9
$MIRRTEXT
 70
     1
  9
$DRAGMODE
 70
     2
  9
$LTSCALE
 40
0.3
  9
$OSMODE
 70
    37
  9
$ATTMODE
 70
     1
  9
$TEXTSIZE
 40
2.5
  9
$TRACEWID
 40
1.0
  9
$TEXTSTYLE
  7
STANDARD
  9
$CLAYER
  8
2
  9
$CELTYPE
  6
BYLAYER
  9
$CECOLOR
 62
   256
  9
$DIMSCALE
 40
1.0
  9
$DIMASZ
 40
2.5
  9
$DIMEXO
 40
0.625
  9
$DIMDLI
 40
3.75
  9
$DIMRND
 40
0.0
  9
$DIMDLE
 40
0.0
  9
$DIMEXE
 40
1.25
  9
$DIMTP
 40
0.0
  9
$DIMTM
 40
0.0
  9
$DIMTXT
 40
2.5
  9
$DIMCEN
 40
2.5
  9
$DIMTSZ
 40
0.0
  9
$DIMTOL
 70
     0
  9
$DIMLIM
 70
     0
  9
$DIMTIH
 70
     0
  9
$DIMTOH
 70
     0
  9
$DIMSE1
 70
     0
  9
$DIMSE2
 70
     0
  9
$DIMTAD
 70
     1
  9
$DIMZIN
 70
     8
  9
$DIMBLK
  1

  9
$DIMASO
 70
     1
  9
$DIMSHO
 70
     1
  9
$DIMPOST
  1

  9
$DIMAPOST
  1

  9
$DIMALT
 70
     0
  9
$DIMALTD
 70
     3
  9
$DIMALTF
 40
0.03937007874016
  9
$DIMLFAC
 40
1.0
  9
$DIMTOFL
 70
     1
  9
$DIMTVP
 40
0.0
  9
$DIMTIX
 70
     0
  9
$DIMSOXD
 70
     0
  9
$DIMSAH
 70
     0
  9
$DIMBLK1
  1

  9
$DIMBLK2
  1

  9
$DIMSTYLE
  2
ISO-25
  9
$DIMCLRD
 70
     0
  9
$DIMCLRE
 70
     0
  9
$DIMCLRT
 70
     0
  9
$DIMTFAC
 40
1.0
  9
$DIMGAP
 40
0.625
  9
$LUNITS
 70
     2
  9
$LUPREC
 70
     4
  9
$SKETCHINC
 40
1.0
  9
$FILLETRAD
 40
10.0
  9
$AUNITS
 70
     0
  9
$AUPREC
 70
     0
  9
$MENU
  1
.
  9
$ELEVATION
 40
0.0
  9
$PELEVATION
 40
0.0
  9
$THICKNESS
 40
0.0
  9
$LIMCHECK
 70
     0
  9
$BLIPMODE
 70
     0
  9
$CHAMFERA
 40
10.0
  9
$CHAMFERB
 40
10.0
  9
$SKPOLY
 70
     0
  9
$TDCREATE
 40
2453445.43631096
  9
$TDUPDATE
 40
2453551.9171528011
  9
$TDINDWG
 40
0.0327840741
  9
$TDUSRTIMER
 40
0.0327839583
  9
$USRTIMER
 70
     1
  9
$ANGBASE
 50
0.0
  9
$ANGDIR
 70
     0
  9
$PDMODE
 70
     0
  9
$PDSIZE
 40
0.0
  9
$PLINEWID
 40
0.0
  9
$COORDS
 70
     1
  9
$SPLFRAME
 70
     0
  9
$SPLINETYPE
 70
     6
  9
$SPLINESEGS
 70
     8
  9
$ATTDIA
 70
     0
  9
$ATTREQ
 70
     1
  9
$HANDLING
 70
-16383
  9
$HANDSEED
  5
3EF
  9
$SURFTAB1
 70
     6
  9
$SURFTAB2
 70
     6
  9
$SURFTYPE
 70
     6
  9
$SURFU
 70
     6
  9
$SURFV
 70
     6
  9
$UCSNAME
  2

  9
$UCSORG
 10
0.0
 20
0.0
 30
0.0
  9
$UCSXDIR
 10
1.0
 20
0.0
 30
0.0
  9
$UCSYDIR
 10
0.0
 20
1.0
 30
0.0
  9
$PUCSNAME
  2

  9
$PUCSORG
 10
0.0
 20
0.0
 30
0.0
  9
$PUCSXDIR
 10
1.0
 20
0.0
 30
0.0
  9
$PUCSYDIR
 10
0.0
 20
1.0
 30
0.0
  9
$USERI1
 70
     0
  9
$USERI2
 70
     0
  9
$USERI3
 70
     0
  9
$USERI4
 70
     0
  9
$USERI5
 70
     0
  9
$USERR1
 40
0.0
  9
$USERR2
 40
0.0
  9
$USERR3
 40
0.0
  9
$USERR4
 40
0.0
  9
$USERR5
 40
0.0
  9
$WORLDVIEW
 70
     1
  9
$SHADEDGE
 70
     3
  9
$SHADEDIF
 70
    70
  9
$TILEMODE
 70
     1
  9
$MAXACTVP
 70
    64
  9
$PLIMCHECK
 70
     0
  9
$PEXTMIN
 10
1.0000000000000000E+020
 20
1.0000000000000000E+020
 30
1.0000000000000000E+020
  9
$PEXTMAX
 10
-1.0000000000000000E+020
 20
-1.0000000000000000E+020
 30
-1.0000000000000000E+020
  9
$PLIMMIN
 10
0.0
 20
0.0
  9
$PLIMMAX
 10
420.0
 20
297.0
  9
$UNITMODE
 70
     0
  9
$VISRETAIN
 70
     1
  9
$PLINEGEN
 70
     0
  9
$PSLTSCALE
 70
     1
  0
ENDSEC
  0
SECTION
  2
TABLES
  0
TABLE
  2
VPORT
 70
     2
  0
VPORT
  2
*ACTIVE
 70
     0
 10
0.0
 20
0.0
 11
1.0
 21
1.0
 12
102.4530445742672
 22
35.046640023574831
 13
0.0
 23
0.0
 14
10.0
 24
10.0
 15
10.0
 25
10.0
 16
0.0
 26
0.0
 36
1.0
 17
0.0
 27
0.0
 37
0.0
 40
110.2471573877654
 41
2.5392405063291141
 42
50.0
 43
0.0
 44
0.0
 50
0.0
 51
0.0
 71
     0
 72
   100
 73
     1
 74
     3
 75
     0
 76
     0
 77
     0
 78
     0
  0
ENDTAB
  0
TABLE
  2
LTYPE
 70
     2
  0
LTYPE
  2
CONTINUOUS
 70
     0
  3
Solid line
 72
    65
 73
     0
 40
0.0
  0
LTYPE
  2
CENTER
 70
     0
  3
Center ____ _ ____ _ ____ _ ____ _ ____ _ ____
 72
    65
 73
     4
 40
50.799999999999997
 49
31.75
 49
-6.3499999999999988
 49
6.3499999999999988
 49
-6.3499999999999988
  0
ENDTAB
  0
TABLE
  2
LAYER
 70
     4
  0
LAYER
  2
0
 70
     0
 62
     7
  6
CONTINUOUS
  0
LAYER
  2
1
 70
     0
 62
     7
  6
CENTER
  0
LAYER
  2
2
 70
     0
 62
     7
  6
CONTINUOUS
  0
LAYER
  2
DEFPOINTS
 70
     0
 62
     7
  6
CONTINUOUS
  0
ENDTAB
  0
TABLE
  2
STYLE
 70
     3
  0
STYLE
  2
STANDARD
 70
     0
 40
0.0
 41
1.0
 50
0.0
 71
     0
 42
2.5
  3
txt
  4

  0
STYLE
  2
\U+00C9L\U+00C9R_\U+00C2S\U+00C2V\U+00C2B\U+00C2N
 70
     0
 40
1.0
 41
1.0
 50
0.0
 71
     0
 42
1.0
  3
\U+00E9l\U+00E9r \U+00E2S\U+00E2V\U+00E2b\U+00E2N
  4

  0
STYLE
  2

 70
     1
 40
0.0
 41
1.0
 50
0.0
 71
     0
 42
2.5
  3
ltypeshp.shx
  4

  0
ENDTAB
  0
TABLE
  2
VIEW
 70
     0
  0
ENDTAB
  0
TABLE
  2
UCS
 70
     0
  0
ENDTAB
  0
TABLE
  2
APPID
 70
     1
  0
APPID
  2
ACAD
 70
     0
  0
ENDTAB
  0
TABLE
  2
DIMSTYLE
 70
     2
  0
DIMSTYLE
  2
ISO-25
 70
     0
  3

  4

  5

  6

  7

 40
1.0
 41
2.5
 42
0.625
 43
3.75
 44
1.25
 45
0.0
 46
0.0
 47
0.0
 48
0.0
140
2.5
141
2.5
142
0.0
143
0.03937007874016
144
1.0
145
0.0
146
1.0
147
0.625
 71
     0
 72
     0
 73
     0
 74
     0
 75
     0
 76
     0
 77
     1
 78
     8
170
     0
171
     3
172
     1
173
     0
174
     0
175
     0
176
     0
177
     0
178
     0
  0
DIMSTYLE
  2
STANDARD
 70
     0
  3

  4

  5

  6

  7

 40
1.0
 41
0.18
 42
0.0625
 43
0.38
 44
0.18
 45
0.0
 46
0.0
 47
0.0
 48
0.0
140
0.18
141
0.09
142
0.0
143
25.399999999999999
144
1.0
145
0.0
146
1.0
147
0.09
 71
     0
 72
     0
 73
     1
 74
     1
 75
     0
 76
     0
 77
     0
 78
     0
170
     0
171
     2
172
     0
173
     0
174
     0
175
     0
176
     0
177
     0
178
     0
  0
ENDTAB
  0
ENDSEC
  0
SECTION
  2
BLOCKS
  0
BLOCK
  8
0
  2
$MODEL_SPACE
 70
     0
 10
0.0
 20
0.0
 30
0.0
  3
$MODEL_SPACE
  1

  0
ENDBLK
  5
21
  8
0
  0
BLOCK
 67
     1
  8
0
  2
$PAPER_SPACE
 70
     0
 10
0.0
 20
0.0
 30
0.0
  3
$PAPER_SPACE
  1

  0
ENDBLK
  5
1D
 67
     1
  8
0
  0
BLOCK
  8
0
  2
*D1
 70
     1
 10
0.0
 20
0.0
 30
0.0
  3
*D1
  1

  0
LINE
  5
395
  8
2
 62
     0
 10
92.858374920205449
 20
60.609103054836091
 30
0.0
 11
92.858374920205449
 21
67.695542253764415
 31
0.0
  0
LINE
  5
396
  8
2
 62
     0
 10
110.35837492020541
 20
60.609103054836091
 30
0.0
 11
110.35837492020541
 21
67.695542253764415
 31
0.0
  0
LINE
  5
397
  8
2
 62
     0
 10
95.358374920205449
 20
66.445542253764415
 30
0.0
 11
107.85837492020541
 21
66.445542253764415
 31
0.0
  0
SOLID
  5
398
  8
2
 62
     0
 10
95.358374920205449
 20
66.862208920431087
 30
0.0
 11
95.358374920205449
 21
66.028875587097744
 31
0.0
 12
92.858374920205449
 22
66.445542253764415
 32
0.0
 13
92.858374920205449
 23
66.445542253764415
 33
0.0
  0
SOLID
  5
399
  8
2
 62
     0
 10
107.85837492020541
 20
66.862208920431087
 30
0.0
 11
107.85837492020541
 21
66.028875587097744
 31
0.0
 12
110.35837492020541
 22
66.445542253764415
 32
0.0
 13
110.35837492020541
 23
66.445542253764415
 33
0.0
  0
INSERT
  5
39A
  8
2
  2
*U12
 10
0.0
 20
0.0
 30
0.0
  0
POINT
  5
39B
  8
DEFPOINTS
 62
     0
 10
92.858374920205449
 20
59.984103054836091
 30
0.0
  0
POINT
  5
39C
  8
DEFPOINTS
 62
     0
 10
110.35837492020541
 20
59.984103054836091
 30
0.0
  0
POINT
  5
39D
  8
DEFPOINTS
 62
     0
 10
110.35837492020541
 20
66.445542253764415
 30
0.0
  0
ENDBLK
  5
31A
  8
0
  0
BLOCK
  8
0
  2
*D2
 70
     1
 10
0.0
 20
0.0
 30
0.0
  3
*D2
  1

  0
LINE
  5
38C
  8
2
 62
     0
 10
90.358374920205449
 20
60.609103054836098
 30
0.0
 11
90.358374920205449
 21
72.049208699742735
 31
0.0
  0
LINE
  5
38D
  8
2
 62
     0
 10
112.85837492020541
 20
60.609103054836098
 30
0.0
 11
112.85837492020541
 21
72.049208699742735
 31
0.0
  0
LINE
  5
38E
  8
2
 62
     0
 10
92.858374920205449
 20
70.799208699742735
 30
0.0
 11
110.35837492020541
 21
70.799208699742735
 31
0.0
  0
SOLID
  5
38F
  8
2
 62
     0
 10
92.858374920205449
 20
71.215875366409406
 30
0.0
 11
92.858374920205449
 21
70.382542033076064
 31
0.0
 12
90.358374920205449
 22
70.799208699742735
 32
0.0
 13
90.358374920205449
 23
70.799208699742735
 33
0.0
  0
SOLID
  5
390
  8
2
 62
     0
 10
110.35837492020541
 20
71.215875366409406
 30
0.0
 11
110.35837492020541
 21
70.382542033076064
 31
0.0
 12
112.85837492020541
 22
70.799208699742735
 32
0.0
 13
112.85837492020541
 23
70.799208699742735
 33
0.0
  0
INSERT
  5
391
  8
2
  2
*U11
 10
0.0
 20
0.0
 30
0.0
  0
POINT
  5
392
  8
DEFPOINTS
 62
     0
 10
90.358374920205449
 20
59.984103054836098
 30
0.0
  0
POINT
  5
393
  8
DEFPOINTS
 62
     0
 10
112.85837492020541
 20
59.984103054836098
 30
0.0
  0
POINT
  5
394
  8
DEFPOINTS
 62
     0
 10
112.85837492020541
 20
70.799208699742735
 30
0.0
  0
ENDBLK
  5
327
  8
0
  0
BLOCK
  8
0
  2
*D3
 70
     1
 10
0.0
 20
0.0
 30
0.0
  3
*D3
  1

  0
LINE
  5
383
  8
2
 62
     0
 10
85.358374920205449
 20
60.609103054836091
 30
0.0
 11
85.358374920205449
 21
76.707273159442934
 31
0.0
  0
LINE
  5
384
  8
2
 62
     0
 10
117.85837492020541
 20
60.609103054836091
 30
0.0
 11
117.85837492020541
 21
76.707273159442934
 31
0.0
  0
LINE
  5
385
  8
2
 62
     0
 10
87.858374920205449
 20
75.457273159442934
 30
0.0
 11
115.35837492020541
 21
75.457273159442934
 31
0.0
  0
SOLID
  5
386
  8
2
 62
     0
 10
87.858374920205449
 20
75.873939826109606
 30
0.0
 11
87.858374920205449
 21
75.040606492776263
 31
0.0
 12
85.358374920205449
 22
75.457273159442934
 32
0.0
 13
85.358374920205449
 23
75.457273159442934
 33
0.0
  0
SOLID
  5
387
  8
2
 62
     0
 10
115.35837492020541
 20
75.873939826109606
 30
0.0
 11
115.35837492020541
 21
75.040606492776263
 31
0.0
 12
117.85837492020541
 22
75.457273159442934
 32
0.0
 13
117.85837492020541
 23
75.457273159442934
 33
0.0
  0
INSERT
  5
388
  8
2
  2
*U10
 10
0.0
 20
0.0
 30
0.0
  0
POINT
  5
389
  8
DEFPOINTS
 62
     0
 10
85.358374920205449
 20
59.984103054836091
 30
0.0
  0
POINT
  5
38A
  8
DEFPOINTS
 62
     0
 10
117.85837492020541
 20
59.984103054836091
 30
0.0
  0
POINT
  5
38B
  8
DEFPOINTS
 62
     0
 10
117.85837492020541
 20
75.457273159442934
 30
0.0
  0
ENDBLK
  5
334
  8
0
  0
BLOCK
  8
0
  2
*D4
 70
     1
 10
0.0
 20
0.0
 30
0.0
  3
*D4
  1

  0
LINE
  5
337
  8
2
 62
     0
 10
118.48337492020541
 20
59.984103054836091
 30
0.0
 11
129.6057966626185
 21
59.984103054836091
 31
0.0
  0
LINE
  5
338
  8
2
 62
     0
 10
118.48337492020541
 20
56.984103054836091
 30
0.0
 11
129.6057966626185
 21
56.984103054836091
 31
0.0
  0
LINE
  5
339
  8
2
 62
     0
 10
128.3557966626185
 20
62.484103054836091
 30
0.0
 11
128.3557966626185
 21
64.984103054836083
 31
0.0
  0
LINE
  5
33A
  8
2
 62
     0
 10
128.3557966626185
 20
54.484103054836091
 30
0.0
 11
128.3557966626185
 21
51.984103054836091
 31
0.0
  0
LINE
  5
33B
  8
2
 62
     0
 10
128.3557966626185
 20
59.984103054836091
 30
0.0
 11
128.3557966626185
 21
56.984103054836091
 31
0.0
  0
SOLID
  5
33C
  8
2
 62
     0
 10
127.9391299959518
 20
62.484103054836091
 30
0.0
 11
128.77246332928519
 21
62.484103054836091
 31
0.0
 12
128.3557966626185
 22
59.984103054836091
 32
0.0
 13
128.3557966626185
 23
59.984103054836091
 33
0.0
  0
SOLID
  5
33D
  8
2
 62
     0
 10
127.9391299959518
 20
54.484103054836091
 30
0.0
 11
128.77246332928519
 21
54.484103054836091
 31
0.0
 12
128.3557966626185
 22
56.984103054836091
 32
0.0
 13
128.3557966626185
 23
56.984103054836091
 33
0.0
  0
TEXT
  5
33E
  8
2
 62
     0
 10
127.7307966626185
 20
57.65076972150279
 30
0.0
 40
2.5
  1
3
 50
90.0
  0
POINT
  5
33F
  8
DEFPOINTS
 62
     0
 10
117.85837492020541
 20
59.984103054836091
 30
0.0
  0
POINT
  5
340
  8
DEFPOINTS
 62
     0
 10
117.85837492020541
 20
56.984103054836091
 30
0.0
  0
POINT
  5
341
  8
DEFPOINTS
 62
     0
 10
128.3557966626185
 20
56.984103054836091
 30
0.0
  0
ENDBLK
  5
343
  8
0
  0
BLOCK
  8
0
  2
*D5
 70
     1
 10
0.0
 20
0.0
 30
0.0
  3
*D5
  1

  0
LINE
  5
346
  8
2
 62
     0
 10
118.48337492020541
 20
59.984103054836091
 30
0.0
 11
133.99582019745981
 21
59.984103054836091
 31
0.0
  0
LINE
  5
347
  8
2
 62
     0
 10
115.65377492020539
 20
54.484103054836119
 30
0.0
 11
133.99582019745981
 21
54.484103054836119
 31
0.0
  0
LINE
  5
348
  8
2
 62
     0
 10
132.74582019745981
 20
62.484103054836091
 30
0.0
 11
132.74582019745981
 21
64.984103054836083
 31
0.0
  0
LINE
  5
349
  8
2
 62
     0
 10
132.74582019745981
 20
51.984103054836119
 30
0.0
 11
132.74582019745981
 21
43.234103054836112
 31
0.0
  0
LINE
  5
34A
  8
2
 62
     0
 10
132.74582019745981
 20
59.984103054836091
 30
0.0
 11
132.74582019745981
 21
54.484103054836119
 31
0.0
  0
SOLID
  5
34B
  8
2
 62
     0
 10
132.32915353079309
 20
62.484103054836091
 30
0.0
 11
133.16248686412641
 21
62.484103054836091
 31
0.0
 12
132.74582019745981
 22
59.984103054836091
 32
0.0
 13
132.74582019745981
 23
59.984103054836091
 33
0.0
  0
SOLID
  5
34C
  8
2
 62
     0
 10
132.32915353079309
 20
51.984103054836119
 30
0.0
 11
133.16248686412641
 21
51.984103054836119
 31
0.0
 12
132.74582019745981
 22
54.484103054836119
 32
0.0
 13
132.74582019745981
 23
54.484103054836119
 33
0.0
  0
TEXT
  5
34D
  8
2
 62
     0
 10
132.12082019745981
 20
43.85910305483614
 30
0.0
 40
2.5
  1
5.5
 50
90.0
  0
POINT
  5
34E
  8
DEFPOINTS
 62
     0
 10
117.85837492020541
 20
59.984103054836091
 30
0.0
  0
POINT
  5
34F
  8
DEFPOINTS
 62
     0
 10
115.02877492020539
 20
54.484103054836119
 30
0.0
  0
POINT
  5
350
  8
DEFPOINTS
 62
     0
 10
132.74582019745981
 20
54.484103054836119
 30
0.0
  0
ENDBLK
  5
352
  8
0
  0
BLOCK
  8
0
  2
*D6
 70
     1
 10
0.0
 20
0.0
 30
0.0
  3
*D6
  1

  0
LINE
  5
355
  8
2
 62
     0
 10
118.48337492020541
 20
59.984103054836098
 30
0.0
 11
139.0717841127632
 21
59.984103054836098
 31
0.0
  0
LINE
  5
356
  8
2
 62
     0
 10
118.23337492020541
 20
51.984103054836091
 30
0.0
 11
139.0717841127632
 21
51.984103054836091
 31
0.0
  0
LINE
  5
357
  8
2
 62
     0
 10
137.8217841127632
 20
57.484103054836098
 30
0.0
 11
137.8217841127632
 21
54.484103054836091
 31
0.0
  0
SOLID
  5
358
  8
2
 62
     0
 10
137.40511744609651
 20
57.484103054836098
 30
0.0
 11
138.2384507794298
 21
57.484103054836098
 31
0.0
 12
137.8217841127632
 22
59.984103054836098
 32
0.0
 13
137.8217841127632
 23
59.984103054836098
 33
0.0
  0
SOLID
  5
359
  8
2
 62
     0
 10
137.40511744609651
 20
54.484103054836091
 30
0.0
 11
138.2384507794298
 21
54.484103054836091
 31
0.0
 12
137.8217841127632
 22
51.984103054836091
 32
0.0
 13
137.8217841127632
 23
51.984103054836091
 33
0.0
  0
TEXT
  5
35A
  8
2
 62
     0
 10
137.1967841127632
 20
55.15076972150279
 30
0.0
 40
2.5
  1
8
 50
90.0
  0
POINT
  5
35B
  8
DEFPOINTS
 62
     0
 10
117.85837492020541
 20
59.984103054836098
 30
0.0
  0
POINT
  5
35C
  8
DEFPOINTS
 62
     0
 10
117.60837492020541
 20
51.984103054836091
 30
0.0
  0
POINT
  5
35D
  8
DEFPOINTS
 62
     0
 10
137.8217841127632
 20
51.984103054836091
 30
0.0
  0
ENDBLK
  5
35F
  8
0
  0
BLOCK
  8
0
  2
*D7
 70
     1
 10
0.0
 20
0.0
 30
0.0
  3
*D7
  1

  0
LINE
  5
39E
  8
2
 62
     0
 10
88.108374920205435
 20
53.859103054836091
 30
0.0
 11
88.108374920205435
 21
44.31696454294763
 31
0.0
  0
LINE
  5
39F
  8
2
 62
     0
 10
115.10837492020541
 20
53.859103054836091
 30
0.0
 11
115.10837492020541
 21
44.31696454294763
 31
0.0
  0
LINE
  5
3A0
  8
2
 62
     0
 10
90.608374920205435
 20
45.56696454294763
 30
0.0
 11
112.60837492020541
 21
45.56696454294763
 31
0.0
  0
SOLID
  5
3A1
  8
2
 62
     0
 10
90.608374920205435
 20
45.983631209614288
 30
0.0
 11
90.608374920205435
 21
45.150297876280973
 31
0.0
 12
88.108374920205435
 22
45.56696454294763
 32
0.0
 13
88.108374920205435
 23
45.56696454294763
 33
0.0
  0
SOLID
  5
3A2
  8
2
 62
     0
 10
112.60837492020541
 20
45.983631209614288
 30
0.0
 11
112.60837492020541
 21
45.150297876280973
 31
0.0
 12
115.10837492020541
 22
45.56696454294763
 32
0.0
 13
115.10837492020541
 23
45.56696454294763
 33
0.0
  0
INSERT
  5
3A3
  8
2
  2
*U13
 10
0.0
 20
0.0
 30
0.0
  0
POINT
  5
3A4
  8
DEFPOINTS
 62
     0
 10
88.108374920205435
 20
54.484103054836091
 30
0.0
  0
POINT
  5
3A5
  8
DEFPOINTS
 62
     0
 10
115.10837492020541
 20
54.484103054836091
 30
0.0
  0
POINT
  5
3A6
  8
DEFPOINTS
 62
     0
 10
115.10837492020541
 20
45.56696454294763
 30
0.0
  0
ENDBLK
  5
375
  8
0
  0
BLOCK
  8
0
  2
*D8
 70
     1
 10
0.0
 20
0.0
 30
0.0
  3
*D8
  1

  0
LINE
  5
3A7
  8
2
 62
     0
 10
85.608374920205435
 20
51.359103054836091
 30
0.0
 11
85.608374920205435
 21
39.776691195643927
 31
0.0
  0
LINE
  5
3A8
  8
2
 62
     0
 10
117.60837492020541
 20
51.359103054836091
 30
0.0
 11
117.60837492020541
 21
39.776691195643927
 31
0.0
  0
LINE
  5
3A9
  8
2
 62
     0
 10
88.108374920205435
 20
41.026691195643927
 30
0.0
 11
115.10837492020541
 21
41.026691195643927
 31
0.0
  0
SOLID
  5
3AA
  8
2
 62
     0
 10
88.108374920205435
 20
41.443357862310592
 30
0.0
 11
88.108374920205435
 21
40.61002452897727
 31
0.0
 12
85.608374920205435
 22
41.026691195643927
 32
0.0
 13
85.608374920205435
 23
41.026691195643927
 33
0.0
  0
SOLID
  5
3AB
  8
2
 62
     0
 10
115.10837492020541
 20
41.443357862310592
 30
0.0
 11
115.10837492020541
 21
40.61002452897727
 31
0.0
 12
117.60837492020541
 22
41.026691195643927
 32
0.0
 13
117.60837492020541
 23
41.026691195643927
 33
0.0
  0
INSERT
  5
3AC
  8
2
  2
*U14
 10
0.0
 20
0.0
 30
0.0
  0
POINT
  5
3AD
  8
DEFPOINTS
 62
     0
 10
85.608374920205435
 20
51.984103054836091
 30
0.0
  0
POINT
  5
3AE
  8
DEFPOINTS
 62
     0
 10
117.60837492020541
 20
51.984103054836091
 30
0.0
  0
POINT
  5
3AF
  8
DEFPOINTS
 62
     0
 10
117.60837492020541
 20
41.026691195643927
 30
0.0
  0
ENDBLK
  5
382
  8
0
  0
BLOCK
  8
0
  2
*U9
 70
     1
 10
0.0
 20
0.0
 30
0.0
  3
*U9
  1

  0
TEXT
  5
3CC
  8
2
 10
115.6636246976675
 20
36.791952182694871
 30
0.0
 40
2.5
  1
6-
  0
TEXT
  5
3CD
  8
2
 10
120.6636246976674
 20
36.791952182694871
 30
0.0
 40
2.5
  1
\U+2205
  0
TEXT
  5
3CE
  8
2
 10
123.1636246976675
 20
36.791952182694871
 30
0.0
 40
2.5
  1
3.5
  0
ENDBLK
  5
3D0
  8
0
  0
BLOCK
  8
0
  2
*U10
 70
     1
 10
0.0
 20
0.0
 30
0.0
  3
*U10
  1

  0
TEXT
  5
3D2
  8
2
 62
     0
 10
96.608374920205449
 20
76.082273159442934
 30
0.0
 40
2.5
  1
\U+2205
  0
TEXT
  5
3D3
  8
2
 62
     0
 10
99.108374920205449
 20
76.082273159442934
 30
0.0
 40
2.5
  1
32.5
  0
ENDBLK
  5
3D5
  8
0
  0
BLOCK
  8
0
  2
*U11
 70
     1
 10
0.0
 20
0.0
 30
0.0
  3
*U11
  1

  0
TEXT
  5
3D7
  8
2
 62
     0
 10
96.608374920205449
 20
71.424208699742735
 30
0.0
 40
2.5
  1
\U+2205
  0
TEXT
  5
3D8
  8
2
 62
     0
 10
99.108374920205449
 20
71.424208699742735
 30
0.0
 40
2.5
  1
22.5
  0
ENDBLK
  5
3DA
  8
0
  0
BLOCK
  8
0
  2
*U12
 70
     1
 10
0.0
 20
0.0
 30
0.0
  3
*U12
  1

  0
TEXT
  5
3DC
  8
2
 62
     0
 10
97.025041586872121
 20
67.070542253764415
 30
0.0
 40
2.5
  1
\U+2205
  0
TEXT
  5
3DD
  8
2
 62
     0
 10
99.525041586872121
 20
67.070542253764415
 30
0.0
 40
2.5
  1
17.5
  0
ENDBLK
  5
3DF
  8
0
  0
BLOCK
  8
0
  2
*U13
 70
     1
 10
0.0
 20
0.0
 30
0.0
  3
*U13
  1

  0
TEXT
  5
3E1
  8
2
 62
     0
 10
98.275041586872121
 20
46.19196454294763
 30
0.0
 40
2.5
  1
\U+2205
  0
TEXT
  5
3E2
  8
2
 62
     0
 10
100.77504158687211
 20
46.19196454294763
 30
0.0
 40
2.5
  1
27
  0
ENDBLK
  5
3E4
  8
0
  0
BLOCK
  8
0
  2
*U14
 70
     1
 10
0.0
 20
0.0
 30
0.0
  3
*U14
  1

  0
TEXT
  5
3E6
  8
2
 62
     0
 10
98.275041586872121
 20
41.651691195643927
 30
0.0
 40
2.5
  1
\U+2205
  0
TEXT
  5
3E7
  8
2
 62
     0
 10
100.77504158687211
 20
41.651691195643927
 30
0.0
 40
2.5
  1
32
  0
ENDBLK
  5
3E9
  8
0
  0
ENDSEC
  0
SECTION
  2
ENTITIES
  0
TEXT
  5
BD
  8
2
 10
80.198653413924447
 20
-7.7331428392005668
 30
0.0
 40
2.5399440000000002
  1
No. 107.032.059.2
 51
-0.0000015352344868
  7
\U+00C9L\U+00C9R_\U+00C2S\U+00C2V\U+00C2B\U+00C2N
  0
LINE
  5
154
  8
0
 39
5.0
 10
101.60837492020541
 20
59.984103054836091
 30
0.0
 11
85.358374920205449
 21
59.984103054836098
 31
0.0
  0
LINE
  5
277
  8
1
 10
101.60837492020541
 20
36.068231078039076
 30
0.0
 11
101.60837492020541
 21
2.8682310780390798
 31
0.0
  0
LINE
  5
278
  8
1
 10
118.2083749202054
 20
19.468231078039079
 30
0.0
 11
85.008374920205455
 21
19.468231078039079
 31
0.0
  0
CIRCLE
  5
279
  8
0
 10
101.60837492020541
 20
19.468231078039079
 30
0.0
 40
16.25
  0
CIRCLE
  5
27A
  8
0
 10
101.60837492020541
 20
19.468231078039079
 30
0.0
 40
16.0
  0
CIRCLE
  5
27B
  8
0
 10
101.60837492020541
 20
19.468231078039079
 30
0.0
 40
8.75
  0
CIRCLE
  5
27D
  8
1
 10
101.60837492020541
 20
19.468231078039079
 30
0.0
 40
11.25
  0
CIRCLE
  5
2B1
  8
0
 10
112.85837492020541
 20
19.468231078039079
 30
0.0
 40
1.75
  0
CIRCLE
  5
2B2
  8
0
 10
90.358374920205449
 20
19.468231078039079
 30
0.0
 40
1.75
  0
CIRCLE
  5
2B6
  8
0
 10
95.983374920205449
 20
29.21101687061401
 30
0.0
 40
1.75
  0
CIRCLE
  5
2B7
  8
0
 10
95.983374920205449
 20
9.7254452854641471
 30
0.0
 40
1.75
  0
CIRCLE
  5
2BA
  8
0
 10
107.23337492020541
 20
29.21101687061401
 30
0.0
 40
1.75
  0
CIRCLE
  5
2BB
  8
0
 10
107.23337492020541
 20
9.7254452854641471
 30
0.0
 40
1.75
  0
INSERT
  5
2BF
  8
2
  2
*U9
 10
0.0
 20
0.0
 30
0.0
  0
POLYLINE
  8
0
  5
3EA
  66
     1
 10
0.000000
 20
0.000000
 30
0.000000
  70
     8
  0
VERTEX
  8
0
  5
3EB
 10
107.233
 20
30.9610
 30
0.000000
  70
    32
  0
VERTEX
  8
0
  5
3EC
 10
115.293
 20
36.3926
 30
0.000000
  70
    32
  0
VERTEX
  8
0
  5
3ED
 10
128.991
 20
36.3926
 30
0.000000
  70
    32
  0
SEQEND
  8
0
  5
3EE
  0
LINE
  5
2DA
  8
1
 10
101.60837492020541
 20
60.484103054836098
 30
0.0
 11
101.60837492020541
 21
51.484103054836098
 31
0.0
  0
LINE
  5
2DF
  8
1
 10
90.358374920205449
 20
60.284103054836102
 30
0.0
 11
90.358374920205449
 21
51.6841030548361
 31
0.0
  0
LINE
  5
2E1
  8
0
 10
88.608374920205449
 20
59.984103054836091
 30
0.0
 11
88.608374920205449
 21
52.864559301195257
 31
0.0
  0
LINE
  5
2E2
  8
0
 10
92.108374920205435
 20
59.984103054836091
 30
0.0
 11
92.108374920205435
 21
51.984103054836091
 31
0.0
  0
LINE
  5
2E6
  8
0
 10
92.858374920205449
 20
59.984103054836091
 30
0.0
 11
92.858374920205449
 21
51.984103054836091
 31
0.0
  0
LINE
  5
2E8
  8
0
 10
85.358374920205449
 20
59.984103054836091
 30
0.0
 11
85.358374920205449
 21
56.984103054836091
 31
0.0
  0
LINE
  5
2ED
  8
0
 10
88.108374920205435
 20
56.31079233954064
 30
0.0
 11
85.358374920205449
 21
56.984103054836091
 31
0.0
  0
LINE
  5
2EE
  8
0
 10
85.608374920205435
 20
51.984103054836091
 30
0.0
 11
101.60837492020541
 21
51.984103054836091
 31
0.0
  0
LINE
  5
2F3
  8
0
 10
88.608374920205449
 20
52.864559301195257
 30
0.0
 11
85.608374920205435
 21
51.984103054836091
 31
0.0
  0
LINE
  5
2F4
  8
0
 10
88.608374920205449
 20
52.864559301195257
 30
0.0
 11
92.108374920205435
 21
51.984103054836091
 31
0.0
  0
LINE
  5
2FE
  8
0
 39
5.0
 10
101.60837492020541
 20
59.984103054836091
 30
0.0
 11
117.85837492020541
 21
59.984103054836098
 31
0.0
  0
LINE
  5
2FF
  8
1
 10
112.85837492020541
 20
60.284103054836102
 30
0.0
 11
112.85837492020541
 21
51.6841030548361
 31
0.0
  0
LINE
  5
300
  8
0
 10
110.35837492020541
 20
59.984103054836091
 30
0.0
 11
110.35837492020541
 21
51.984103054836091
 31
0.0
  0
LINE
  5
301
  8
0
 10
111.10837492020541
 20
59.984103054836091
 30
0.0
 11
111.10837492020541
 21
51.984103054836091
 31
0.0
  0
LINE
  5
302
  8
0
 10
114.60837492020541
 20
59.984103054836091
 30
0.0
 11
114.60837492020541
 21
52.864559301195257
 31
0.0
  0
LINE
  5
303
  8
0
 10
117.60837492020541
 20
51.984103054836091
 30
0.0
 11
101.60837492020541
 21
51.984103054836091
 31
0.0
  0
LINE
  5
305
  8
0
 10
114.60837492020541
 20
52.864559301195257
 30
0.0
 11
117.60837492020541
 21
51.984103054836091
 31
0.0
  0
LINE
  5
306
  8
0
 10
114.60837492020541
 20
52.864559301195257
 30
0.0
 11
111.10837492020541
 21
51.984103054836091
 31
0.0
  0
LINE
  5
307
  8
0
 10
115.10837492020541
 20
56.31079233954064
 30
0.0
 11
117.85837492020541
 21
56.984103054836091
 31
0.0
  0
LINE
  5
308
  8
0
 10
117.85837492020541
 20
59.984103054836091
 30
0.0
 11
117.85837492020541
 21
56.984103054836091
 31
0.0
  0
DIMENSION
  5
30E
  8
2
  2
*D1
 10
110.35837492020541
 20
66.445542253764415
 30
0.0
 11
101.60837492020541
 21
68.320542253764415
 31
0.0
 70
     0
  1
%%c<>
 13
92.858374920205449
 23
59.984103054836091
 33
0.0
 14
110.35837492020541
 24
59.984103054836091
 34
0.0
  0
DIMENSION
  5
31B
  8
2
  2
*D2
 10
112.85837492020541
 20
70.799208699742735
 30
0.0
 11
101.60837492020541
 21
72.674208699742735
 31
0.0
 70
     0
  1
%%c<>
 13
90.358374920205449
 23
59.984103054836098
 33
0.0
 14
112.85837492020541
 24
59.984103054836098
 34
0.0
  0
DIMENSION
  5
328
  8
2
  2
*D3
 10
117.85837492020541
 20
75.457273159442934
 30
0.0
 11
101.60837492020541
 21
77.332273159442934
 31
0.0
 70
     0
  1
%%c<>
 13
85.358374920205449
 23
59.984103054836091
 33
0.0
 14
117.85837492020541
 24
59.984103054836091
 34
0.0
  0
DIMENSION
  5
335
  8
2
  2
*D4
 10
128.3557966626185
 20
56.984103054836091
 30
0.0
 11
126.4807966626185
 21
58.484103054836119
 31
0.0
 70
     0
 13
117.85837492020541
 23
59.984103054836091
 33
0.0
 14
117.85837492020541
 24
56.984103054836091
 34
0.0
 50
90.0
  0
DIMENSION
  5
344
  8
2
  2
*D5
 10
132.74582019745981
 20
54.484103054836119
 30
0.0
 11
130.87082019745981
 21
46.35910305483614
 31
0.0
 70
     0
 13
117.85837492020541
 23
59.984103054836091
 33
0.0
 14
115.02877492020539
 24
54.484103054836119
 34
0.0
 50
90.0
  0
DIMENSION
  5
353
  8
2
  2
*D6
 10
137.8217841127632
 20
51.984103054836091
 30
0.0
 11
135.9467841127632
 21
55.984103054836119
 31
0.0
 70
     0
 13
117.85837492020541
 23
59.984103054836098
 33
0.0
 14
117.60837492020541
 24
51.984103054836091
 34
0.0
 50
90.0
  0
LINE
  5
361
  8
2
 10
88.108374920205435
 20
54.484103054836091
 30
0.0
 11
88.108374920205435
 21
56.31079233954064
 31
0.0
  0
LINE
  5
362
  8
2
 10
115.10837492020541
 20
56.31079233954064
 30
0.0
 11
115.10837492020541
 21
54.484103054836091
 31
0.0
  0
LINE
  5
364
  8
2
 10
88.108374920205435
 20
54.484103054836091
 30
0.0
 11
85.608374920205435
 21
51.984103054836091
 31
0.0
  0
LINE
  5
367
  8
2
 10
115.10837492020541
 20
54.484103054836091
 30
0.0
 11
117.60837492020541
 21
51.984103054836091
 31
0.0
  0
DIMENSION
  5
369
  8
2
  2
*D7
 10
115.10837492020541
 20
45.56696454294763
 30
0.0
 11
101.60837492020541
 21
47.44196454294763
 31
0.0
 70
     0
  1
%%c<>
 13
88.108374920205435
 23
54.484103054836091
 33
0.0
 14
115.10837492020541
 24
54.484103054836091
 34
0.0
  0
DIMENSION
  5
376
  8
2
  2
*D8
 10
117.60837492020541
 20
41.026691195643927
 30
0.0
 11
101.60837492020541
 21
42.901691195643927
 31
0.0
 70
     0
  1
%%c<>
 13
85.608374920205435
 23
51.984103054836091
 33
0.0
 14
117.60837492020541
 24
51.984103054836091
 34
0.0
  0
ENDSEC
  0
EOF
