  0
SECTION
  2
HEADER
  9
$ACADVER
  1
AC1009
  9
$INSBASE
 10
0.0
 20
0.0
 30
0.0
  9
$EXTMIN
 10
51.95152041546978
 20
-2.309995727054996
 30
0.0
  9
$EXTMAX
 10
97.934257741470901
 20
64.177800055050625
 30
5.0
  9
$LIMMIN
 10
0.0
 20
0.0
  9
$LIMMAX
 10
420.0
 20
297.0
  9
$ORTHOMODE
 70
     0
  9
$REGENMODE
 70
     1
  9
$FILLMODE
 70
     1
  9
$QTEXTMODE
 70
     0
  9
$MIRRTEXT
 70
     1
  9
$DRAGMODE
 70
     2
  9
$LTSCALE
 40
0.3
  9
$OSMODE
 70
    37
  9
$ATTMODE
 70
     1
  9
$TEXTSIZE
 40
2.5
  9
$TRACEWID
 40
1.0
  9
$TEXTSTYLE
  7
STANDARD
  9
$CLAYER
  8
2
  9
$CELTYPE
  6
BYLAYER
  9
$CECOLOR
 62
   256
  9
$DIMSCALE
 40
1.0
  9
$DIMASZ
 40
2.5
  9
$DIMEXO
 40
0.625
  9
$DIMDLI
 40
3.75
  9
$DIMRND
 40
0.0
  9
$DIMDLE
 40
0.0
  9
$DIMEXE
 40
1.25
  9
$DIMTP
 40
0.0
  9
$DIMTM
 40
0.0
  9
$DIMTXT
 40
2.5
  9
$DIMCEN
 40
2.5
  9
$DIMTSZ
 40
0.0
  9
$DIMTOL
 70
     0
  9
$DIMLIM
 70
     0
  9
$DIMTIH
 70
     0
  9
$DIMTOH
 70
     0
  9
$DIMSE1
 70
     0
  9
$DIMSE2
 70
     0
  9
$DIMTAD
 70
     1
  9
$DIMZIN
 70
     8
  9
$DIMBLK
  1

  9
$DIMASO
 70
     1
  9
$DIMSHO
 70
     1
  9
$DIMPOST
  1

  9
$DIMAPOST
  1

  9
$DIMALT
 70
     0
  9
$DIMALTD
 70
     3
  9
$DIMALTF
 40
0.03937007874016
  9
$DIMLFAC
 40
1.0
  9
$DIMTOFL
 70
     1
  9
$DIMTVP
 40
0.0
  9
$DIMTIX
 70
     0
  9
$DIMSOXD
 70
     0
  9
$DIMSAH
 70
     0
  9
$DIMBLK1
  1

  9
$DIMBLK2
  1

  9
$DIMSTYLE
  2
ISO-25
  9
$DIMCLRD
 70
     0
  9
$DIMCLRE
 70
     0
  9
$DIMCLRT
 70
     0
  9
$DIMTFAC
 40
1.0
  9
$DIMGAP
 40
0.625
  9
$LUNITS
 70
     2
  9
$LUPREC
 70
     4
  9
$SKETCHINC
 40
1.0
  9
$FILLETRAD
 40
10.0
  9
$AUNITS
 70
     0
  9
$AUPREC
 70
     0
  9
$MENU
  1
.
  9
$ELEVATION
 40
0.0
  9
$PELEVATION
 40
0.0
  9
$THICKNESS
 40
0.0
  9
$LIMCHECK
 70
     0
  9
$BLIPMODE
 70
     0
  9
$CHAMFERA
 40
10.0
  9
$CHAMFERB
 40
10.0
  9
$SKPOLY
 70
     0
  9
$TDCREATE
 40
2453445.4355459721
  9
$TDUPDATE
 40
2453551.9167310181
  9
$TDINDWG
 40
0.0389465046
  9
$TDUSRTIMER
 40
0.0389463889
  9
$USRTIMER
 70
     1
  9
$ANGBASE
 50
0.0
  9
$ANGDIR
 70
     0
  9
$PDMODE
 70
     0
  9
$PDSIZE
 40
0.0
  9
$PLINEWID
 40
0.0
  9
$COORDS
 70
     1
  9
$SPLFRAME
 70
     0
  9
$SPLINETYPE
 70
     6
  9
$SPLINESEGS
 70
     8
  9
$ATTDIA
 70
     0
  9
$ATTREQ
 70
     1
  9
$HANDLING
 70
-16383
  9
$HANDSEED
  5
3DD
  9
$SURFTAB1
 70
     6
  9
$SURFTAB2
 70
     6
  9
$SURFTYPE
 70
     6
  9
$SURFU
 70
     6
  9
$SURFV
 70
     6
  9
$UCSNAME
  2

  9
$UCSORG
 10
0.0
 20
0.0
 30
0.0
  9
$UCSXDIR
 10
1.0
 20
0.0
 30
0.0
  9
$UCSYDIR
 10
0.0
 20
1.0
 30
0.0
  9
$PUCSNAME
  2

  9
$PUCSORG
 10
0.0
 20
0.0
 30
0.0
  9
$PUCSXDIR
 10
1.0
 20
0.0
 30
0.0
  9
$PUCSYDIR
 10
0.0
 20
1.0
 30
0.0
  9
$USERI1
 70
     0
  9
$USERI2
 70
     0
  9
$USERI3
 70
     0
  9
$USERI4
 70
     0
  9
$USERI5
 70
     0
  9
$USERR1
 40
0.0
  9
$USERR2
 40
0.0
  9
$USERR3
 40
0.0
  9
$USERR4
 40
0.0
  9
$USERR5
 40
0.0
  9
$WORLDVIEW
 70
     1
  9
$SHADEDGE
 70
     3
  9
$SHADEDIF
 70
    70
  9
$TILEMODE
 70
     1
  9
$MAXACTVP
 70
    64
  9
$PLIMCHECK
 70
     0
  9
$PEXTMIN
 10
1.0000000000000000E+020
 20
1.0000000000000000E+020
 30
1.0000000000000000E+020
  9
$PEXTMAX
 10
-1.0000000000000000E+020
 20
-1.0000000000000000E+020
 30
-1.0000000000000000E+020
  9
$PLIMMIN
 10
0.0
 20
0.0
  9
$PLIMMAX
 10
420.0
 20
297.0
  9
$UNITMODE
 70
     0
  9
$VISRETAIN
 70
     1
  9
$PLINEGEN
 70
     0
  9
$PSLTSCALE
 70
     1
  0
ENDSEC
  0
SECTION
  2
TABLES
  0
TABLE
  2
VPORT
 70
     2
  0
VPORT
  2
*ACTIVE
 70
     0
 10
0.0
 20
0.0
 11
1.0
 21
1.0
 12
58.068911896230489
 22
24.135844827755211
 13
0.0
 23
0.0
 14
10.0
 24
10.0
 15
10.0
 25
10.0
 16
0.0
 26
0.0
 36
1.0
 17
0.0
 27
0.0
 37
0.0
 40
89.369734472323799
 41
2.5392405063291141
 42
50.0
 43
0.0
 44
0.0
 50
0.0
 51
0.0
 71
     0
 72
   100
 73
     1
 74
     3
 75
     0
 76
     0
 77
     0
 78
     0
  0
ENDTAB
  0
TABLE
  2
LTYPE
 70
     2
  0
LTYPE
  2
CONTINUOUS
 70
     0
  3
Solid line
 72
    65
 73
     0
 40
0.0
  0
LTYPE
  2
CENTER
 70
     0
  3
Center ____ _ ____ _ ____ _ ____ _ ____ _ ____
 72
    65
 73
     4
 40
50.799999999999997
 49
31.75
 49
-6.3499999999999988
 49
6.3499999999999988
 49
-6.3499999999999988
  0
ENDTAB
  0
TABLE
  2
LAYER
 70
     4
  0
LAYER
  2
0
 70
     0
 62
     7
  6
CONTINUOUS
  0
LAYER
  2
1
 70
     0
 62
     7
  6
CENTER
  0
LAYER
  2
2
 70
     0
 62
     7
  6
CONTINUOUS
  0
LAYER
  2
DEFPOINTS
 70
     0
 62
     7
  6
CONTINUOUS
  0
ENDTAB
  0
TABLE
  2
STYLE
 70
     3
  0
STYLE
  2
STANDARD
 70
     0
 40
0.0
 41
1.0
 50
0.0
 71
     0
 42
2.5
  3
txt
  4

  0
STYLE
  2
\U+00C9L\U+00C9R_\U+00C2S\U+00C2V\U+00C2B\U+00C2N
 70
     0
 40
1.0
 41
1.0
 50
0.0
 71
     0
 42
1.0
  3
\U+00E9l\U+00E9r \U+00E2S\U+00E2V\U+00E2b\U+00E2N
  4

  0
STYLE
  2

 70
     1
 40
0.0
 41
1.0
 50
0.0
 71
     0
 42
2.5
  3
ltypeshp.shx
  4

  0
ENDTAB
  0
TABLE
  2
VIEW
 70
     0
  0
ENDTAB
  0
TABLE
  2
UCS
 70
     0
  0
ENDTAB
  0
TABLE
  2
APPID
 70
     1
  0
APPID
  2
ACAD
 70
     0
  0
ENDTAB
  0
TABLE
  2
DIMSTYLE
 70
     2
  0
DIMSTYLE
  2
ISO-25
 70
     0
  3

  4

  5

  6

  7

 40
1.0
 41
2.5
 42
0.625
 43
3.75
 44
1.25
 45
0.0
 46
0.0
 47
0.0
 48
0.0
140
2.5
141
2.5
142
0.0
143
0.03937007874016
144
1.0
145
0.0
146
1.0
147
0.625
 71
     0
 72
     0
 73
     0
 74
     0
 75
     0
 76
     0
 77
     1
 78
     8
170
     0
171
     3
172
     1
173
     0
174
     0
175
     0
176
     0
177
     0
178
     0
  0
DIMSTYLE
  2
STANDARD
 70
     0
  3

  4

  5

  6

  7

 40
1.0
 41
0.18
 42
0.0625
 43
0.38
 44
0.18
 45
0.0
 46
0.0
 47
0.0
 48
0.0
140
0.18
141
0.09
142
0.0
143
25.399999999999999
144
1.0
145
0.0
146
1.0
147
0.09
 71
     0
 72
     0
 73
     1
 74
     1
 75
     0
 76
     0
 77
     0
 78
     0
170
     0
171
     2
172
     0
173
     0
174
     0
175
     0
176
     0
177
     0
178
     0
  0
ENDTAB
  0
ENDSEC
  0
SECTION
  2
BLOCKS
  0
BLOCK
  8
0
  2
$MODEL_SPACE
 70
     0
 10
0.0
 20
0.0
 30
0.0
  3
$MODEL_SPACE
  1

  0
ENDBLK
  5
21
  8
0
  0
BLOCK
 67
     1
  8
0
  2
$PAPER_SPACE
 70
     0
 10
0.0
 20
0.0
 30
0.0
  3
$PAPER_SPACE
  1

  0
ENDBLK
  5
1D
 67
     1
  8
0
  0
BLOCK
  8
0
  2
*D1
 70
     1
 10
0.0
 20
0.0
 30
0.0
  3
*D1
  1

  0
LINE
  5
39C
  8
2
 62
     0
 10
63.639934292460637
 20
45.525093727626
 30
0.0
 11
63.639934292460637
 21
38.119030932747421
 31
0.0
  0
LINE
  5
39D
  8
2
 62
     0
 10
83.639934292460623
 20
45.525093727626
 30
0.0
 11
83.639934292460623
 21
38.119030932747421
 31
0.0
  0
LINE
  5
39E
  8
2
 62
     0
 10
66.139934292460637
 20
39.369030932747421
 30
0.0
 11
81.139934292460623
 21
39.369030932747421
 31
0.0
  0
SOLID
  5
39F
  8
2
 62
     0
 10
66.139934292460637
 20
39.785697599414078
 30
0.0
 11
66.139934292460637
 21
38.95236426608075
 31
0.0
 12
63.639934292460637
 22
39.369030932747421
 32
0.0
 13
63.639934292460637
 23
39.369030932747421
 33
0.0
  0
SOLID
  5
3A0
  8
2
 62
     0
 10
81.139934292460623
 20
39.785697599414078
 30
0.0
 11
81.139934292460623
 21
38.95236426608075
 31
0.0
 12
83.639934292460623
 22
39.369030932747421
 32
0.0
 13
83.639934292460623
 23
39.369030932747421
 33
0.0
  0
INSERT
  5
3A1
  8
2
  2
*U8
 10
0.0
 20
0.0
 30
0.0
  0
POINT
  5
3A2
  8
DEFPOINTS
 62
     0
 10
63.639934292460637
 20
46.150093727626
 30
0.0
  0
POINT
  5
3A3
  8
DEFPOINTS
 62
     0
 10
83.639934292460623
 20
46.150093727626
 30
0.0
  0
POINT
  5
3A4
  8
DEFPOINTS
 62
     0
 10
83.639934292460623
 20
39.369030932747421
 30
0.0
  0
ENDBLK
  5
32E
  8
0
  0
BLOCK
  8
0
  2
*D2
 70
     1
 10
0.0
 20
0.0
 30
0.0
  3
*D2
  1

  0
LINE
  5
37D
  8
2
 62
     0
 10
59.889934292460637
 20
53.07509372762599
 30
0.0
 11
59.889934292460637
 21
62.302800055050618
 31
0.0
  0
LINE
  5
37E
  8
2
 62
     0
 10
87.389934292460623
 20
53.07509372762599
 30
0.0
 11
87.389934292460623
 21
62.302800055050618
 31
0.0
  0
LINE
  5
37F
  8
2
 62
     0
 10
62.389934292460637
 20
61.052800055050618
 30
0.0
 11
84.889934292460623
 21
61.052800055050618
 31
0.0
  0
SOLID
  5
380
  8
2
 62
     0
 10
62.389934292460637
 20
61.469466721717289
 30
0.0
 11
62.389934292460637
 21
60.636133388383961
 31
0.0
 12
59.889934292460637
 22
61.052800055050618
 32
0.0
 13
59.889934292460637
 23
61.052800055050618
 33
0.0
  0
SOLID
  5
381
  8
2
 62
     0
 10
84.889934292460623
 20
61.469466721717289
 30
0.0
 11
84.889934292460623
 21
60.636133388383961
 31
0.0
 12
87.389934292460623
 22
61.052800055050618
 32
0.0
 13
87.389934292460623
 23
61.052800055050618
 33
0.0
  0
INSERT
  5
382
  8
2
  2
*U6
 10
0.0
 20
0.0
 30
0.0
  0
POINT
  5
383
  8
DEFPOINTS
 62
     0
 10
59.889934292460637
 20
52.45009372762599
 30
0.0
  0
POINT
  5
384
  8
DEFPOINTS
 62
     0
 10
87.389934292460623
 20
52.45009372762599
 30
0.0
  0
POINT
  5
385
  8
DEFPOINTS
 62
     0
 10
87.389934292460623
 20
61.052800055050618
 30
0.0
  0
ENDBLK
  5
33B
  8
0
  0
BLOCK
  8
0
  2
*D3
 70
     1
 10
0.0
 20
0.0
 30
0.0
  3
*D3
  1

  0
LINE
  5
391
  8
2
 62
     0
 10
58.88993429246063
 20
52.775093727626
 30
0.0
 11
58.88993429246063
 21
58.842361578271181
 31
0.0
  0
LINE
  5
392
  8
2
 62
     0
 10
60.88993429246063
 20
52.775093727626
 30
0.0
 11
60.88993429246063
 21
58.842361578271181
 31
0.0
  0
LINE
  5
393
  8
2
 62
     0
 10
56.38993429246063
 20
57.592361578271181
 30
0.0
 11
53.88993429246063
 21
57.592361578271181
 31
0.0
  0
LINE
  5
394
  8
2
 62
     0
 10
63.38993429246063
 20
57.592361578271181
 30
0.0
 11
71.306600959127294
 21
57.592361578271181
 31
0.0
  0
LINE
  5
395
  8
2
 62
     0
 10
58.88993429246063
 20
57.592361578271181
 30
0.0
 11
60.88993429246063
 21
57.592361578271181
 31
0.0
  0
SOLID
  5
396
  8
2
 62
     0
 10
56.38993429246063
 20
58.009028244937852
 30
0.0
 11
56.38993429246063
 21
57.175694911604509
 31
0.0
 12
58.88993429246063
 22
57.592361578271181
 32
0.0
 13
58.88993429246063
 23
57.592361578271181
 33
0.0
  0
SOLID
  5
397
  8
2
 62
     0
 10
63.38993429246063
 20
58.009028244937852
 30
0.0
 11
63.38993429246063
 21
57.175694911604509
 31
0.0
 12
60.88993429246063
 22
57.592361578271181
 32
0.0
 13
60.88993429246063
 23
57.592361578271181
 33
0.0
  0
INSERT
  5
398
  8
2
  2
*U7
 10
0.0
 20
0.0
 30
0.0
  0
POINT
  5
399
  8
DEFPOINTS
 62
     0
 10
58.88993429246063
 20
52.150093727626
 30
0.0
  0
POINT
  5
39A
  8
DEFPOINTS
 62
     0
 10
60.88993429246063
 20
52.150093727626
 30
0.0
  0
POINT
  5
39B
  8
DEFPOINTS
 62
     0
 10
60.88993429246063
 20
57.592361578271181
 30
0.0
  0
ENDBLK
  5
34A
  8
0
  0
BLOCK
  8
0
  2
*D4
 70
     1
 10
0.0
 20
0.0
 30
0.0
  3
*D4
  1

  0
LINE
  5
3A5
  8
2
 62
     0
 10
56.139934292460637
 20
45.525093727626
 30
0.0
 11
56.139934292460637
 21
33.741235328804741
 31
0.0
  0
LINE
  5
3A6
  8
2
 62
     0
 10
91.139934292460623
 20
45.525093727626
 30
0.0
 11
91.139934292460623
 21
33.741235328804741
 31
0.0
  0
LINE
  5
3A7
  8
2
 62
     0
 10
58.639934292460637
 20
34.991235328804741
 30
0.0
 11
88.639934292460623
 21
34.991235328804741
 31
0.0
  0
SOLID
  5
3A8
  8
2
 62
     0
 10
58.639934292460637
 20
35.407901995471413
 30
0.0
 11
58.639934292460637
 21
34.574568662138077
 31
0.0
 12
56.139934292460637
 22
34.991235328804741
 32
0.0
 13
56.139934292460637
 23
34.991235328804741
 33
0.0
  0
SOLID
  5
3A9
  8
2
 62
     0
 10
88.639934292460623
 20
35.407901995471413
 30
0.0
 11
88.639934292460623
 21
34.574568662138077
 31
0.0
 12
91.139934292460623
 22
34.991235328804741
 32
0.0
 13
91.139934292460623
 23
34.991235328804741
 33
0.0
  0
INSERT
  5
3AA
  8
2
  2
*U9
 10
0.0
 20
0.0
 30
0.0
  0
POINT
  5
3AB
  8
DEFPOINTS
 62
     0
 10
56.139934292460637
 20
46.150093727626
 30
0.0
  0
POINT
  5
3AC
  8
DEFPOINTS
 62
     0
 10
91.139934292460623
 20
46.150093727626
 30
0.0
  0
POINT
  5
3AD
  8
DEFPOINTS
 62
     0
 10
91.139934292460623
 20
34.991235328804741
 30
0.0
  0
ENDBLK
  5
36C
  8
0
  0
BLOCK
  8
0
  2
*D5
 70
     1
 10
0.0
 20
0.0
 30
0.0
  3
*D5
  1

  0
LINE
  5
36F
  8
2
 62
     0
 10
91.660634292460657
 20
52.150093727626
 30
0.0
 11
97.934257741470901
 21
52.150093727626
 31
0.0
  0
LINE
  5
370
  8
2
 62
     0
 10
91.764934292460623
 20
46.150093727626
 30
0.0
 11
97.934257741470901
 21
46.150093727626
 31
0.0
  0
LINE
  5
371
  8
2
 62
     0
 10
96.684257741470901
 20
54.650093727626
 30
0.0
 11
96.684257741470901
 21
57.150093727626
 31
0.0
  0
LINE
  5
372
  8
2
 62
     0
 10
96.684257741470901
 20
43.650093727626
 30
0.0
 11
96.684257741470901
 21
41.150093727626
 31
0.0
  0
LINE
  5
373
  8
2
 62
     0
 10
96.684257741470901
 20
52.150093727626
 30
0.0
 11
96.684257741470901
 21
46.150093727626
 31
0.0
  0
SOLID
  5
374
  8
2
 62
     0
 10
96.267591074804244
 20
54.650093727626
 30
0.0
 11
97.100924408137587
 21
54.650093727626
 31
0.0
 12
96.684257741470901
 22
52.150093727626
 32
0.0
 13
96.684257741470901
 23
52.150093727626
 33
0.0
  0
SOLID
  5
375
  8
2
 62
     0
 10
96.267591074804244
 20
43.650093727626
 30
0.0
 11
97.100924408137587
 21
43.650093727626
 31
0.0
 12
96.684257741470901
 22
46.150093727626
 32
0.0
 13
96.684257741470901
 23
46.150093727626
 33
0.0
  0
TEXT
  5
376
  8
2
 62
     0
 10
96.059257741470887
 20
48.316760394292679
 30
0.0
 40
2.5
  1
6
 50
90.0
  0
POINT
  5
377
  8
DEFPOINTS
 62
     0
 10
91.035634292460657
 20
52.150093727626
 30
0.0
  0
POINT
  5
378
  8
DEFPOINTS
 62
     0
 10
91.139934292460623
 20
46.150093727626
 30
0.0
  0
POINT
  5
379
  8
DEFPOINTS
 62
     0
 10
96.684257741470901
 20
46.150093727626
 30
0.0
  0
ENDBLK
  5
37B
  8
0
  0
BLOCK
  8
0
  2
*U6
 70
     1
 10
0.0
 20
0.0
 30
0.0
  3
*U6
  1

  0
TEXT
  5
3CA
  8
2
 62
     0
 10
68.943554761899179
 20
61.677800055050618
 30
0.0
 40
2.5
  1
\U+2205
  0
TEXT
  5
3CB
  8
2
 62
     0
 10
71.443554761899179
 20
61.677800055050618
 30
0.0
 40
2.5
  1
27.5
  0
ENDBLK
  5
3CD
  8
0
  0
BLOCK
  8
0
  2
*U7
 70
     1
 10
0.0
 20
0.0
 30
0.0
  3
*U7
  1

  0
TEXT
  5
3CF
  8
2
 62
     0
 10
66.514934292460623
 20
58.217361578271181
 30
0.0
 40
2.5
  1
\U+2205
  0
TEXT
  5
3D0
  8
2
 62
     0
 10
69.014934292460623
 20
58.217361578271181
 30
0.0
 40
2.5
  1
2
  0
ENDBLK
  5
3D2
  8
0
  0
BLOCK
  8
0
  2
*U8
 70
     1
 10
0.0
 20
0.0
 30
0.0
  3
*U8
  1

  0
TEXT
  5
3D4
  8
2
 62
     0
 10
70.514934292460637
 20
39.994030932747421
 30
0.0
 40
2.5
  1
\U+2205
  0
TEXT
  5
3D5
  8
2
 62
     0
 10
73.014934292460637
 20
39.994030932747421
 30
0.0
 40
2.5
  1
20
  0
ENDBLK
  5
3D7
  8
0
  0
BLOCK
  8
0
  2
*U9
 70
     1
 10
0.0
 20
0.0
 30
0.0
  3
*U9
  1

  0
TEXT
  5
3D9
  8
2
 62
     0
 10
70.306600959127309
 20
35.616235328804741
 30
0.0
 40
2.5
  1
\U+2205
  0
TEXT
  5
3DA
  8
2
 62
     0
 10
72.806600959127309
 20
35.616235328804741
 30
0.0
 40
2.5
  1
35
  0
ENDBLK
  5
3DC
  8
0
  0
ENDSEC
  0
SECTION
  2
ENTITIES
  0
TEXT
  5
137
  8
2
 10
51.951520483527311
 20
-2.309995727054996
 30
0.0
 40
2.5399440000000002
  1
No. 107.035.085.2
 51
-0.0000015352344868
  7
\U+00C9L\U+00C9R_\U+00C2S\U+00C2V\U+00C2B\U+00C2N
  0
LINE
  5
17A
  8
0
 39
5.0
 10
73.639934292460637
 20
52.150093727626
 30
0.0
 11
56.244234292460632
 21
52.150093727626
 31
0.0
  0
LINE
  5
18D
  8
0
 39
5.0
 10
58.897934292460633
 20
47.904293727625991
 30
0.0
 11
60.88993429246063
 21
47.904293727625991
 31
0.0
  0
LINE
  5
1D5
  8
1
 10
73.639934292460637
 20
28.439998956063089
 30
0.0
 11
73.639934292460637
 21
9.1457219295102803
 31
0.0
  0
LINE
  5
1D6
  8
1
 10
91.577920368116239
 20
26.939998956063089
 30
0.0
 11
55.393517825003151
 21
26.939998956063089
 31
0.0
  0
ARC
  5
281
  8
1
 10
73.639934292460637
 20
26.939998956063089
 30
0.0
 40
13.75
 50
173.73708687386059
 51
6.262913126139388
  0
ARC
  5
283
  8
0
 10
73.639934292460637
 20
26.939998956063089
 30
0.0
 40
12.75
 50
180.0
 51
0.0
  0
ARC
  5
284
  8
0
 10
73.639934292460637
 20
26.939998956063089
 30
0.0
 40
14.75
 50
180.0
 51
0.0
  0
CIRCLE
  5
285
  8
0
 10
87.389934292460623
 20
26.939998956063089
 30
0.0
 40
1.0
  0
CIRCLE
  5
286
  8
0
 10
59.889934292460637
 20
26.939998956063089
 30
0.0
 40
1.0
  0
CIRCLE
  5
288
  8
0
 10
73.639934292460637
 20
13.189998956063089
 30
0.0
 40
1.0
  0
LINE
  5
2D9
  8
1
 10
73.639934292460637
 20
52.650093727626
 30
0.0
 11
73.639934292460637
 21
45.650093727626
 31
0.0
  0
LINE
  5
2DA
  8
0
 10
56.244234292460618
 20
52.150093727626
 30
0.0
 11
73.639934292460637
 21
52.150093727626
 31
0.0
  0
LINE
  5
2E3
  8
0
 10
58.88993429246063
 20
52.150093727626
 30
0.0
 11
58.88993429246063
 21
47.898416314721281
 31
0.0
  0
LINE
  5
2E6
  8
0
 10
60.88993429246063
 20
47.904293727625991
 30
0.0
 11
60.88993429246063
 21
52.150093727626
 31
0.0
  0
LINE
  5
2E8
  8
0
 10
56.139934292460637
 20
46.150093727626
 30
0.0
 11
73.639934292460637
 21
46.150093727626
 31
0.0
  0
LINE
  5
2EF
  8
0
 10
56.244234292460632
 20
52.150093727626
 30
0.0
 11
57.889934292460637
 21
49.150093727626
 31
0.0
  0
LINE
  5
2F0
  8
0
 10
57.889934292460637
 20
49.150093727626
 30
0.0
 11
56.139934292460637
 21
46.150093727626
 31
0.0
  0
LINE
  5
2F1
  8
0
 10
63.639934292460637
 20
52.150093727626
 30
0.0
 11
61.889934292460637
 21
49.150093727626
 31
0.0
  0
LINE
  5
2F2
  8
0
 10
61.889934292460637
 20
49.150093727626
 30
0.0
 11
63.639934292460637
 21
46.150093727626
 31
0.0
  0
LINE
  5
2F3
  8
0
 10
58.897934292460633
 20
47.904293727625991
 30
0.0
 11
56.139934292460637
 21
46.150093727626
 31
0.0
  0
LINE
  5
2F4
  8
0
 10
60.88993429246063
 20
47.904293727625991
 30
0.0
 11
63.639934292460637
 21
46.150093727626
 31
0.0
  0
ARC
  5
2FB
  8
0
 10
73.639934292460637
 20
26.939998956063089
 30
0.0
 40
10.0
 50
180.0
 51
0.0
  0
ARC
  5
2FD
  8
0
 10
73.639934292460637
 20
26.939998956063089
 30
0.0
 40
17.5
 50
180.0
 51
0.0
  0
ARC
  5
300
  8
0
 10
59.889934292460637
 20
26.939998956063089
 30
0.0
 40
3.75
 50
0.0
 51
180.0
  0
ARC
  5
302
  8
0
 10
87.389934292460623
 20
26.939998956063089
 30
0.0
 40
3.75
 50
0.0
 51
180.0
  0
LINE
  5
307
  8
1
 10
59.889934292460637
 20
52.45009372762599
 30
0.0
 11
59.889934292460637
 21
45.850093727626003
 31
0.0
  0
LINE
  5
30C
  8
0
 39
5.0
 10
88.381934292460642
 20
47.904293727625991
 30
0.0
 11
86.389934292460651
 21
47.904293727625991
 31
0.0
  0
LINE
  5
30D
  8
0
 39
5.0
 10
73.639934292460637
 20
52.150093727626
 30
0.0
 11
91.035634292460628
 21
52.150093727626
 31
0.0
  0
LINE
  5
30E
  8
0
 10
86.389934292460623
 20
47.904293727625991
 30
0.0
 11
83.639934292460623
 21
46.150093727626
 31
0.0
  0
LINE
  5
30F
  8
0
 10
85.389934292460637
 20
49.150093727626
 30
0.0
 11
83.639934292460623
 21
46.150093727626
 31
0.0
  0
LINE
  5
310
  8
0
 10
83.639934292460623
 20
52.150093727626
 30
0.0
 11
85.389934292460637
 21
49.150093727626
 31
0.0
  0
LINE
  5
311
  8
0
 10
91.139934292460623
 20
46.150093727626
 30
0.0
 11
73.639934292460637
 21
46.150093727626
 31
0.0
  0
LINE
  5
312
  8
0
 10
91.035634292460657
 20
52.150093727626
 30
0.0
 11
73.639934292460637
 21
52.150093727626
 31
0.0
  0
LINE
  5
313
  8
0
 10
91.035634292460628
 20
52.150093727626
 30
0.0
 11
89.389934292460637
 21
49.150093727626
 31
0.0
  0
LINE
  5
314
  8
0
 10
86.389934292460623
 20
47.904293727625991
 30
0.0
 11
86.389934292460623
 21
52.150093727626
 31
0.0
  0
LINE
  5
315
  8
0
 10
88.389934292460637
 20
52.150093727626
 30
0.0
 11
88.389934292460637
 21
47.898416314721281
 31
0.0
  0
LINE
  5
316
  8
1
 10
87.389934292460623
 20
52.45009372762599
 30
0.0
 11
87.389934292460623
 21
45.850093727626003
 31
0.0
  0
LINE
  5
317
  8
0
 10
88.381934292460642
 20
47.904293727625991
 30
0.0
 11
91.139934292460623
 21
46.150093727626
 31
0.0
  0
LINE
  5
318
  8
0
 10
89.389934292460637
 20
49.150093727626
 30
0.0
 11
91.139934292460623
 21
46.150093727626
 31
0.0
  0
LINE
  5
31F
  8
0
 10
61.889934292460637
 20
49.150093727626
 30
0.0
 11
85.389934292460637
 21
49.150093727626
 31
0.0
  0
DIMENSION
  5
322
  8
2
  2
*D1
 10
83.639934292460623
 20
39.369030932747421
 30
0.0
 11
73.639934292460637
 21
41.244030932747421
 31
0.0
 70
     0
  1
%%c<>
 13
63.639934292460637
 23
46.150093727626
 33
0.0
 14
83.639934292460623
 24
46.150093727626
 34
0.0
  0
DIMENSION
  5
32F
  8
2
  2
*D2
 10
87.389934292460623
 20
61.052800055050618
 30
0.0
 11
73.943554761899179
 21
61.052800055050618
 31
0.0
 70
   128
  1
%%c<>
 13
59.889934292460637
 23
52.45009372762599
 33
0.0
 14
87.389934292460623
 24
52.45009372762599
 34
0.0
  0
DIMENSION
  5
33C
  8
2
  2
*D3
 10
60.88993429246063
 20
57.592361578271181
 30
0.0
 11
68.598267625793966
 21
57.592361578271181
 31
0.0
 70
   128
  1
%%c<>
 13
58.88993429246063
 23
52.150093727626
 33
0.0
 14
60.88993429246063
 24
52.150093727626
 34
0.0
  0
DIMENSION
  5
360
  8
2
  2
*D4
 10
91.139934292460623
 20
34.991235328804741
 30
0.0
 11
73.639934292460637
 21
36.866235328804741
 31
0.0
 70
     0
  1
%%c<>
 13
56.139934292460637
 23
46.150093727626
 33
0.0
 14
91.139934292460623
 24
46.150093727626
 34
0.0
  0
DIMENSION
  5
36D
  8
2
  2
*D5
 10
96.684257741470901
 20
46.150093727626
 30
0.0
 11
94.809257741470887
 21
49.150093727626007
 31
0.0
 70
     0
 13
91.035634292460657
 23
52.150093727626
 33
0.0
 14
91.139934292460623
 24
46.150093727626
 34
0.0
 50
90.0
  0
ENDSEC
  0
EOF
