  0
SECTION
  2
HEADER
  9
$ACADVER
  1
AC1009
  9
$INSBASE
 10
0.0
 20
0.0
 30
0.0
  9
$EXTMIN
 10
74.658948871287663
 20
-39.923471367971374
 30
0.0
  9
$EXTMAX
 10
137.96305308906719
 20
95.540549560322305
 30
5.0
  9
$LIMMIN
 10
0.0
 20
0.0
  9
$LIMMAX
 10
420.0
 20
297.0
  9
$ORTHOMODE
 70
     0
  9
$REGENMODE
 70
     1
  9
$FILLMODE
 70
     1
  9
$QTEXTMODE
 70
     0
  9
$MIRRTEXT
 70
     1
  9
$DRAGMODE
 70
     2
  9
$LTSCALE
 40
0.3
  9
$OSMODE
 70
    37
  9
$ATTMODE
 70
     1
  9
$TEXTSIZE
 40
2.5
  9
$TRACEWID
 40
1.0
  9
$TEXTSTYLE
  7
STANDARD
  9
$CLAYER
  8
2
  9
$CELTYPE
  6
BYLAYER
  9
$CECOLOR
 62
   256
  9
$DIMSCALE
 40
1.0
  9
$DIMASZ
 40
2.5
  9
$DIMEXO
 40
0.625
  9
$DIMDLI
 40
3.75
  9
$DIMRND
 40
0.0
  9
$DIMDLE
 40
0.0
  9
$DIMEXE
 40
1.25
  9
$DIMTP
 40
0.0
  9
$DIMTM
 40
0.0
  9
$DIMTXT
 40
2.5
  9
$DIMCEN
 40
2.5
  9
$DIMTSZ
 40
0.0
  9
$DIMTOL
 70
     0
  9
$DIMLIM
 70
     0
  9
$DIMTIH
 70
     0
  9
$DIMTOH
 70
     0
  9
$DIMSE1
 70
     0
  9
$DIMSE2
 70
     0
  9
$DIMTAD
 70
     1
  9
$DIMZIN
 70
     8
  9
$DIMBLK
  1

  9
$DIMASO
 70
     1
  9
$DIMSHO
 70
     1
  9
$DIMPOST
  1

  9
$DIMAPOST
  1

  9
$DIMALT
 70
     0
  9
$DIMALTD
 70
     3
  9
$DIMALTF
 40
0.03937007874016
  9
$DIMLFAC
 40
1.0
  9
$DIMTOFL
 70
     1
  9
$DIMTVP
 40
0.0
  9
$DIMTIX
 70
     0
  9
$DIMSOXD
 70
     0
  9
$DIMSAH
 70
     0
  9
$DIMBLK1
  1

  9
$DIMBLK2
  1

  9
$DIMSTYLE
  2
ISO-25
  9
$DIMCLRD
 70
     0
  9
$DIMCLRE
 70
     0
  9
$DIMCLRT
 70
     0
  9
$DIMTFAC
 40
1.0
  9
$DIMGAP
 40
0.625
  9
$LUNITS
 70
     2
  9
$LUPREC
 70
     4
  9
$SKETCHINC
 40
1.0
  9
$FILLETRAD
 40
10.0
  9
$AUNITS
 70
     0
  9
$AUPREC
 70
     0
  9
$MENU
  1
.
  9
$ELEVATION
 40
0.0
  9
$PELEVATION
 40
0.0
  9
$THICKNESS
 40
0.0
  9
$LIMCHECK
 70
     0
  9
$BLIPMODE
 70
     0
  9
$CHAMFERA
 40
10.0
  9
$CHAMFERB
 40
10.0
  9
$SKPOLY
 70
     0
  9
$TDCREATE
 40
2453445.4331259369
  9
$TDUPDATE
 40
2453551.915963484
  9
$TDINDWG
 40
0.0489799306
  9
$TDUSRTIMER
 40
0.0489799306
  9
$USRTIMER
 70
     1
  9
$ANGBASE
 50
0.0
  9
$ANGDIR
 70
     0
  9
$PDMODE
 70
     0
  9
$PDSIZE
 40
0.0
  9
$PLINEWID
 40
0.0
  9
$COORDS
 70
     1
  9
$SPLFRAME
 70
     0
  9
$SPLINETYPE
 70
     6
  9
$SPLINESEGS
 70
     8
  9
$ATTDIA
 70
     0
  9
$ATTREQ
 70
     1
  9
$HANDLING
 70
-16383
  9
$HANDSEED
  5
779
  9
$SURFTAB1
 70
     6
  9
$SURFTAB2
 70
     6
  9
$SURFTYPE
 70
     6
  9
$SURFU
 70
     6
  9
$SURFV
 70
     6
  9
$UCSNAME
  2

  9
$UCSORG
 10
0.0
 20
0.0
 30
0.0
  9
$UCSXDIR
 10
1.0
 20
0.0
 30
0.0
  9
$UCSYDIR
 10
0.0
 20
1.0
 30
0.0
  9
$PUCSNAME
  2

  9
$PUCSORG
 10
0.0
 20
0.0
 30
0.0
  9
$PUCSXDIR
 10
1.0
 20
0.0
 30
0.0
  9
$PUCSYDIR
 10
0.0
 20
1.0
 30
0.0
  9
$USERI1
 70
     0
  9
$USERI2
 70
     0
  9
$USERI3
 70
     0
  9
$USERI4
 70
     0
  9
$USERI5
 70
     0
  9
$USERR1
 40
0.0
  9
$USERR2
 40
0.0
  9
$USERR3
 40
0.0
  9
$USERR4
 40
0.0
  9
$USERR5
 40
0.0
  9
$WORLDVIEW
 70
     1
  9
$SHADEDGE
 70
     3
  9
$SHADEDIF
 70
    70
  9
$TILEMODE
 70
     1
  9
$MAXACTVP
 70
    64
  9
$PLIMCHECK
 70
     0
  9
$PEXTMIN
 10
1.0000000000000000E+020
 20
1.0000000000000000E+020
 30
1.0000000000000000E+020
  9
$PEXTMAX
 10
-1.0000000000000000E+020
 20
-1.0000000000000000E+020
 30
-1.0000000000000000E+020
  9
$PLIMMIN
 10
0.0
 20
0.0
  9
$PLIMMAX
 10
420.0
 20
297.0
  9
$UNITMODE
 70
     0
  9
$VISRETAIN
 70
     1
  9
$PLINEGEN
 70
     0
  9
$PSLTSCALE
 70
     1
  0
ENDSEC
  0
SECTION
  2
TABLES
  0
TABLE
  2
VPORT
 70
     2
  0
VPORT
  2
*ACTIVE
 70
     0
 10
0.0
 20
0.0
 11
1.0
 21
1.0
 12
89.613366212090753
 22
42.37496049317172
 13
0.0
 23
0.0
 14
10.0
 24
10.0
 15
10.0
 25
10.0
 16
0.0
 26
0.0
 36
1.0
 17
0.0
 27
0.0
 37
0.0
 40
187.02857200243361
 41
2.5392405063291141
 42
50.0
 43
0.0
 44
0.0
 50
0.0
 51
0.0
 71
     0
 72
   100
 73
     1
 74
     3
 75
     0
 76
     0
 77
     0
 78
     0
  0
ENDTAB
  0
TABLE
  2
LTYPE
 70
     2
  0
LTYPE
  2
CONTINUOUS
 70
     0
  3
Solid line
 72
    65
 73
     0
 40
0.0
  0
LTYPE
  2
CENTER
 70
     0
  3
Center ____ _ ____ _ ____ _ ____ _ ____ _ ____
 72
    65
 73
     4
 40
50.799999999999997
 49
31.75
 49
-6.3499999999999988
 49
6.3499999999999988
 49
-6.3499999999999988
  0
ENDTAB
  0
TABLE
  2
LAYER
 70
     4
  0
LAYER
  2
0
 70
     0
 62
     7
  6
CONTINUOUS
  0
LAYER
  2
1
 70
     0
 62
     7
  6
CENTER
  0
LAYER
  2
2
 70
     0
 62
     7
  6
CONTINUOUS
  0
LAYER
  2
DEFPOINTS
 70
     0
 62
     7
  6
CONTINUOUS
  0
ENDTAB
  0
TABLE
  2
STYLE
 70
     3
  0
STYLE
  2
STANDARD
 70
     0
 40
0.0
 41
1.0
 50
0.0
 71
     0
 42
2.5
  3
txt
  4

  0
STYLE
  2
\U+00C9L\U+00C9R_\U+00C2S\U+00C2V\U+00C2B\U+00C2N
 70
     0
 40
1.0
 41
1.0
 50
0.0
 71
     0
 42
1.0
  3
\U+00E9l\U+00E9r \U+00E2S\U+00E2V\U+00E2b\U+00E2N
  4

  0
STYLE
  2

 70
     1
 40
0.0
 41
1.0
 50
0.0
 71
     0
 42
2.5
  3
ltypeshp.shx
  4

  0
ENDTAB
  0
TABLE
  2
VIEW
 70
     0
  0
ENDTAB
  0
TABLE
  2
UCS
 70
     0
  0
ENDTAB
  0
TABLE
  2
APPID
 70
     1
  0
APPID
  2
ACAD
 70
     0
  0
ENDTAB
  0
TABLE
  2
DIMSTYLE
 70
     2
  0
DIMSTYLE
  2
ISO-25
 70
     0
  3

  4

  5

  6

  7

 40
1.0
 41
2.5
 42
0.625
 43
3.75
 44
1.25
 45
0.0
 46
0.0
 47
0.0
 48
0.0
140
2.5
141
2.5
142
0.0
143
0.03937007874016
144
1.0
145
0.0
146
1.0
147
0.625
 71
     0
 72
     0
 73
     0
 74
     0
 75
     0
 76
     0
 77
     1
 78
     8
170
     0
171
     3
172
     1
173
     0
174
     0
175
     0
176
     0
177
     0
178
     0
  0
DIMSTYLE
  2
STANDARD
 70
     0
  3

  4

  5

  6

  7

 40
1.0
 41
0.18
 42
0.0625
 43
0.38
 44
0.18
 45
0.0
 46
0.0
 47
0.0
 48
0.0
140
0.18
141
0.09
142
0.0
143
25.399999999999999
144
1.0
145
0.0
146
1.0
147
0.09
 71
     0
 72
     0
 73
     1
 74
     1
 75
     0
 76
     0
 77
     0
 78
     0
170
     0
171
     2
172
     0
173
     0
174
     0
175
     0
176
     0
177
     0
178
     0
  0
ENDTAB
  0
ENDSEC
  0
SECTION
  2
BLOCKS
  0
BLOCK
  8
0
  2
$MODEL_SPACE
 70
     0
 10
0.0
 20
0.0
 30
0.0
  3
$MODEL_SPACE
  1

  0
ENDBLK
  5
21
  8
0
  0
BLOCK
 67
     1
  8
0
  2
$PAPER_SPACE
 70
     0
 10
0.0
 20
0.0
 30
0.0
  3
$PAPER_SPACE
  1

  0
ENDBLK
  5
1D
 67
     1
  8
0
  0
BLOCK
  8
0
  2
*D1
 70
     1
 10
0.0
 20
0.0
 30
0.0
  3
*D1
  1

  0
LINE
  5
6E3
  8
2
 62
     0
 10
91.808948871287669
 20
74.038076315297559
 30
0.0
 11
91.808948871287669
 21
80.946203471767888
 31
0.0
  0
LINE
  5
6E4
  8
2
 62
     0
 10
105.0089488712876
 20
74.038076315297559
 30
0.0
 11
105.0089488712876
 21
80.946203471767888
 31
0.0
  0
LINE
  5
6E5
  8
2
 62
     0
 10
94.308948871287669
 20
79.696203471767888
 30
0.0
 11
102.5089488712876
 21
79.696203471767888
 31
0.0
  0
SOLID
  5
6E6
  8
2
 62
     0
 10
94.308948871287669
 20
80.112870138434545
 30
0.0
 11
94.308948871287669
 21
79.279536805101216
 31
0.0
 12
91.808948871287669
 22
79.696203471767888
 32
0.0
 13
91.808948871287669
 23
79.696203471767888
 33
0.0
  0
SOLID
  5
6E7
  8
2
 62
     0
 10
102.5089488712876
 20
80.112870138434545
 30
0.0
 11
102.5089488712876
 21
79.279536805101216
 31
0.0
 12
105.0089488712876
 22
79.696203471767888
 32
0.0
 13
105.0089488712876
 23
79.696203471767888
 33
0.0
  0
INSERT
  5
6E8
  8
2
  2
*U17
 10
0.0
 20
0.0
 30
0.0
  0
POINT
  5
6E9
  8
DEFPOINTS
 62
     0
 10
91.808948871287669
 20
73.413076315297559
 30
0.0
  0
POINT
  5
6EA
  8
DEFPOINTS
 62
     0
 10
105.0089488712876
 20
73.413076315297559
 30
0.0
  0
POINT
  5
6EB
  8
DEFPOINTS
 62
     0
 10
105.0089488712876
 20
79.696203471767888
 30
0.0
  0
ENDBLK
  5
631
  8
0
  0
BLOCK
  8
0
  2
*D2
 70
     1
 10
0.0
 20
0.0
 30
0.0
  3
*D2
  1

  0
LINE
  5
6DA
  8
2
 62
     0
 10
86.908948871287663
 20
74.338076315297556
 30
0.0
 11
86.908948871287663
 21
85.206849829858413
 31
0.0
  0
LINE
  5
6DB
  8
2
 62
     0
 10
109.90894887128761
 20
74.338076315297556
 30
0.0
 11
109.90894887128761
 21
85.206849829858413
 31
0.0
  0
LINE
  5
6DC
  8
2
 62
     0
 10
89.408948871287663
 20
83.956849829858413
 30
0.0
 11
107.40894887128761
 21
83.956849829858413
 31
0.0
  0
SOLID
  5
6DD
  8
2
 62
     0
 10
89.408948871287663
 20
84.373516496525085
 30
0.0
 11
89.408948871287663
 21
83.540183163191756
 31
0.0
 12
86.908948871287663
 22
83.956849829858413
 32
0.0
 13
86.908948871287663
 23
83.956849829858413
 33
0.0
  0
SOLID
  5
6DE
  8
2
 62
     0
 10
107.40894887128761
 20
84.373516496525085
 30
0.0
 11
107.40894887128761
 21
83.540183163191756
 31
0.0
 12
109.90894887128761
 22
83.956849829858413
 32
0.0
 13
109.90894887128761
 23
83.956849829858413
 33
0.0
  0
INSERT
  5
6DF
  8
2
  2
*U16
 10
0.0
 20
0.0
 30
0.0
  0
POINT
  5
6E0
  8
DEFPOINTS
 62
     0
 10
86.908948871287663
 20
73.713076315297556
 30
0.0
  0
POINT
  5
6E1
  8
DEFPOINTS
 62
     0
 10
109.90894887128761
 20
73.713076315297556
 30
0.0
  0
POINT
  5
6E2
  8
DEFPOINTS
 62
     0
 10
109.90894887128761
 20
83.956849829858413
 30
0.0
  0
ENDBLK
  5
63E
  8
0
  0
BLOCK
  8
0
  2
*D3
 70
     1
 10
0.0
 20
0.0
 30
0.0
  3
*D3
  1

  0
LINE
  5
6D1
  8
2
 62
     0
 10
81.158948871287649
 20
74.338076315297556
 30
0.0
 11
81.158948871287649
 21
89.153625769043231
 31
0.0
  0
LINE
  5
6D2
  8
2
 62
     0
 10
115.65894887128761
 20
74.338076315297556
 30
0.0
 11
115.65894887128761
 21
89.153625769043231
 31
0.0
  0
LINE
  5
6D3
  8
2
 62
     0
 10
83.658948871287649
 20
87.903625769043231
 30
0.0
 11
113.15894887128761
 21
87.903625769043231
 31
0.0
  0
SOLID
  5
6D4
  8
2
 62
     0
 10
83.658948871287649
 20
88.320292435709916
 30
0.0
 11
83.658948871287649
 21
87.486959102376545
 31
0.0
 12
81.158948871287649
 22
87.903625769043231
 32
0.0
 13
81.158948871287649
 23
87.903625769043231
 33
0.0
  0
SOLID
  5
6D5
  8
2
 62
     0
 10
113.15894887128761
 20
88.320292435709916
 30
0.0
 11
113.15894887128761
 21
87.486959102376545
 31
0.0
 12
115.65894887128761
 22
87.903625769043231
 32
0.0
 13
115.65894887128761
 23
87.903625769043231
 33
0.0
  0
INSERT
  5
6D6
  8
2
  2
*U15
 10
0.0
 20
0.0
 30
0.0
  0
POINT
  5
6D7
  8
DEFPOINTS
 62
     0
 10
81.158948871287649
 20
73.713076315297556
 30
0.0
  0
POINT
  5
6D8
  8
DEFPOINTS
 62
     0
 10
115.65894887128761
 20
73.713076315297556
 30
0.0
  0
POINT
  5
6D9
  8
DEFPOINTS
 62
     0
 10
115.65894887128761
 20
87.903625769043231
 30
0.0
  0
ENDBLK
  5
64B
  8
0
  0
BLOCK
  8
0
  2
*D4
 70
     1
 10
0.0
 20
0.0
 30
0.0
  3
*D4
  1

  0
LINE
  5
6C8
  8
2
 62
     0
 10
75.158948871287663
 20
74.038076315297559
 30
0.0
 11
75.158948871287663
 21
93.665549560322305
 31
0.0
  0
LINE
  5
6C9
  8
2
 62
     0
 10
121.65894887128761
 20
74.038076315297559
 30
0.0
 11
121.65894887128761
 21
93.665549560322305
 31
0.0
  0
LINE
  5
6CA
  8
2
 62
     0
 10
77.658948871287663
 20
92.415549560322305
 30
0.0
 11
119.15894887128761
 21
92.415549560322305
 31
0.0
  0
SOLID
  5
6CB
  8
2
 62
     0
 10
77.658948871287663
 20
92.832216226988962
 30
0.0
 11
77.658948871287663
 21
91.998882893655619
 31
0.0
 12
75.158948871287663
 22
92.415549560322305
 32
0.0
 13
75.158948871287663
 23
92.415549560322305
 33
0.0
  0
SOLID
  5
6CC
  8
2
 62
     0
 10
119.15894887128761
 20
92.832216226988962
 30
0.0
 11
119.15894887128761
 21
91.998882893655619
 31
0.0
 12
121.65894887128761
 22
92.415549560322305
 32
0.0
 13
121.65894887128761
 23
92.415549560322305
 33
0.0
  0
INSERT
  5
6CD
  8
2
  2
*U14
 10
0.0
 20
0.0
 30
0.0
  0
POINT
  5
6CE
  8
DEFPOINTS
 62
     0
 10
75.158948871287663
 20
73.413076315297559
 30
0.0
  0
POINT
  5
6CF
  8
DEFPOINTS
 62
     0
 10
121.65894887128761
 20
73.413076315297559
 30
0.0
  0
POINT
  5
6D0
  8
DEFPOINTS
 62
     0
 10
121.65894887128761
 20
92.415549560322305
 30
0.0
  0
ENDBLK
  5
658
  8
0
  0
BLOCK
  8
0
  2
*D5
 70
     1
 10
0.0
 20
0.0
 30
0.0
  3
*D5
  1

  0
LINE
  5
65B
  8
2
 62
     0
 10
122.28394887128761
 20
73.413076315297559
 30
0.0
 11
132.13518574687441
 21
73.413076315297559
 31
0.0
  0
LINE
  5
65C
  8
2
 62
     0
 10
122.28394887128761
 20
70.413076315297559
 30
0.0
 11
132.13518574687441
 21
70.413076315297559
 31
0.0
  0
LINE
  5
65D
  8
2
 62
     0
 10
130.88518574687441
 20
75.913076315297559
 30
0.0
 11
130.88518574687441
 21
78.413076315297559
 31
0.0
  0
LINE
  5
65E
  8
2
 62
     0
 10
130.88518574687441
 20
67.913076315297559
 30
0.0
 11
130.88518574687441
 21
65.413076315297559
 31
0.0
  0
LINE
  5
65F
  8
2
 62
     0
 10
130.88518574687441
 20
73.413076315297559
 30
0.0
 11
130.88518574687441
 21
70.413076315297559
 31
0.0
  0
SOLID
  5
660
  8
2
 62
     0
 10
130.4685190802077
 20
75.913076315297559
 30
0.0
 11
131.30185241354101
 21
75.913076315297559
 31
0.0
 12
130.88518574687441
 22
73.413076315297559
 32
0.0
 13
130.88518574687441
 23
73.413076315297559
 33
0.0
  0
SOLID
  5
661
  8
2
 62
     0
 10
130.4685190802077
 20
67.913076315297559
 30
0.0
 11
131.30185241354101
 21
67.913076315297559
 31
0.0
 12
130.88518574687441
 22
70.413076315297559
 32
0.0
 13
130.88518574687441
 23
70.413076315297559
 33
0.0
  0
TEXT
  5
662
  8
2
 62
     0
 10
130.2601857468743
 20
71.079742981964245
 30
0.0
 40
2.5
  1
3
 50
90.0
  0
POINT
  5
663
  8
DEFPOINTS
 62
     0
 10
121.65894887128761
 20
73.413076315297559
 30
0.0
  0
POINT
  5
664
  8
DEFPOINTS
 62
     0
 10
121.65894887128761
 20
70.413076315297559
 30
0.0
  0
POINT
  5
665
  8
DEFPOINTS
 62
     0
 10
130.88518574687441
 20
70.413076315297559
 30
0.0
  0
ENDBLK
  5
667
  8
0
  0
BLOCK
  8
0
  2
*D6
 70
     1
 10
0.0
 20
0.0
 30
0.0
  3
*D6
  1

  0
LINE
  5
66A
  8
2
 62
     0
 10
122.28394887128761
 20
73.413076315297559
 30
0.0
 11
137.96305308906719
 21
73.413076315297559
 31
0.0
  0
LINE
  5
66B
  8
2
 62
     0
 10
121.53394887128761
 20
68.413076315297559
 30
0.0
 11
137.96305308906719
 21
68.413076315297559
 31
0.0
  0
LINE
  5
66C
  8
2
 62
     0
 10
136.71305308906719
 20
75.913076315297559
 30
0.0
 11
136.71305308906719
 21
78.413076315297559
 31
0.0
  0
LINE
  5
66D
  8
2
 62
     0
 10
136.71305308906719
 20
65.913076315297559
 30
0.0
 11
136.7130530890671
 21
63.413076315297559
 31
0.0
  0
LINE
  5
66E
  8
2
 62
     0
 10
136.71305308906719
 20
73.413076315297559
 30
0.0
 11
136.71305308906719
 21
68.413076315297559
 31
0.0
  0
SOLID
  5
66F
  8
2
 62
     0
 10
136.2963864224005
 20
75.913076315297559
 30
0.0
 11
137.12971975573379
 21
75.913076315297559
 31
0.0
 12
136.71305308906719
 22
73.413076315297559
 32
0.0
 13
136.71305308906719
 23
73.413076315297559
 33
0.0
  0
SOLID
  5
670
  8
2
 62
     0
 10
136.2963864224005
 20
65.913076315297559
 30
0.0
 11
137.12971975573379
 21
65.913076315297559
 31
0.0
 12
136.71305308906719
 22
68.413076315297559
 32
0.0
 13
136.71305308906719
 23
68.413076315297559
 33
0.0
  0
TEXT
  5
671
  8
2
 62
     0
 10
136.0880530890671
 20
70.079742981964245
 30
0.0
 40
2.5
  1
5
 50
90.0
  0
POINT
  5
672
  8
DEFPOINTS
 62
     0
 10
121.65894887128761
 20
73.413076315297559
 30
0.0
  0
POINT
  5
673
  8
DEFPOINTS
 62
     0
 10
120.90894887128761
 20
68.413076315297559
 30
0.0
  0
POINT
  5
674
  8
DEFPOINTS
 62
     0
 10
136.71305308906719
 20
68.413076315297559
 30
0.0
  0
ENDBLK
  5
676
  8
0
  0
BLOCK
  8
0
  2
*D7
 70
     1
 10
0.0
 20
0.0
 30
0.0
  3
*D7
  1

  0
LINE
  5
6EC
  8
2
 62
     0
 10
90.908948871287663
 20
67.788076315297559
 30
0.0
 11
90.908948871287663
 21
59.358833705992602
 31
0.0
  0
LINE
  5
6ED
  8
2
 62
     0
 10
105.90894887128761
 20
67.788076315297559
 30
0.0
 11
105.90894887128761
 21
59.358833705992602
 31
0.0
  0
LINE
  5
6EE
  8
2
 62
     0
 10
93.408948871287663
 20
60.608833705992602
 30
0.0
 11
103.40894887128761
 21
60.608833705992602
 31
0.0
  0
SOLID
  5
6EF
  8
2
 62
     0
 10
93.408948871287663
 20
61.025500372659259
 30
0.0
 11
93.408948871287663
 21
60.19216703932593
 31
0.0
 12
90.908948871287663
 22
60.608833705992602
 32
0.0
 13
90.908948871287663
 23
60.608833705992602
 33
0.0
  0
SOLID
  5
6F0
  8
2
 62
     0
 10
103.40894887128761
 20
61.025500372659259
 30
0.0
 11
103.40894887128761
 21
60.19216703932593
 31
0.0
 12
105.90894887128761
 22
60.608833705992602
 32
0.0
 13
105.90894887128761
 23
60.608833705992602
 33
0.0
  0
INSERT
  5
6F1
  8
2
  2
*U18
 10
0.0
 20
0.0
 30
0.0
  0
POINT
  5
6F2
  8
DEFPOINTS
 62
     0
 10
90.908948871287663
 20
68.413076315297559
 30
0.0
  0
POINT
  5
6F3
  8
DEFPOINTS
 62
     0
 10
105.90894887128761
 20
68.413076315297559
 30
0.0
  0
POINT
  5
6F4
  8
DEFPOINTS
 62
     0
 10
105.90894887128761
 20
60.608833705992602
 30
0.0
  0
ENDBLK
  5
684
  8
0
  0
BLOCK
  8
0
  2
*D8
 70
     1
 10
0.0
 20
0.0
 30
0.0
  3
*D8
  1

  0
LINE
  5
6F5
  8
2
 62
     0
 10
88.408948871287663
 20
67.788076315297559
 30
0.0
 11
88.408948871287663
 21
55.298401802177807
 31
0.0
  0
LINE
  5
6F6
  8
2
 62
     0
 10
108.40894887128761
 20
67.788076315297559
 30
0.0
 11
108.40894887128761
 21
55.298401802177807
 31
0.0
  0
LINE
  5
6F7
  8
2
 62
     0
 10
90.908948871287663
 20
56.548401802177807
 30
0.0
 11
105.90894887128761
 21
56.548401802177807
 31
0.0
  0
SOLID
  5
6F8
  8
2
 62
     0
 10
90.908948871287663
 20
56.965068468844471
 30
0.0
 11
90.908948871287663
 21
56.131735135511143
 31
0.0
 12
88.408948871287663
 22
56.548401802177807
 32
0.0
 13
88.408948871287663
 23
56.548401802177807
 33
0.0
  0
SOLID
  5
6F9
  8
2
 62
     0
 10
105.90894887128761
 20
56.965068468844471
 30
0.0
 11
105.90894887128761
 21
56.131735135511143
 31
0.0
 12
108.40894887128761
 22
56.548401802177807
 32
0.0
 13
108.40894887128761
 23
56.548401802177807
 33
0.0
  0
INSERT
  5
6FA
  8
2
  2
*U19
 10
0.0
 20
0.0
 30
0.0
  0
POINT
  5
6FB
  8
DEFPOINTS
 62
     0
 10
88.408948871287663
 20
68.413076315297559
 30
0.0
  0
POINT
  5
6FC
  8
DEFPOINTS
 62
     0
 10
108.40894887128761
 20
68.413076315297559
 30
0.0
  0
POINT
  5
6FD
  8
DEFPOINTS
 62
     0
 10
108.40894887128761
 20
56.548401802177807
 30
0.0
  0
ENDBLK
  5
691
  8
0
  0
BLOCK
  8
0
  2
*D9
 70
     1
 10
0.0
 20
0.0
 30
0.0
  3
*D9
  1

  0
LINE
  5
6FE
  8
2
 62
     0
 10
85.908948871287663
 20
67.788076315297559
 30
0.0
 11
85.908948871287663
 21
50.561231005876088
 31
0.0
  0
LINE
  5
6FF
  8
2
 62
     0
 10
110.90894887128761
 20
67.788076315297559
 30
0.0
 11
110.90894887128761
 21
50.561231005876088
 31
0.0
  0
LINE
  5
700
  8
2
 62
     0
 10
88.408948871287663
 20
51.811231005876088
 30
0.0
 11
108.40894887128761
 21
51.811231005876088
 31
0.0
  0
SOLID
  5
701
  8
2
 62
     0
 10
88.408948871287663
 20
52.22789767254276
 30
0.0
 11
88.408948871287663
 21
51.394564339209431
 31
0.0
 12
85.908948871287663
 22
51.811231005876088
 32
0.0
 13
85.908948871287663
 23
51.811231005876088
 33
0.0
  0
SOLID
  5
702
  8
2
 62
     0
 10
108.40894887128761
 20
52.22789767254276
 30
0.0
 11
108.40894887128761
 21
51.394564339209431
 31
0.0
 12
110.90894887128761
 22
51.811231005876088
 32
0.0
 13
110.90894887128761
 23
51.811231005876088
 33
0.0
  0
INSERT
  5
703
  8
2
  2
*U20
 10
0.0
 20
0.0
 30
0.0
  0
POINT
  5
704
  8
DEFPOINTS
 62
     0
 10
85.908948871287663
 20
68.413076315297559
 30
0.0
  0
POINT
  5
705
  8
DEFPOINTS
 62
     0
 10
110.90894887128761
 20
68.413076315297559
 30
0.0
  0
POINT
  5
706
  8
DEFPOINTS
 62
     0
 10
110.90894887128761
 20
51.811231005876088
 30
0.0
  0
ENDBLK
  5
69E
  8
0
  0
BLOCK
  8
0
  2
*D10
 70
     1
 10
0.0
 20
0.0
 30
0.0
  3
*D10
  1

  0
LINE
  5
707
  8
2
 62
     0
 10
83.408948871287663
 20
67.788076315297559
 30
0.0
 11
83.408948871287663
 21
45.68871310826006
 31
0.0
  0
LINE
  5
708
  8
2
 62
     0
 10
113.40894887128761
 20
67.788076315297559
 30
0.0
 11
113.40894887128761
 21
45.68871310826006
 31
0.0
  0
LINE
  5
709
  8
2
 62
     0
 10
85.908948871287663
 20
46.93871310826006
 30
0.0
 11
110.90894887128761
 21
46.93871310826006
 31
0.0
  0
SOLID
  5
70A
  8
2
 62
     0
 10
85.908948871287663
 20
47.355379774926718
 30
0.0
 11
85.908948871287663
 21
46.522046441593389
 31
0.0
 12
83.408948871287663
 22
46.93871310826006
 32
0.0
 13
83.408948871287663
 23
46.93871310826006
 33
0.0
  0
SOLID
  5
70B
  8
2
 62
     0
 10
110.90894887128761
 20
47.355379774926718
 30
0.0
 11
110.90894887128761
 21
46.522046441593389
 31
0.0
 12
113.40894887128761
 22
46.93871310826006
 32
0.0
 13
113.40894887128761
 23
46.93871310826006
 33
0.0
  0
INSERT
  5
70C
  8
2
  2
*U21
 10
0.0
 20
0.0
 30
0.0
  0
POINT
  5
70D
  8
DEFPOINTS
 62
     0
 10
83.408948871287663
 20
68.413076315297559
 30
0.0
  0
POINT
  5
70E
  8
DEFPOINTS
 62
     0
 10
113.40894887128761
 20
68.413076315297559
 30
0.0
  0
POINT
  5
70F
  8
DEFPOINTS
 62
     0
 10
113.40894887128761
 20
46.93871310826006
 30
0.0
  0
ENDBLK
  5
6AC
  8
0
  0
BLOCK
  8
0
  2
*D11
 70
     1
 10
0.0
 20
0.0
 30
0.0
  3
*D11
  1

  0
LINE
  5
710
  8
2
 62
     0
 10
78.20894887128766
 20
67.788076315297559
 30
0.0
 11
78.20894887128766
 21
40.816196178048067
 31
0.0
  0
LINE
  5
711
  8
2
 62
     0
 10
118.60894887128759
 20
67.788076315297559
 30
0.0
 11
118.60894887128759
 21
40.816196178048067
 31
0.0
  0
LINE
  5
712
  8
2
 62
     0
 10
80.70894887128766
 20
42.066196178048067
 30
0.0
 11
116.10894887128759
 21
42.066196178048067
 31
0.0
  0
SOLID
  5
713
  8
2
 62
     0
 10
80.70894887128766
 20
42.482862844714738
 30
0.0
 11
80.70894887128766
 21
41.649529511381409
 31
0.0
 12
78.20894887128766
 22
42.066196178048067
 32
0.0
 13
78.20894887128766
 23
42.066196178048067
 33
0.0
  0
SOLID
  5
714
  8
2
 62
     0
 10
116.10894887128759
 20
42.482862844714738
 30
0.0
 11
116.10894887128759
 21
41.649529511381409
 31
0.0
 12
118.60894887128759
 22
42.066196178048067
 32
0.0
 13
118.60894887128759
 23
42.066196178048067
 33
0.0
  0
INSERT
  5
715
  8
2
  2
*U22
 10
0.0
 20
0.0
 30
0.0
  0
POINT
  5
716
  8
DEFPOINTS
 62
     0
 10
78.20894887128766
 20
68.413076315297559
 30
0.0
  0
POINT
  5
717
  8
DEFPOINTS
 62
     0
 10
118.60894887128759
 20
68.413076315297559
 30
0.0
  0
POINT
  5
718
  8
DEFPOINTS
 62
     0
 10
118.60894887128759
 20
42.066196178048067
 30
0.0
  0
ENDBLK
  5
6B9
  8
0
  0
BLOCK
  8
0
  2
*D12
 70
     1
 10
0.0
 20
0.0
 30
0.0
  3
*D12
  1

  0
LINE
  5
719
  8
2
 62
     0
 10
75.908948871287663
 20
67.788076315297559
 30
0.0
 11
75.908948871287663
 21
36.349721035481529
 31
0.0
  0
LINE
  5
71A
  8
2
 62
     0
 10
120.90894887128761
 20
67.788076315297559
 30
0.0
 11
120.90894887128761
 21
36.349721035481529
 31
0.0
  0
LINE
  5
71B
  8
2
 62
     0
 10
78.408948871287663
 20
37.599721035481529
 30
0.0
 11
118.40894887128761
 21
37.599721035481529
 31
0.0
  0
SOLID
  5
71C
  8
2
 62
     0
 10
78.408948871287663
 20
38.016387702148201
 30
0.0
 11
78.408948871287663
 21
37.183054368814872
 31
0.0
 12
75.908948871287663
 22
37.599721035481529
 32
0.0
 13
75.908948871287663
 23
37.599721035481529
 33
0.0
  0
SOLID
  5
71D
  8
2
 62
     0
 10
118.40894887128761
 20
38.016387702148201
 30
0.0
 11
118.40894887128761
 21
37.183054368814872
 31
0.0
 12
120.90894887128761
 22
37.599721035481529
 32
0.0
 13
120.90894887128761
 23
37.599721035481529
 33
0.0
  0
INSERT
  5
71E
  8
2
  2
*U23
 10
0.0
 20
0.0
 30
0.0
  0
POINT
  5
71F
  8
DEFPOINTS
 62
     0
 10
75.908948871287663
 20
68.413076315297559
 30
0.0
  0
POINT
  5
720
  8
DEFPOINTS
 62
     0
 10
120.90894887128761
 20
68.413076315297559
 30
0.0
  0
POINT
  5
721
  8
DEFPOINTS
 62
     0
 10
120.90894887128761
 20
37.599721035481529
 30
0.0
  0
ENDBLK
  5
6C6
  8
0
  0
BLOCK
  8
0
  2
*U13
 70
     1
 10
0.0
 20
0.0
 30
0.0
  3
*U13
  1

  0
TEXT
  5
73D
  8
2
 10
107.2455494902824
 20
27.325837061059289
 30
0.0
 40
2.5
  1
8-
  0
TEXT
  5
73E
  8
2
 10
112.2455494902824
 20
27.325837061059289
 30
0.0
 40
2.5
  1
\U+2205
  0
TEXT
  5
73F
  8
2
 10
114.7455494902824
 20
27.325837061059289
 30
0.0
 40
2.5
  1
2
  0
ENDBLK
  5
741
  8
0
  0
BLOCK
  8
0
  2
*U14
 70
     1
 10
0.0
 20
0.0
 30
0.0
  3
*U14
  1

  0
TEXT
  5
743
  8
2
 62
     0
 10
93.408948871287663
 20
93.040549560322305
 30
0.0
 40
2.5
  1
\U+2205
  0
TEXT
  5
744
  8
2
 62
     0
 10
95.908948871287663
 20
93.040549560322305
 30
0.0
 40
2.5
  1
46.5
  0
ENDBLK
  5
746
  8
0
  0
BLOCK
  8
0
  2
*U15
 70
     1
 10
0.0
 20
0.0
 30
0.0
  3
*U15
  1

  0
TEXT
  5
748
  8
2
 62
     0
 10
93.408948871287663
 20
88.528625769043231
 30
0.0
 40
2.5
  1
\U+2205
  0
TEXT
  5
749
  8
2
 62
     0
 10
95.908948871287663
 20
88.528625769043231
 30
0.0
 40
2.5
  1
34.5
  0
ENDBLK
  5
74B
  8
0
  0
BLOCK
  8
0
  2
*U16
 70
     1
 10
0.0
 20
0.0
 30
0.0
  3
*U16
  1

  0
TEXT
  5
74D
  8
2
 62
     0
 10
95.075615537954334
 20
84.581849829858413
 30
0.0
 40
2.5
  1
\U+2205
  0
TEXT
  5
74E
  8
2
 62
     0
 10
97.575615537954334
 20
84.581849829858413
 30
0.0
 40
2.5
  1
23
  0
ENDBLK
  5
750
  8
0
  0
BLOCK
  8
0
  2
*U17
 70
     1
 10
0.0
 20
0.0
 30
0.0
  3
*U17
  1

  0
TEXT
  5
752
  8
2
 62
     0
 10
93.825615537954334
 20
80.321203471767888
 30
0.0
 40
2.5
  1
\U+2205
  0
TEXT
  5
753
  8
2
 62
     0
 10
96.325615537954334
 20
80.321203471767888
 30
0.0
 40
2.5
  1
13.2
  0
ENDBLK
  5
755
  8
0
  0
BLOCK
  8
0
  2
*U18
 70
     1
 10
0.0
 20
0.0
 30
0.0
  3
*U18
  1

  0
TEXT
  5
757
  8
2
 62
     0
 10
95.492282204620992
 20
61.233833705992602
 30
0.0
 40
2.5
  1
\U+2205
  0
TEXT
  5
758
  8
2
 62
     0
 10
97.992282204620992
 20
61.233833705992602
 30
0.0
 40
2.5
  1
15
  0
ENDBLK
  5
75A
  8
0
  0
BLOCK
  8
0
  2
*U19
 70
     1
 10
0.0
 20
0.0
 30
0.0
  3
*U19
  1

  0
TEXT
  5
75C
  8
2
 62
     0
 10
95.283948871287663
 20
57.173401802177807
 30
0.0
 40
2.5
  1
\U+2205
  0
TEXT
  5
75D
  8
2
 62
     0
 10
97.783948871287663
 20
57.173401802177807
 30
0.0
 40
2.5
  1
20
  0
ENDBLK
  5
75F
  8
0
  0
BLOCK
  8
0
  2
*U20
 70
     1
 10
0.0
 20
0.0
 30
0.0
  3
*U20
  1

  0
TEXT
  5
761
  8
2
 62
     0
 10
95.075615537954334
 20
52.436231005876088
 30
0.0
 40
2.5
  1
\U+2205
  0
TEXT
  5
762
  8
2
 62
     0
 10
97.575615537954334
 20
52.436231005876088
 30
0.0
 40
2.5
  1
25
  0
ENDBLK
  5
764
  8
0
  0
BLOCK
  8
0
  2
*U21
 70
     1
 10
0.0
 20
0.0
 30
0.0
  3
*U21
  1

  0
TEXT
  5
766
  8
2
 62
     0
 10
95.283948871287663
 20
47.56371310826006
 30
0.0
 40
2.5
  1
\U+2205
  0
TEXT
  5
767
  8
2
 62
     0
 10
97.783948871287663
 20
47.56371310826006
 30
0.0
 40
2.5
  1
30
  0
ENDBLK
  5
769
  8
0
  0
BLOCK
  8
0
  2
*U22
 70
     1
 10
0.0
 20
0.0
 30
0.0
  3
*U22
  1

  0
TEXT
  5
76B
  8
2
 62
     0
 10
93.617282204620992
 20
42.691196178048067
 30
0.0
 40
2.5
  1
\U+2205
  0
TEXT
  5
76C
  8
2
 62
     0
 10
96.117282204620992
 20
42.691196178048067
 30
0.0
 40
2.5
  1
40.4
  0
ENDBLK
  5
76E
  8
0
  0
BLOCK
  8
0
  2
*U23
 70
     1
 10
0.0
 20
0.0
 30
0.0
  3
*U23
  1

  0
TEXT
  5
770
  8
2
 62
     0
 10
95.075615537954334
 20
38.224721035481537
 30
0.0
 40
2.5
  1
\U+2205
  0
TEXT
  5
771
  8
2
 62
     0
 10
97.575615537954334
 20
38.224721035481537
 30
0.0
 40
2.5
  1
45
  0
ENDBLK
  5
773
  8
0
  0
ENDSEC
  0
SECTION
  2
ENTITIES
  0
TEXT
  5
177
  8
2
 10
81.439117646206256
 20
-39.923471367971352
 30
0.0
 40
2.5399440000000002
  1
No. 107.046.083.2
 51
-0.0000015352344868
  7
\U+00C9L\U+00C9R_\U+00C2S\U+00C2V\U+00C2B\U+00C2N
  0
LINE
  5
2D4
  8
0
 10
75.158948871287663
 20
73.413076315297559
 30
0.0
 11
75.158948871287663
 21
70.413076315297559
 31
0.0
  0
LINE
  5
2D5
  8
0
 39
5.0
 10
98.408948871287663
 20
73.413076315297559
 30
0.0
 11
75.158948871287663
 21
73.413076315297559
 31
0.0
  0
LINE
  5
33B
  8
0
 10
91.808948871287669
 20
73.413076315297559
 30
0.0
 11
91.808948871287669
 21
70.401676315297593
 31
0.0
  0
LINE
  5
486
  8
1
 10
98.408948871287663
 20
20.685966622886991
 30
0.0
 11
98.408948871287663
 21
-26.814033377112999
 31
0.0
  0
LINE
  5
4E6
  8
1
 10
122.15894887128761
 20
-3.0640333771130051
 30
0.0
 11
74.658948871287663
 21
-3.0640333771130051
 31
0.0
  0
CIRCLE
  5
4E8
  8
0
 10
98.408948871287663
 20
-3.0640333771130051
 30
0.0
 40
23.25
  0
CIRCLE
  5
4EA
  8
0
 10
98.408948871287663
 20
-3.0640333771130051
 30
0.0
 40
22.5
  0
CIRCLE
  5
4EC
  8
0
 10
98.408948871287663
 20
-3.0640333771130051
 30
0.0
 40
20.199999999999999
  0
CIRCLE
  5
4ED
  8
0
 10
98.408948871287663
 20
-3.0640333771130051
 30
0.0
 40
15.0
  0
CIRCLE
  5
4EE
  8
0
 10
98.408948871287663
 20
-3.0640333771130051
 30
0.0
 40
12.5
  0
CIRCLE
  5
4EF
  8
0
 10
98.408948871287663
 20
-3.0640333771130051
 30
0.0
 40
10.0
  0
CIRCLE
  5
4F1
  8
0
 10
98.408948871287663
 20
-3.0640333771130051
 30
0.0
 40
10.0
  0
CIRCLE
  5
4F2
  8
0
 10
98.408948871287663
 20
-3.0640333771130051
 30
0.0
 40
6.5999999999999988
  0
CIRCLE
  5
4F4
  8
1
 10
98.408948871287663
 20
-3.0640333771130051
 30
0.0
 40
11.5
  0
CIRCLE
  5
4F5
  8
1
 10
98.408948871287663
 20
-3.0640333771130051
 30
0.0
 40
17.25
  0
CIRCLE
  5
4F7
  8
0
 10
98.408948871287663
 20
14.185966622886991
 30
0.0
 40
1.0
  0
CIRCLE
  5
4F8
  8
0
 10
98.408948871287663
 20
8.4359666228869905
 30
0.0
 40
1.0
  0
CIRCLE
  5
4FA
  8
0
 10
109.90894887128761
 20
-3.0640333771130051
 30
0.0
 40
1.0
  0
CIRCLE
  5
4FC
  8
0
 10
115.65894887128761
 20
-3.0640333771130051
 30
0.0
 40
1.0
  0
CIRCLE
  5
4FE
  8
0
 10
98.408948871287663
 20
-14.564033377113001
 30
0.0
 40
1.0
  0
CIRCLE
  5
4FF
  8
0
 10
98.408948871287663
 20
-20.314033377112999
 30
0.0
 40
1.0
  0
CIRCLE
  5
501
  8
0
 10
81.158948871287649
 20
-3.0640333771130051
 30
0.0
 40
1.0
  0
CIRCLE
  5
502
  8
0
 10
86.908948871287663
 20
-3.0640333771130051
 30
0.0
 40
1.0
  0
INSERT
  5
5A9
  8
2
  2
*U13
 10
0.0
 20
0.0
 30
0.0
  0
POLYLINE
  8
0
  5
774
  66
     1
 10
0.000000
 20
0.000000
 30
0.000000
  70
     8
  0
VERTEX
  8
0
  5
775
 10
99.4085
 20
14.1570
 30
0.000000
  70
    32
  0
VERTEX
  8
0
  5
776
 10
106.573
 20
26.8018
 30
0.000000
  70
    32
  0
VERTEX
  8
0
  5
777
 10
117.338
 20
26.8018
 30
0.000000
  70
    32
  0
SEQEND
  8
0
  5
778
  0
LINE
  5
5BA
  8
1
 10
98.408948871287663
 20
73.913076315297545
 30
0.0
 11
98.408948871287663
 21
67.913076315297559
 31
0.0
  0
LINE
  5
5C0
  8
0
 10
88.408948871287663
 20
70.413076315297559
 30
0.0
 11
88.408948871287663
 21
68.413076315297559
 31
0.0
  0
LINE
  5
5C1
  8
0
 10
98.408948871287663
 20
70.413076315297559
 30
0.0
 11
90.908948871287663
 21
70.413076315297559
 31
0.0
  0
LINE
  5
5C3
  8
0
 10
98.408948871287663
 20
68.413076315297559
 30
0.0
 11
75.908948871287663
 21
68.413076315297559
 31
0.0
  0
LINE
  5
5C6
  8
0
 10
90.908948871287663
 20
70.413076315297559
 30
0.0
 11
90.908948871287663
 21
68.413076315297559
 31
0.0
  0
LINE
  5
5C8
  8
1
 10
86.908948871287663
 20
73.713076315297556
 30
0.0
 11
86.908948871287663
 21
70.113076315297562
 31
0.0
  0
LINE
  5
5CD
  8
0
 10
85.908948871287663
 20
73.413076315297559
 30
0.0
 11
85.908948871287663
 21
70.413076315297559
 31
0.0
  0
LINE
  5
5CE
  8
0
 10
87.908948871287663
 20
73.413076315297559
 30
0.0
 11
87.908948871287663
 21
70.413076315297559
 31
0.0
  0
LINE
  5
5D3
  8
0
 10
83.408948871287663
 20
70.413076315297559
 30
0.0
 11
83.408948871287663
 21
68.413076315297559
 31
0.0
  0
LINE
  5
5D5
  8
0
 10
85.908948871287663
 20
68.413076315297559
 30
0.0
 11
85.908948871287663
 21
70.413076315297559
 31
0.0
  0
LINE
  5
5D9
  8
1
 10
81.158948871287649
 20
73.713076315297556
 30
0.0
 11
81.158948871287649
 21
70.113076315297562
 31
0.0
  0
LINE
  5
5DE
  8
0
 10
82.158948871287663
 20
73.413076315297559
 30
0.0
 11
82.158948871287663
 21
70.413076315297559
 31
0.0
  0
LINE
  5
5DF
  8
0
 10
80.158948871287663
 20
73.413076315297559
 30
0.0
 11
80.158948871287663
 21
70.413076315297559
 31
0.0
  0
LINE
  5
5E3
  8
0
 10
75.908948871287663
 20
70.413076315297559
 30
0.0
 11
75.908948871287663
 21
68.413076315297559
 31
0.0
  0
LINE
  5
5E4
  8
0
 10
75.908948871287663
 20
70.413076315297559
 30
0.0
 11
75.158948871287663
 21
70.413076315297559
 31
0.0
  0
LINE
  5
5E8
  8
0
 10
83.408948871287663
 20
70.413076315297559
 30
0.0
 11
78.20894887128766
 21
70.413076315297559
 31
0.0
  0
LINE
  5
5E9
  8
0
 10
88.408948871287663
 20
70.413076315297559
 30
0.0
 11
85.908948871287663
 21
70.413076315297559
 31
0.0
  0
LINE
  5
607
  8
0
 10
78.20894887128766
 20
70.413076315297559
 30
0.0
 11
78.20894887128766
 21
68.413076315297559
 31
0.0
  0
LINE
  5
60C
  8
0
 39
5.0
 10
98.408948871287663
 20
73.413076315297559
 30
0.0
 11
121.65894887128761
 21
73.413076315297559
 31
0.0
  0
LINE
  5
60D
  8
0
 10
113.40894887128761
 20
70.413076315297559
 30
0.0
 11
118.60894887128759
 21
70.413076315297559
 31
0.0
  0
LINE
  5
60E
  8
0
 10
98.408948871287663
 20
68.413076315297559
 30
0.0
 11
120.90894887128761
 21
68.413076315297559
 31
0.0
  0
LINE
  5
60F
  8
0
 10
121.65894887128761
 20
73.413076315297559
 30
0.0
 11
121.65894887128761
 21
70.413076315297559
 31
0.0
  0
LINE
  5
610
  8
0
 10
118.60894887128759
 20
70.413076315297559
 30
0.0
 11
118.60894887128759
 21
68.413076315297559
 31
0.0
  0
LINE
  5
611
  8
0
 10
120.90894887128761
 20
70.413076315297559
 30
0.0
 11
121.65894887128761
 21
70.413076315297559
 31
0.0
  0
LINE
  5
612
  8
0
 10
120.90894887128761
 20
70.413076315297559
 30
0.0
 11
120.90894887128761
 21
68.413076315297559
 31
0.0
  0
LINE
  5
613
  8
0
 10
98.408948871287663
 20
70.413076315297559
 30
0.0
 11
105.90894887128761
 21
70.413076315297559
 31
0.0
  0
LINE
  5
614
  8
0
 10
116.65894887128761
 20
73.413076315297559
 30
0.0
 11
116.65894887128761
 21
70.413076315297559
 31
0.0
  0
LINE
  5
615
  8
0
 10
114.65894887128761
 20
73.413076315297559
 30
0.0
 11
114.65894887128761
 21
70.413076315297559
 31
0.0
  0
LINE
  5
616
  8
0
 10
108.90894887128761
 20
73.413076315297559
 30
0.0
 11
108.90894887128761
 21
70.413076315297559
 31
0.0
  0
LINE
  5
617
  8
0
 10
110.90894887128761
 20
73.413076315297559
 30
0.0
 11
110.90894887128761
 21
70.413076315297559
 31
0.0
  0
LINE
  5
618
  8
0
 10
105.0089488712876
 20
73.413076315297559
 30
0.0
 11
105.0089488712876
 21
70.401676315297593
 31
0.0
  0
LINE
  5
619
  8
1
 10
115.65894887128761
 20
73.713076315297556
 30
0.0
 11
115.65894887128761
 21
70.113076315297562
 31
0.0
  0
LINE
  5
61A
  8
1
 10
109.90894887128761
 20
73.713076315297556
 30
0.0
 11
109.90894887128761
 21
70.113076315297562
 31
0.0
  0
LINE
  5
61B
  8
0
 10
108.40894887128761
 20
70.413076315297559
 30
0.0
 11
110.90894887128761
 21
70.413076315297559
 31
0.0
  0
LINE
  5
61C
  8
0
 10
110.90894887128761
 20
68.413076315297559
 30
0.0
 11
110.90894887128761
 21
70.413076315297559
 31
0.0
  0
LINE
  5
61D
  8
0
 10
113.40894887128761
 20
70.413076315297559
 30
0.0
 11
113.40894887128761
 21
68.413076315297559
 31
0.0
  0
LINE
  5
61E
  8
0
 10
105.90894887128761
 20
70.413076315297559
 30
0.0
 11
105.90894887128761
 21
68.413076315297559
 31
0.0
  0
LINE
  5
61F
  8
0
 10
108.40894887128761
 20
70.413076315297559
 30
0.0
 11
108.40894887128761
 21
68.413076315297559
 31
0.0
  0
DIMENSION
  5
625
  8
2
  2
*D1
 10
105.0089488712876
 20
79.696203471767888
 30
0.0
 11
98.408948871287663
 21
81.571203471767888
 31
0.0
 70
     0
  1
%%c<>
 13
91.808948871287669
 23
73.413076315297559
 33
0.0
 14
105.0089488712876
 24
73.413076315297559
 34
0.0
  0
DIMENSION
  5
632
  8
2
  2
*D2
 10
109.90894887128761
 20
83.956849829858413
 30
0.0
 11
98.408948871287663
 21
85.831849829858413
 31
0.0
 70
     0
  1
%%c<>
 13
86.908948871287663
 23
73.713076315297556
 33
0.0
 14
109.90894887128761
 24
73.713076315297556
 34
0.0
  0
DIMENSION
  5
63F
  8
2
  2
*D3
 10
115.65894887128761
 20
87.903625769043231
 30
0.0
 11
98.408948871287663
 21
89.778625769043231
 31
0.0
 70
     0
  1
%%c<>
 13
81.158948871287649
 23
73.713076315297556
 33
0.0
 14
115.65894887128761
 24
73.713076315297556
 34
0.0
  0
DIMENSION
  5
64C
  8
2
  2
*D4
 10
121.65894887128761
 20
92.415549560322305
 30
0.0
 11
98.408948871287663
 21
94.290549560322305
 31
0.0
 70
     0
  1
%%c<>
 13
75.158948871287663
 23
73.413076315297559
 33
0.0
 14
121.65894887128761
 24
73.413076315297559
 34
0.0
  0
DIMENSION
  5
659
  8
2
  2
*D5
 10
130.88518574687441
 20
70.413076315297559
 30
0.0
 11
129.0101857468743
 21
71.913076315297573
 31
0.0
 70
     0
 13
121.65894887128761
 23
73.413076315297559
 33
0.0
 14
121.65894887128761
 24
70.413076315297559
 34
0.0
 50
90.0
  0
DIMENSION
  5
668
  8
2
  2
*D6
 10
136.71305308906719
 20
68.413076315297559
 30
0.0
 11
134.83805308906719
 21
70.913076315297573
 31
0.0
 70
     0
 13
121.65894887128761
 23
73.413076315297559
 33
0.0
 14
120.90894887128761
 24
68.413076315297559
 34
0.0
 50
90.0
  0
DIMENSION
  5
678
  8
2
  2
*D7
 10
105.90894887128761
 20
60.608833705992602
 30
0.0
 11
98.408948871287663
 21
62.483833705992602
 31
0.0
 70
     0
  1
%%c<>
 13
90.908948871287663
 23
68.413076315297559
 33
0.0
 14
105.90894887128761
 24
68.413076315297559
 34
0.0
  0
DIMENSION
  5
685
  8
2
  2
*D8
 10
108.40894887128761
 20
56.548401802177807
 30
0.0
 11
98.408948871287663
 21
58.423401802177807
 31
0.0
 70
     0
  1
%%c<>
 13
88.408948871287663
 23
68.413076315297559
 33
0.0
 14
108.40894887128761
 24
68.413076315297559
 34
0.0
  0
DIMENSION
  5
692
  8
2
  2
*D9
 10
110.90894887128761
 20
51.811231005876088
 30
0.0
 11
98.408948871287663
 21
53.686231005876088
 31
0.0
 70
     0
  1
%%c<>
 13
85.908948871287663
 23
68.413076315297559
 33
0.0
 14
110.90894887128761
 24
68.413076315297559
 34
0.0
  0
DIMENSION
  5
6A0
  8
2
  2
*D10
 10
113.40894887128761
 20
46.93871310826006
 30
0.0
 11
98.408948871287663
 21
48.81371310826006
 31
0.0
 70
     0
  1
%%c<>
 13
83.408948871287663
 23
68.413076315297559
 33
0.0
 14
113.40894887128761
 24
68.413076315297559
 34
0.0
  0
DIMENSION
  5
6AD
  8
2
  2
*D11
 10
118.60894887128759
 20
42.066196178048067
 30
0.0
 11
98.408948871287663
 21
43.941196178048067
 31
0.0
 70
     0
  1
%%c<>
 13
78.20894887128766
 23
68.413076315297559
 33
0.0
 14
118.60894887128759
 24
68.413076315297559
 34
0.0
  0
DIMENSION
  5
6BA
  8
2
  2
*D12
 10
120.90894887128761
 20
37.599721035481529
 30
0.0
 11
98.408948871287663
 21
39.474721035481537
 31
0.0
 70
     0
  1
%%c<>
 13
75.908948871287663
 23
68.413076315297559
 33
0.0
 14
120.90894887128761
 24
68.413076315297559
 34
0.0
  0
ENDSEC
  0
EOF
